<?xml version="1.0" standalone="no"?>
<!DOCTYPE svg PUBLIC "-//W3C//DTD SVG 1.1//EN" "http://www.w3.org/Graphics/SVG/1.1/DTD/svg11.dtd" >
<svg xmlns="http://www.w3.org/2000/svg">
<metadata></metadata>
<defs>
<font id="ars_maquette_problack" horiz-adv-x="1245" >
<font-face units-per-em="2048" ascent="1638" descent="-410" />
<missing-glyph horiz-adv-x="552" />
<glyph unicode="ff" horiz-adv-x="1591" d="M39 829v279h166v8q0 160 110 264.5t320 104.5q112 0 207 -23l-35 -280q-63 22 -125 22q-54 0 -79 -18t-25 -60v-18h389v8q0 160 110 264.5t320 104.5q112 0 207 -23l-35 -280q-63 22 -125 22q-54 0 -79.5 -18t-25.5 -60v-18h217v-279h-217v-829h-372v829h-389v-829h-373 v829h-166z" />
<glyph unicode="fi" horiz-adv-x="1441" d="M39 829v279h166v8q0 160 110 264.5t320 104.5q112 0 207 -23l-35 -280q-63 22 -125 22q-54 0 -79 -18t-25 -60v-18h217v-279h-217v-829h-373v829h-166zM952 0v1108h375v-1108h-375zM952 1223v239h375v-239h-375z" />
<glyph unicode="fl" horiz-adv-x="1441" d="M39 829v279h166v8q0 160 110 264.5t320 104.5q112 0 207 -23l-35 -280q-63 22 -125 22q-54 0 -79 -18t-25 -60v-18h217v-279h-217v-829h-373v829h-166zM952 0v1462h375v-1462h-375z" />
<glyph unicode="fj" horiz-adv-x="1449" d="M39 829v279h166v8q0 160 110 264.5t320 104.5q112 0 207 -23l-35 -280q-63 22 -125 22q-54 0 -79 -18t-25 -60v-18h217v-279h-217v-829h-373v829h-166zM659 -303l105 266q53 -31 106 -31q91 0 91 107v1069h374v-1063q0 -209 -107.5 -313.5t-301.5 -104.5 q-69 0 -141.5 18.5t-125.5 51.5zM961 1223v239h374v-239h-374z" />
<glyph unicode=" "  horiz-adv-x="552" />
<glyph unicode="&#x09;" horiz-adv-x="552" />
<glyph unicode="&#xa0;" horiz-adv-x="552" />
<glyph unicode="!" horiz-adv-x="641" d="M123 0v344h395v-344h-395zM123 1020v344h395v-344l-100 -543h-195z" />
<glyph unicode="&#x22;" horiz-adv-x="1042" d="M57 1255v109h400v-109l-103 -518h-194zM584 1255v109h401v-109l-104 -518h-193z" />
<glyph unicode="#" horiz-adv-x="1347" d="M74 360v205h254l45 238h-217v207h256l67 354h232l-66 -354h178l68 354h233l-67 -354h217v-207h-256l-43 -238h219v-205h-258l-66 -360h-233l68 360h-181l-67 -360h-234l66 360h-215zM563 565h180l43 238h-180z" />
<glyph unicode="$" d="M41 346l295 127q72 -182 256 -207v254q-75 14 -170 56.5t-162 95.5q-139 108 -139 297q0 184 128.5 299t342.5 121v96h129v-105q295 -41 436 -284l-262 -146q-42 58 -81 88t-93 47v-227q204 -46 326 -149q137 -113 137 -291q0 -174 -121.5 -296t-341.5 -142v-173h-129 v170q-194 12 -337.5 108t-213.5 261zM463 997q0 -43 31.5 -69t97.5 -41v211q-57 -3 -93 -27.5t-36 -73.5zM721 262q129 14 129 113q0 91 -129 117v-230z" />
<glyph unicode="%" horiz-adv-x="1687" d="M68 1014q0 154 108 261t262 107q153 0 261 -107.5t108 -260.5q0 -152 -108.5 -259.5t-260.5 -107.5q-154 0 -262 107.5t-108 259.5zM307 1014q0 -54 37.5 -90.5t93.5 -36.5q54 0 91.5 36.5t37.5 90.5t-37.5 91.5t-91.5 37.5q-55 0 -93 -37.5t-38 -91.5zM336 0l737 1364 h279l-738 -1364h-278zM883 350q0 152 108 259.5t260 107.5q154 0 262.5 -107.5t108.5 -259.5q0 -153 -108.5 -260.5t-262.5 -107.5q-153 0 -260.5 107.5t-107.5 260.5zM1122 350q0 -54 37.5 -91.5t91.5 -37.5t92.5 37.5t38.5 91.5t-38.5 90.5t-92.5 36.5t-91.5 -36.5 t-37.5 -90.5z" />
<glyph unicode="&#x26;" horiz-adv-x="1497" d="M35 383q0 251 282 369q-60 71 -88 134.5t-28 141.5q0 174 126 267.5t332 93.5q70 0 133.5 -11t121.5 -36.5t100 -63.5t67 -95.5t25 -129.5q0 -71 -23 -129t-67 -101t-89 -72.5t-106 -58.5l176 -180q62 93 90 195l306 -68q-24 -90 -74.5 -183t-108.5 -159l293 -297h-487 l-70 74q-183 -99 -387 -99q-144 0 -261 45.5t-190 139.5t-73 223zM395 430q0 -71 56.5 -118.5t150.5 -47.5q71 0 139 29l-256 276q-90 -57 -90 -139zM539 1038q0 -43 26.5 -81.5t79.5 -88.5q156 69 156 168q0 49 -34 80t-95 31q-59 0 -96 -28t-37 -81z" />
<glyph unicode="'" horiz-adv-x="514" d="M57 1255v109h400v-109l-103 -518h-194z" />
<glyph unicode="(" horiz-adv-x="649" d="M47 621q0 440 363 874l215 -131q-155 -216 -213 -388.5t-58 -354.5t58 -355t213 -389l-215 -131q-363 434 -363 875z" />
<glyph unicode=")" horiz-adv-x="649" d="M25 -123q155 216 212.5 388.5t57.5 355.5t-57.5 355t-212.5 388l215 131q362 -433 362 -874q0 -442 -362 -875z" />
<glyph unicode="*" horiz-adv-x="1085" d="M78 893q88 53 162.5 74.5t212.5 36.5q-139 16 -213 37t-162 73l137 238q88 -51 144.5 -105.5t138.5 -165.5q-55 125 -73.5 201t-18.5 180h274q0 -104 -18.5 -180t-73.5 -201q82 111 138 165.5t144 105.5l138 -238q-88 -52 -162 -73t-213 -37q138 -15 212.5 -36.5 t162.5 -74.5l-138 -238q-88 51 -144 105.5t-138 165.5q55 -125 73.5 -201t18.5 -180h-274q0 104 18.5 180t73.5 201q-82 -111 -138.5 -165.5t-144.5 -105.5z" />
<glyph unicode="+" d="M72 469v307h397v398h307v-398h398v-307h-398v-397h-307v397h-397z" />
<glyph unicode="," horiz-adv-x="608" d="M109 0v383h393v-266q0 -160 -63.5 -278t-215.5 -226l-114 149q74 43 122 106.5t48 127.5v4h-170z" />
<glyph unicode="-" horiz-adv-x="868" d="M98 410v331h672v-331h-672z" />
<glyph unicode="." horiz-adv-x="610" d="M109 0v383h393v-383h-393z" />
<glyph unicode="/" horiz-adv-x="882" d="M63 -221l451 1683h311l-450 -1683h-312z" />
<glyph unicode="0" d="M63 686q0 112 16.5 210.5t57 191t102.5 158.5t159 105.5t220 39.5q124 0 222 -39.5t161 -105.5t104.5 -158.5t59 -191.5t17.5 -210q0 -113 -17.5 -212.5t-59 -192.5t-104.5 -159.5t-161 -106.5t-222 -40q-123 0 -220 40t-159 106.5t-102.5 159.5t-57 192.5t-16.5 212.5z M449 686q0 -71 3 -123.5t13.5 -108.5t28 -91t49 -57.5t75.5 -22.5t76 22.5t50.5 58t30 90t15 108.5t3.5 124q0 88 -6.5 152.5t-24.5 124.5t-54 91t-90 31q-44 0 -75.5 -22t-49 -56.5t-28 -89.5t-13.5 -107.5t-3 -123.5z" />
<glyph unicode="1" d="M121 1194q165 27 271 66.5t177 103.5h285v-1042h297v-322h-993v322h315v647q-135 -43 -307 -60z" />
<glyph unicode="2" d="M43 1049q198 340 559 340q233 0 376.5 -121t143.5 -332q0 -156 -115.5 -308.5t-349.5 -283.5h512v-344h-1079v272q368 261 497.5 392t129.5 249q0 64 -43.5 105t-108.5 41q-66 0 -124 -43t-95 -129z" />
<glyph unicode="3" d="M27 360l315 125q35 -88 106 -138t175 -50q86 0 130 34t44 91q0 60 -49 91.5t-140 31.5h-127v295h121q85 0 123.5 32t38.5 84q0 55 -40 83t-112 28q-188 0 -270 -172l-287 145q200 349 590 349q226 0 362 -106t136 -275q0 -100 -49.5 -173t-135.5 -114q103 -35 165.5 -117 t62.5 -194q0 -68 -23.5 -131.5t-71 -118.5t-114 -96.5t-158 -65t-198.5 -23.5q-220 0 -367.5 101.5t-226.5 283.5z" />
<glyph unicode="4" d="M41 256v274q103 203 164 432t61 402h371q0 -344 -240 -797h273v453h370v-453h166v-311h-166v-256h-381v256h-618z" />
<glyph unicode="5" d="M49 283l303 161q75 -141 238 -141q76 0 132 47t56 121q0 75 -53.5 122.5t-146.5 47.5q-140 0 -226 -109l-225 89l51 743h918v-344h-621l-22 -158q41 29 105 44.5t128 15.5q132 0 239 -50t173.5 -153t66.5 -244q0 -95 -34 -182t-100 -159t-176.5 -115.5t-250.5 -43.5 q-374 0 -555 308z" />
<glyph unicode="6" d="M82 520q0 125 30 243.5t87 223t128.5 196t164.5 181.5h536q-318 -226 -442 -434q62 41 172 41q194 0 316 -127t122 -342q0 -236 -153 -381.5t-402 -145.5q-261 0 -410 141t-149 404zM475 496q0 -92 41 -146.5t123 -54.5q79 0 119.5 55t40.5 148t-40 144.5t-120 51.5 q-82 0 -123 -52.5t-41 -145.5z" />
<glyph unicode="7" d="M86 1020v344h1081v-256q-16 -24 -66 -96.5t-74 -109t-71.5 -110t-73 -123t-62.5 -122.5t-57 -133.5t-39.5 -132t-25.5 -142t-2 -139.5h-430q0 94 17 189.5t40 171.5t66 163.5t74.5 143t87.5 135t83 114l81 103.5h-629z" />
<glyph unicode="8" d="M57 395q0 119 60 203t159 121q-174 93 -174 297q0 117 74 203.5t190.5 128t256.5 41.5t256.5 -41.5t190 -128t73.5 -203.5q0 -204 -174 -297q99 -37 159 -121t60 -203q0 -183 -147 -301.5t-418 -118.5t-418.5 118.5t-147.5 301.5zM451 416q0 -82 48 -120t124 -38 q77 0 124.5 37.5t47.5 120.5q0 82 -48 120.5t-124 38.5t-124 -38.5t-48 -120.5zM485 973q0 -69 39 -102t97 -33q60 0 99.5 33t39.5 102q0 65 -40 100t-97 35q-58 0 -98 -35t-40 -100z" />
<glyph unicode="9" d="M49 862q0 236 153.5 381.5t403.5 145.5q260 0 409.5 -141t149.5 -404q0 -242 -108 -446.5t-301 -397.5h-539q316 222 445 434q-65 -41 -175 -41q-194 0 -316 127t-122 342zM446 866q0 -93 40.5 -144.5t121.5 -51.5q82 0 122 52.5t40 145.5q0 92 -40.5 146.5t-121.5 54.5 q-80 0 -121 -55t-41 -148z" />
<glyph unicode=":" horiz-adv-x="700" d="M154 0v383h393v-383h-393zM154 723v385h393v-385h-393z" />
<glyph unicode=";" horiz-adv-x="661" d="M154 0v383h393v-266q0 -160 -63.5 -278t-215.5 -226l-114 149q74 43 122 106.5t48 127.5v4h-170zM154 723v385h393v-385h-393z" />
<glyph unicode="&#x3c;" d="M164 625l649 649l217 -215l-434 -434l434 -432l-217 -218z" />
<glyph unicode="=" d="M72 244v307h1102v-307h-1102zM72 694v307h1102v-307h-1102z" />
<glyph unicode="&#x3e;" d="M215 193l434 432l-434 434l215 215l649 -649l-649 -650z" />
<glyph unicode="?" horiz-adv-x="1210" d="M57 1190q112 101 242 151t293 50q240 0 384 -119.5t144 -331.5q0 -93 -34 -171.5t-92 -134t-123.5 -94t-141.5 -63.5h-381v314q55 -17 139 -17q236 0 236 154q0 70 -50.5 105.5t-123.5 35.5q-177 0 -287 -121zM348 0v344h395v-344h-395z" />
<glyph unicode="@" horiz-adv-x="1773" d="M82 616q0 165 57 307t161 245.5t260 163t345 59.5q183 0 333.5 -58.5t252.5 -161.5t157.5 -245.5t55.5 -309.5q0 -195 -100 -316.5t-271 -121.5q-78 0 -149 31t-109 100q-84 -131 -254 -131q-168 0 -267 122t-99 310q0 190 99.5 312t264.5 122q110 0 191 -94v78h280v-573 q0 -127 101 -127q73 0 114 81.5t41 206.5q0 292 -163.5 463.5t-469.5 171.5q-150 0 -273 -50.5t-202 -137.5t-121.5 -201.5t-42.5 -245.5q0 -132 42.5 -246.5t122 -200.5t201.5 -135.5t273 -49.5q206 0 336 98l64 -129q-178 -109 -408 -109q-189 0 -345 58.5t-260 161 t-161 244.5t-57 308zM743 610q0 -87 34.5 -144.5t96.5 -57.5q66 0 101 56.5t35 145.5q0 87 -36 147t-100 60q-62 0 -96.5 -60t-34.5 -147z" />
<glyph unicode="A" horiz-adv-x="1421" d="M-8 0l485 1364h467l483 -1364h-432l-69 252h-441l-69 -252h-424zM567 555h275l-137 494z" />
<glyph unicode="B" horiz-adv-x="1400" d="M131 0v1364h684q228 0 353.5 -97t125.5 -266q0 -90 -46 -167.5t-130 -122.5q106 -41 162.5 -122.5t56.5 -187.5q0 -187 -129.5 -294t-355.5 -107h-721zM520 330h299q55 0 89 28t34 78t-34 79.5t-89 29.5h-299v-215zM520 846h262q56 0 89.5 24t33.5 72q0 92 -123 92h-262 v-188z" />
<glyph unicode="C" horiz-adv-x="1421" d="M57 686q0 158 51.5 290t143.5 222.5t221 140.5t281 50q420 0 628 -369l-307 -170q-58 109 -134.5 158t-176.5 49q-142 0 -225.5 -106t-83.5 -265q0 -162 83.5 -270.5t225.5 -108.5q106 0 175.5 55.5t123.5 167.5l328 -151q-204 -404 -637 -404q-203 0 -361 87t-247 249 t-89 375z" />
<glyph unicode="D" horiz-adv-x="1490" d="M131 0v1364h584q172 0 309.5 -52t225.5 -144.5t135 -216.5t47 -269t-47 -269t-135 -216.5t-225.5 -144.5t-309.5 -52h-584zM520 344h195q155 0 236 89t81 249q0 159 -81.5 248.5t-235.5 89.5h-195v-676z" />
<glyph unicode="E" horiz-adv-x="1302" d="M131 0v1364h1075v-344h-688v-164h598v-303h-598v-209h709v-344h-1096z" />
<glyph unicode="F" horiz-adv-x="1261" d="M131 0v1364h1086v-344h-699v-205h598v-303h-598v-512h-387z" />
<glyph unicode="G" horiz-adv-x="1486" d="M57 686q0 323 194.5 513t516.5 190q208 0 367 -94t251 -265l-327 -162q-84 189 -291 189q-151 0 -231 -103.5t-80 -267.5q0 -190 84.5 -293.5t236.5 -103.5q101 0 175 47.5t91 130.5h-296v303h686q12 -56 12 -135q0 -140 -44 -259t-127.5 -209t-214.5 -141t-296 -51 q-317 0 -512 194.5t-195 516.5z" />
<glyph unicode="H" horiz-adv-x="1521" d="M131 0v1364h389v-479h479v479h392v-1364h-392v541h-479v-541h-389z" />
<glyph unicode="I" horiz-adv-x="649" d="M131 0v1364h387v-1364h-387z" />
<glyph unicode="J" horiz-adv-x="1177" d="M-2 307l334 144q23 -68 69 -103t107 -35q78 0 120 43t42 129v879h387v-868q0 -254 -142 -387.5t-385 -133.5q-188 0 -325.5 83t-206.5 249z" />
<glyph unicode="K" horiz-adv-x="1464" d="M131 0v1364h387v-528l443 528h466l-458 -535l510 -829h-463l-320 541l-178 -211v-330h-387z" />
<glyph unicode="L" horiz-adv-x="1202" d="M131 0v1364h387v-1020h660v-344h-1047z" />
<glyph unicode="M" horiz-adv-x="1878" d="M131 0v1364h555l256 -879l256 879h549v-1364h-377v954l-280 -954h-306l-276 944v-944h-377z" />
<glyph unicode="N" horiz-adv-x="1523" d="M131 0v1364h490l401 -821v821h371v-1364h-473l-416 840v-840h-373z" />
<glyph unicode="O" horiz-adv-x="1536" d="M55 682q0 146 48.5 274.5t138 225t225 152t299.5 55.5t300.5 -55.5t226 -152t139 -225t49.5 -274.5q0 -118 -31 -224.5t-92 -194.5t-146 -152.5t-199.5 -100t-246.5 -35.5q-164 0 -299.5 55t-225 151t-138 224.5t-48.5 276.5zM457 682q0 -151 80.5 -252.5t228.5 -101.5 q150 0 231.5 101.5t81.5 252.5q0 149 -82 251.5t-231 102.5q-99 0 -171 -50.5t-105 -129t-33 -174.5z" />
<glyph unicode="P" horiz-adv-x="1355" d="M131 0v1364h660q246 0 392 -132t146 -353t-146 -352.5t-392 -131.5h-271v-395h-389zM520 741h266q67 0 109.5 34.5t42.5 105.5t-42.5 105t-109.5 34h-266v-279z" />
<glyph unicode="Q" horiz-adv-x="1536" d="M55 686q0 146 48.5 274t138 223.5t225 150.5t299.5 55q132 0 246.5 -35.5t199.5 -100t146 -152t92 -193t31 -222.5q0 -144 -47.5 -272t-135.5 -224l146 -163l-248 -205l-160 196q-127 -43 -270 -43q-164 0 -299.5 56t-225 152.5t-138 225.5t-48.5 277zM457 686 q0 -98 33 -177.5t104.5 -130t171.5 -50.5h22l-110 139l219 176l137 -156q45 88 45 199q0 148 -82 249t-231 101q-100 0 -171.5 -49.5t-104.5 -127t-33 -173.5z" />
<glyph unicode="R" horiz-adv-x="1406" d="M131 0v1364h662q262 0 399 -124t137 -327q0 -97 -39 -181t-91 -133.5t-114 -82.5l283 -516h-430l-225 438h-193v-438h-389zM520 741h264q65 0 108.5 38t43.5 104t-43.5 101.5t-108.5 35.5h-264v-279z" />
<glyph unicode="S" horiz-adv-x="1339" d="M20 346l302 150q119 -211 380 -211q96 0 150.5 28.5t54.5 79.5q0 20 -8 36t-26.5 28t-34 20t-47 15t-47.5 10t-53.5 8.5t-47.5 7.5q-89 14 -161 33t-146 53.5t-123.5 80t-81 115t-31.5 156.5q0 200 150 316.5t403 116.5q87 0 168 -15t162 -47.5t153 -91t124 -139.5 l-293 -166q-108 153 -320 153q-75 0 -118.5 -26t-43.5 -72q0 -20 9 -36t29.5 -27.5t40 -20t55.5 -16t59 -11t67 -10.5q68 -11 123.5 -23t113 -30.5t101.5 -41t83.5 -54.5t64.5 -70.5t40 -89.5t15 -111q0 -99 -39 -184t-112.5 -148.5t-188 -100t-256.5 -36.5 q-236 0 -411.5 97t-258.5 274z" />
<glyph unicode="T" horiz-adv-x="1302" d="M53 1020v344h1196v-344h-405v-1020h-387v1020h-404z" />
<glyph unicode="U" horiz-adv-x="1464" d="M119 537v827h389v-827q0 -108 55 -159.5t170 -51.5q225 0 225 211v827h388v-827q0 -272 -164 -417t-449 -145q-286 0 -450 145t-164 417z" />
<glyph unicode="V" horiz-adv-x="1404" d="M-10 1364h424l288 -909l279 909h432l-500 -1364h-421z" />
<glyph unicode="W" horiz-adv-x="1998" d="M27 1364h424l163 -805l215 805h338l215 -809l166 809h430l-376 -1364h-416l-191 748l-192 -748h-416z" />
<glyph unicode="X" horiz-adv-x="1466" d="M-14 0l495 713l-448 651h463l239 -391l238 391h459l-447 -651l496 -713h-471l-279 438l-278 -438h-467z" />
<glyph unicode="Y" horiz-adv-x="1421" d="M-12 1364h452l271 -504l272 504h451l-531 -852v-512h-385v508z" />
<glyph unicode="Z" horiz-adv-x="1339" d="M72 0v291l626 729h-600v344h1147v-270l-643 -750h662v-344h-1192z" />
<glyph unicode="[" horiz-adv-x="690" d="M117 -221v1683h553v-221h-246v-1241h246v-221h-553z" />
<glyph unicode="\" horiz-adv-x="882" d="M57 1462h312l450 -1683h-311z" />
<glyph unicode="]" horiz-adv-x="690" d="M20 0h246v1241h-246v221h553v-1683h-553v221z" />
<glyph unicode="^" d="M25 887l477 477h248l477 -477l-215 -215l-387 385l-385 -385z" />
<glyph unicode="_" horiz-adv-x="1165" d="M-29 -154h1223v-102h-1223v102z" />
<glyph unicode="`" horiz-adv-x="663" d="M90 1462l293 49q36 -96 166 -290l-137 -60q-93 45 -189 129.5t-133 171.5z" />
<glyph unicode="a" horiz-adv-x="1218" d="M49 324q0 57 14 103t36 78t57 57t67.5 39.5t78.5 25.5t79.5 16t79.5 10q49 5 73.5 8t57.5 8t48 11t31 15.5t21.5 22.5t5.5 30q0 81 -147 81q-82 0 -179 -26t-173 -72l-113 281q225 118 496 118q114 0 201 -21t153.5 -66.5t101.5 -123t35 -184.5v-450q0 -26 11.5 -35.5 t33.5 -9.5q34 0 51 14l37 -227q-65 -43 -192 -43q-82 0 -147 31.5t-95 93.5q-51 -68 -142.5 -101t-193.5 -33q-174 0 -280.5 91.5t-106.5 257.5zM418 342q0 -102 123 -102q74 0 115.5 40.5t41.5 118.5v107q-6 -7 -13.5 -12.5t-14.5 -9.5t-18 -8t-17.5 -6t-21 -4.5t-21 -3.5 t-24 -3.5t-23.5 -3.5q-27 -5 -45.5 -10.5t-39 -17.5t-31.5 -33.5t-11 -51.5z" />
<glyph unicode="b" horiz-adv-x="1361" d="M115 0v1462h374v-456q130 124 316 124q228 0 365 -162t137 -415q0 -122 -35.5 -228t-99.5 -183.5t-159 -122t-208 -44.5q-183 0 -316 127v-102h-374zM489 551q0 -112 56 -184t160 -72q101 0 153.5 72.5t52.5 183.5q0 112 -53 187t-153 75q-103 0 -159.5 -75t-56.5 -187z " />
<glyph unicode="c" horiz-adv-x="1179" d="M51 551q0 253 160.5 416t423.5 163q183 0 310.5 -82t201.5 -221l-275 -165q-76 155 -217 155q-98 0 -153.5 -72.5t-55.5 -189.5q0 -121 58.5 -193.5t159.5 -72.5q143 0 233 149l254 -180q-74 -129 -202 -206t-310 -77q-133 0 -244 43.5t-186 120.5t-116.5 183t-41.5 229z " />
<glyph unicode="d" horiz-adv-x="1361" d="M55 553q0 253 137 415t365 162q185 0 315 -124v456h375v-1462h-375v102q-133 -127 -315 -127q-113 0 -208 44.5t-159 122t-99.5 183.5t-35.5 228zM451 551q0 -111 52.5 -183.5t153.5 -72.5q104 0 159.5 72t55.5 184t-56 187t-159 75q-100 0 -153 -75t-53 -187z" />
<glyph unicode="e" horiz-adv-x="1280" d="M51 547q0 258 160 420.5t438 162.5q271 0 423.5 -155t152.5 -416q0 -44 -4 -98h-766q6 -87 69.5 -132.5t167.5 -45.5q176 0 289 123l244 -213q-222 -218 -555 -218q-151 0 -270 43.5t-194.5 120.5t-115 180.5t-39.5 227.5zM455 686h403q-6 86 -60 131t-141 45t-141 -44.5 t-61 -131.5z" />
<glyph unicode="f" horiz-adv-x="829" d="M39 829v279h166v8q0 160 110 264.5t320 104.5q112 0 207 -23l-35 -280q-63 22 -125 22q-54 0 -79 -18t-25 -60v-18h217v-279h-217v-829h-373v829h-166z" />
<glyph unicode="g" horiz-adv-x="1361" d="M57 602q0 146 60 265.5t176 191t266 71.5q186 0 315 -126v104h375v-870q0 -147 -27.5 -250.5t-101.5 -184.5q-164 -180 -536 -180q-287 0 -490 111l123 282q148 -86 356 -86q136 0 218.5 50t82.5 161v58q-131 -125 -315 -125q-151 0 -266.5 71t-175.5 190.5t-60 266.5z M453 604q0 -102 54 -165.5t152 -63.5q99 0 157 65t58 164q0 100 -57 162.5t-158 62.5q-99 0 -152.5 -61.5t-53.5 -163.5z" />
<glyph unicode="h" horiz-adv-x="1273" d="M115 0v1462h374v-456q62 59 144 91.5t168 32.5q93 0 164.5 -31.5t115 -85.5t65 -122.5t21.5 -147.5v-743h-374v657q0 146 -142 146q-70 0 -116 -42t-46 -124v-637h-374z" />
<glyph unicode="i" horiz-adv-x="604" d="M115 0v1108h374v-1108h-374zM115 1223v239h374v-239h-374z" />
<glyph unicode="j" horiz-adv-x="604" d="M-186 -303l104 266q53 -31 107 -31q90 0 90 107v1069h374v-1063q0 -209 -107.5 -313.5t-301.5 -104.5q-69 0 -141 18.5t-125 51.5zM115 1223v239h374v-239h-374z" />
<glyph unicode="k" horiz-adv-x="1316" d="M115 0v1462h374v-770l359 416h434l-389 -426l432 -682h-440l-246 432l-150 -166v-266h-374z" />
<glyph unicode="l" horiz-adv-x="604" d="M115 0v1462h374v-1462h-374z" />
<glyph unicode="m" horiz-adv-x="1923" d="M115 0v1108h374v-102q127 124 304 124q218 0 297 -169q71 91 167 130t193 39q94 0 166.5 -31t115 -86t64 -123t21.5 -147v-743h-375v657q0 67 -29.5 106.5t-109.5 39.5q-68 0 -109 -41.5t-41 -124.5v-637h-375v657q0 67 -29.5 106.5t-109.5 39.5q-68 0 -109 -41.5 t-41 -124.5v-637h-374z" />
<glyph unicode="n" horiz-adv-x="1273" d="M115 0v1108h374v-102q62 59 144 91.5t168 32.5q93 0 164.5 -31.5t115 -85.5t65 -122.5t21.5 -147.5v-743h-374v657q0 146 -142 146q-70 0 -116 -42t-46 -124v-637h-374z" />
<glyph unicode="o" horiz-adv-x="1314" d="M51 551q0 264 164.5 421.5t441.5 157.5t442 -157.5t165 -421.5q0 -263 -165 -419.5t-442 -156.5t-441.5 156.5t-164.5 419.5zM449 553q0 -124 53.5 -196t154.5 -72q102 0 155.5 71.5t53.5 196.5t-53.5 197.5t-155.5 72.5q-101 0 -154.5 -73t-53.5 -197z" />
<glyph unicode="p" horiz-adv-x="1361" d="M115 -356v1464h374v-104q129 126 316 126q151 0 266 -76.5t175.5 -207t60.5 -293.5q0 -165 -60.5 -295.5t-175.5 -206.5t-266 -76q-181 0 -316 125v-456h-374zM489 555q0 -112 56.5 -186t159.5 -74q100 0 153 74.5t53 185.5t-52.5 184.5t-153.5 73.5q-104 0 -160 -73 t-56 -185z" />
<glyph unicode="q" horiz-adv-x="1361" d="M55 553q0 163 60.5 293.5t175.5 207t266 76.5q186 0 315 -126v104h375v-1464h-375v456q-135 -125 -315 -125q-151 0 -266 76t-175.5 206.5t-60.5 295.5zM451 555q0 -111 53 -185.5t153 -74.5q103 0 159 74t56 186t-55.5 185t-159.5 73q-101 0 -153.5 -73.5t-52.5 -184.5z " />
<glyph unicode="r" horiz-adv-x="905" d="M115 0v1108h374v-160q51 85 124.5 132.5t156.5 47.5q81 0 139 -30l-92 -383q-64 35 -123 35q-92 0 -148.5 -66.5t-56.5 -167.5v-516h-374z" />
<glyph unicode="s" horiz-adv-x="1198" d="M23 260l260 146q54 -86 148 -127t194 -41q70 0 114.5 20t44.5 59q0 20 -12.5 34.5t-43 24t-57 15t-78.5 14.5q-28 5 -42 7q-55 9 -95.5 17.5t-92 23.5t-87.5 32t-73.5 44t-60.5 59.5t-37.5 78t-14.5 99.5q0 91 38.5 162t106 114.5t155 65.5t190.5 22q185 0 328.5 -63 t230.5 -156l-242 -174q-52 63 -135.5 98t-177.5 35q-67 0 -106.5 -17.5t-39.5 -51.5q0 -10 3.5 -18.5t11.5 -15t17 -12t24 -10t27.5 -7.5t33.5 -7t35 -6t39 -6t41 -6q116 -19 198 -44.5t146.5 -65.5t96.5 -100.5t32 -142.5q0 -178 -143.5 -281.5t-389.5 -103.5 q-195 0 -348 70.5t-239 214.5z" />
<glyph unicode="t" horiz-adv-x="944" d="M33 829v279h168v256h374v-256h297v-279h-297v-448q0 -82 91 -82q72 0 133 51l135 -266q-142 -109 -336 -109q-227 0 -328 140q-69 97 -69 268v446h-168z" />
<glyph unicode="u" horiz-adv-x="1269" d="M104 365v743h373v-657q0 -146 141 -146q70 0 117 41.5t47 122.5v639h373v-1108h-373v100q-63 -59 -145 -92t-166 -33q-93 0 -165 31.5t-115 86t-65 123.5t-22 149z" />
<glyph unicode="v" horiz-adv-x="1216" d="M-6 1108h418l200 -674l197 674h414l-424 -1108h-381z" />
<glyph unicode="w" horiz-adv-x="1740" d="M27 1108h411l117 -631l168 631h299l166 -631l119 631h409l-311 -1108h-371l-164 631l-168 -631h-370z" />
<glyph unicode="x" horiz-adv-x="1261" d="M-2 0l377 575l-342 533h438l162 -309l160 309h438l-346 -535l377 -573h-453l-180 342l-180 -342h-451z" />
<glyph unicode="y" horiz-adv-x="1212" d="M-10 1108h426l209 -621l192 621h402l-431 -1135q-69 -183 -169 -266.5t-265 -83.5q-179 0 -325 98l137 244q65 -43 125 -43q74 0 117 78l24 45z" />
<glyph unicode="z" horiz-adv-x="1134" d="M63 0v262l447 524h-424v322h961v-246l-457 -540h473v-322h-1000z" />
<glyph unicode="{" horiz-adv-x="825" d="M20 510v221h115q69 0 96 36t27 99v260q0 160 92.5 248t247.5 88h213v-221h-102q-78 0 -111 -42t-33 -122v-147q0 -240 -205 -309q105 -34 155 -114.5t50 -193.5v-149q0 -80 33 -122t111 -42h102v-221h-213q-155 0 -247.5 88t-92.5 248v260q0 64 -26.5 99.5t-96.5 35.5 h-115z" />
<glyph unicode="|" horiz-adv-x="520" d="M117 -221v1683h286v-1683h-286z" />
<glyph unicode="}" horiz-adv-x="825" d="M14 0h103q78 0 110.5 42t32.5 122v147q0 241 205 310q-105 34 -155 114.5t-50 192.5v149q0 80 -32.5 122t-110.5 42h-103v221h213q155 0 247.5 -88t92.5 -248v-260q0 -64 26.5 -99.5t96.5 -35.5h115v-221h-115q-69 0 -96 -36t-27 -99v-260q0 -160 -92.5 -248t-247.5 -88 h-213v221z" />
<glyph unicode="~" horiz-adv-x="1251" d="M47 498q164 352 404 352q55 0 106 -18.5t121 -63.5q63 -42 93 -55t67 -13q98 0 188 146l180 -96q-165 -353 -403 -353q-55 0 -106.5 18.5t-121.5 63.5q-63 43 -92.5 55.5t-66.5 12.5q-99 0 -189 -146z" />
<glyph unicode="&#xa1;" horiz-adv-x="669" d="M137 86l101 543h194l100 -543v-344h-395v344zM137 762v346h395v-346h-395z" />
<glyph unicode="&#xa2;" d="M72 551q0 239 138 398t382 179v168h129v-168q161 -15 278 -102t170 -227l-319 -111q-15 48 -48.5 82t-80.5 47v-526q97 26 129 133l321 -105q-50 -143 -167.5 -233t-282.5 -109v-170h-129v170q-244 20 -382 178t-138 396zM438 553q0 -97 38 -167.5t116 -92.5v524 q-75 -16 -114.5 -90.5t-39.5 -173.5z" />
<glyph unicode="&#xa3;" d="M8 545v221h135q-30 99 -30 178q0 207 149 326t387 119q386 0 568 -351l-320 -147q-34 72 -81 112.5t-126 40.5q-75 0 -120.5 -39t-45.5 -112q0 -48 27 -127h317v-221h-266q-11 -108 -80 -183q53 23 107 23q48 0 118.5 -21.5t100.5 -21.5q88 0 123 96l293 -174 q-64 -146 -162.5 -217.5t-208.5 -71.5q-76 0 -206.5 50.5t-207.5 50.5q-73 0 -164 -27t-163 -74l-129 297q206 77 206 211q0 27 -6 62h-215z" />
<glyph unicode="&#xa4;" d="M57 272l168 168q-39 86 -39 181q0 96 39 182l-168 170l215 215l172 -170q85 37 177 37q95 0 178 -39l174 172l215 -215l-172 -174q39 -83 39 -178q0 -92 -37 -177l170 -172l-215 -215l-170 168q-86 -39 -182 -39q-95 0 -181 39l-168 -168zM432 621q0 -78 55.5 -133.5 t133.5 -55.5t133 55.5t55 133.5t-55 133t-133 55t-133.5 -55t-55.5 -133z" />
<glyph unicode="&#xa5;" d="M-4 1364h440l189 -461l186 461h438l-329 -629h231v-147h-309l-27 -51v-76h336v-150h-336v-311h-385v311h-342v150h342v71l-29 56h-313v147h236z" />
<glyph unicode="&#xa6;" horiz-adv-x="475" d="M125 -221v661h225v-661h-225zM125 801v661h225v-661h-225z" />
<glyph unicode="&#xa7;" horiz-adv-x="1292" d="M72 -51l196 248q144 -154 330 -154q86 0 150 31l-179 106q-66 38 -106.5 63.5t-102 74.5t-106.5 100q-158 178 -158 401q0 121 41.5 225.5t117.5 181t189.5 120t249.5 43.5q310 0 529 -213l-197 -248q-143 153 -330 153q-91 0 -151 -32l180 -105q68 -40 107 -64t101 -73 t107 -100q158 -178 158 -402q0 -121 -41.5 -225.5t-117.5 -180.5t-189.5 -119.5t-249.5 -43.5q-309 0 -528 213zM410 803q0 -44 10.5 -84t24.5 -71.5t46 -69t55 -61t74.5 -63t81 -61t95.5 -67.5l84 -60q4 32 4 56q0 44 -10.5 84t-24.5 71.5t-46 69t-55 61t-74.5 63t-81 61 t-95.5 67.5l-84 59q-4 -18 -4 -55z" />
<glyph unicode="&#xa8;" horiz-adv-x="663" d="M-39 1196v266h262v-266h-262zM440 1196v266h262v-266h-262z" />
<glyph unicode="&#xa9;" horiz-adv-x="1585" d="M74 682q0 117 36.5 227t103 198t155 154.5t198 103t226.5 36.5q146 0 278.5 -57t229 -153t153.5 -229.5t57 -279.5q0 -145 -57 -278.5t-153.5 -230t-229.5 -153.5t-278 -57q-116 0 -226 36.5t-198.5 103t-155 155t-103 198.5t-36.5 226zM238 682q0 -112 44 -215 t118.5 -177.5t177.5 -118.5t215 -44t215 44t177.5 118.5t118.5 177.5t44 215q0 113 -44 216t-118.5 177t-177.5 118t-215 44t-215 -44t-177.5 -118t-118.5 -177t-44 -216zM352 682q0 185 129.5 314.5t313.5 129.5q248 0 403 -249l-225 -148q-65 119 -174 119 q-67 0 -114.5 -48.5t-47.5 -117.5q0 -68 47.5 -119t114.5 -51q54 0 96 30t78 97l229 -150q-74 -126 -179.5 -187.5t-227.5 -61.5q-183 0 -313 129t-130 313z" />
<glyph unicode="&#xaa;" horiz-adv-x="917" d="M61 858q0 39 10 70.5t23.5 53t39.5 38.5t45.5 26t55 17t54.5 10.5l57 7.5q82 8 111.5 15.5t29.5 25.5q0 45 -94 45q-53 0 -118 -18t-119 -51l-76 202q69 40 164 59t188 19q157 0 245.5 -63t88.5 -199v-274q0 -12 5 -17.5t20 -5.5q19 0 34 10l35 -170q-21 -14 -66 -22 t-79 -8q-118 0 -164 69q-75 -75 -223 -75q-118 0 -192.5 61.5t-74.5 173.5zM324 868q0 -53 63 -53q48 0 74 23.5t26 68.5v39q-29 -11 -86 -18q-25 -5 -39 -9.5t-26 -17.5t-12 -33z" />
<glyph unicode="&#xab;" horiz-adv-x="1087" d="M29 481v140l348 428l172 -127l-219 -371l219 -371l-172 -127zM508 481v140l348 428l172 -127l-219 -371l219 -371l-172 -127z" />
<glyph unicode="&#xac;" horiz-adv-x="1312" d="M94 469v307h1102v-704h-305v397h-797z" />
<glyph unicode="&#xad;" horiz-adv-x="868" d="M98 410v331h672v-331h-672z" />
<glyph unicode="&#xae;" horiz-adv-x="972" d="M76 977q0 171 119.5 291.5t289.5 120.5t291 -121t121 -291t-121 -290t-291 -120t-289.5 120t-119.5 290zM137 977q0 -145 101.5 -246.5t246.5 -101.5t248 102t103 246q0 145 -103 247.5t-248 102.5t-246.5 -102.5t-101.5 -247.5zM305 768v422h211q82 0 125 -38.5 t43 -102.5q0 -101 -72 -127l76 -154h-149l-39 133h-60v-133h-135zM440 995h62q20 0 33.5 12t13.5 37q0 22 -13.5 34t-33.5 12h-62v-95z" />
<glyph unicode="&#xaf;" horiz-adv-x="710" d="M0 1200v191h711v-191h-711z" />
<glyph unicode="&#xb0;" horiz-adv-x="774" d="M47 1047q0 141 99.5 241.5t240.5 100.5q140 0 240 -100.5t100 -241.5q0 -139 -100.5 -239.5t-239.5 -100.5q-141 0 -240.5 100t-99.5 240zM262 1047q0 -51 36.5 -87t88.5 -36t88.5 36t36.5 87q0 52 -36 88t-89 36t-89 -36t-36 -88z" />
<glyph unicode="&#xb1;" d="M72 0v307h1102v-307h-1102zM72 715v305h397v328h307v-328h398v-305h-398v-326h-307v326h-397z" />
<glyph unicode="&#xb2;" horiz-adv-x="854" d="M27 1333q66 109 163.5 173.5t223.5 64.5q161 0 259.5 -80.5t98.5 -220.5q0 -197 -260 -357h291v-245h-742v196q242 162 328 242.5t86 148.5q0 34 -24 55t-62 21q-40 0 -77 -28t-62 -84z" />
<glyph unicode="&#xb3;" horiz-adv-x="860" d="M29 922l229 65q44 -98 180 -98q42 0 66 15.5t24 43.5q0 25 -27 39t-67 14h-117v224h113q30 0 55 14.5t25 38.5q0 27 -24.5 41t-57.5 14q-120 0 -170 -94l-215 88q68 126 165.5 185t231.5 59q145 0 245.5 -68.5t100.5 -199.5q0 -113 -88 -173q57 -27 87 -78.5t30 -111.5 q0 -123 -102.5 -206t-278.5 -83q-303 0 -405 271z" />
<glyph unicode="&#xb4;" horiz-adv-x="663" d="M143 1221q130 194 166 290l293 -49q-37 -87 -132.5 -172t-188.5 -129z" />
<glyph unicode="&#x3bc;" d="M80 -356v1464h373v-676q0 -145 127 -145q63 0 105 41.5t42 122.5v657h373v-823q0 -26 10 -35.5t29 -9.5q27 0 45 12l24 -236q-65 -32 -172 -32q-80 0 -143.5 31.5t-93.5 93.5q-39 -63 -108 -98.5t-136 -35.5q-49 0 -102 29v-360h-373z" />
<glyph unicode="&#xb5;" d="M80 -356v1464h373v-676q0 -145 127 -145q63 0 105 41.5t42 122.5v657h373v-823q0 -26 10 -35.5t29 -9.5q27 0 45 12l24 -236q-65 -32 -172 -32q-80 0 -143.5 31.5t-93.5 93.5q-39 -63 -108 -98.5t-136 -35.5q-49 0 -102 29v-360h-373z" />
<glyph unicode="&#xb6;" horiz-adv-x="1200" d="M68 901q0 207 133.5 335t330.5 128h527v-1550h-115v1325h-113v-1325h-239v622h-60q-201 0 -332.5 128t-131.5 337z" />
<glyph unicode="&#xb7;" horiz-adv-x="589" d="M72 623q0 92 66 157.5t157 65.5q92 0 157.5 -65.5t65.5 -157.5q0 -91 -65.5 -157.5t-157.5 -66.5q-91 0 -157 66.5t-66 157.5z" />
<glyph unicode="&#xb8;" horiz-adv-x="663" d="M43 -98q80 -76 178 -76q53 0 84 20t31 60q0 62 -88 114l90 50q93 -34 150 -100t57 -138q0 -88 -81.5 -148.5t-209.5 -60.5q-70 0 -126 18t-85 42v219z" />
<glyph unicode="&#xb9;" horiz-adv-x="739" d="M41 1446q213 33 307 108h207v-653h164v-233h-643v233h200v367q-98 -21 -200 -33z" />
<glyph unicode="&#xba;" horiz-adv-x="923" d="M47 1001q0 171 112.5 274t301.5 103t302.5 -103.5t113.5 -273.5q0 -173 -113.5 -275.5t-302.5 -102.5t-301.5 102.5t-112.5 275.5zM338 1001q0 -70 32 -110.5t91 -40.5q62 0 93.5 40t31.5 111q0 70 -32 112t-93 42q-59 0 -91 -42.5t-32 -111.5z" />
<glyph unicode="&#xbb;" horiz-adv-x="1087" d="M59 180l220 371l-220 371l172 127l349 -428v-140l-349 -428zM539 180l219 371l-219 371l172 127l348 -428v-140l-348 -428z" />
<glyph unicode="&#xbc;" horiz-adv-x="2187" d="M90 1255q212 32 307 109h207v-653h164v-234h-643v234h201v366q-97 -21 -201 -33zM512 0l891 1364h274l-891 -1364h-274zM1313 162v190q68 125 108.5 273.5t40.5 261.5h273q0 -221 -146 -500h150v283h262v-283h108v-225h-108v-162h-268v162h-420z" />
<glyph unicode="&#xbd;" horiz-adv-x="2187" d="M80 1255q212 32 307 109h207v-653h164v-234h-643v234h200v366q-98 -21 -200 -33zM502 0l891 1364h274l-891 -1364h-274zM1333 666q65 109 163 173t224 64q161 0 260 -80.5t99 -220.5q0 -196 -260 -356h290v-246h-741v197q242 162 328 242.5t86 148.5q0 34 -24 55t-62 21 q-40 0 -77.5 -28.5t-62.5 -84.5z" />
<glyph unicode="&#xbe;" horiz-adv-x="2187" d="M59 731l230 66q45 -99 180 -99q41 0 65.5 16t24.5 44q0 25 -27 39t-67 14h-117v223h113q30 0 55 14.5t25 38.5q0 27 -24.5 41.5t-57.5 14.5q-120 0 -170 -94l-215 88q68 126 165.5 184.5t231.5 58.5q145 0 245.5 -68.5t100.5 -199.5q0 -112 -88 -172q57 -27 87 -78.5 t30 -111.5q0 -123 -102.5 -206t-278.5 -83q-304 0 -406 270zM535 0l890 1364h275l-891 -1364h-274zM1335 162v190q68 125 109 274t41 261h272q0 -223 -145 -500h149v283h262v-283h109v-225h-109v-162h-268v162h-420z" />
<glyph unicode="&#xbf;" horiz-adv-x="1210" d="M104 168q0 92 34 170t92.5 133.5t124 94t141.5 65.5h381v-316q-62 19 -140 19q-235 0 -235 -154q0 -70 51 -105.5t125 -35.5q174 0 285 119l204 -242q-113 -100 -242 -149.5t-292 -49.5q-240 0 -384.5 119.5t-144.5 331.5zM481 762v346h396v-346h-396z" />
<glyph unicode="&#xc0;" horiz-adv-x="1421" d="M-8 0l485 1364h467l483 -1364h-432l-69 252h-441l-69 -252h-424zM422 1720l293 49q36 -96 166 -290l-138 -60q-93 44 -188.5 129t-132.5 172zM567 555h275l-137 494z" />
<glyph unicode="&#xc1;" horiz-adv-x="1421" d="M-8 0l485 1364h467l483 -1364h-432l-69 252h-441l-69 -252h-424zM563 1479q130 194 166 290l293 -49q-37 -87 -133 -171.5t-189 -129.5zM567 555h275l-137 494z" />
<glyph unicode="&#xc2;" horiz-adv-x="1421" d="M-8 0l485 1364h467l483 -1364h-432l-69 252h-441l-69 -252h-424zM315 1548q177 113 269 195h258q94 -84 268 -195l-80 -129q-83 13 -168.5 48t-148.5 79q-63 -43 -149 -78.5t-169 -48.5zM567 555h275l-137 494z" />
<glyph unicode="&#xc3;" horiz-adv-x="1421" d="M-8 0l485 1364h467l483 -1364h-432l-69 252h-441l-69 -252h-424zM289 1526q40 93 114.5 155t169.5 62q51 0 102.5 -20.5t95.5 -41t79 -20.5q42 0 86 25t74 67l127 -90q-40 -93 -115 -155t-170 -62q-51 0 -102.5 20.5t-95.5 41t-79 20.5q-42 0 -85.5 -25t-73.5 -67z M567 555h275l-137 494z" />
<glyph unicode="&#xc4;" horiz-adv-x="1421" d="M-8 0l485 1364h467l483 -1364h-432l-69 252h-441l-69 -252h-424zM334 1454v266h262v-266h-262zM567 555h275l-137 494zM813 1454v266h262v-266h-262z" />
<glyph unicode="&#xc5;" horiz-adv-x="1413" d="M-12 0l448 1260q-61 71 -61 153q0 114 97.5 195.5t234.5 81.5q136 0 232.5 -81.5t96.5 -195.5q0 -84 -59 -153l446 -1260h-432l-69 252h-441l-69 -252h-424zM563 555h275l-138 494zM598 1413q0 -44 31.5 -75t77.5 -31q44 0 75 31t31 75q0 46 -31 77.5t-75 31.5 q-46 0 -77.5 -31.5t-31.5 -77.5z" />
<glyph unicode="&#xc6;" horiz-adv-x="2039" d="M-20 0l684 1364h1280v-344h-623v-164h532v-303h-532v-209h643v-344h-1028v252h-416l-117 -252h-423zM662 555h274v510h-53z" />
<glyph unicode="&#xc7;" horiz-adv-x="1427" d="M59 686q0 158 51.5 290t143.5 222.5t221 140.5t281 50q420 0 628 -369l-307 -170q-58 109 -134.5 158t-176.5 49q-142 0 -225.5 -106t-83.5 -265q0 -162 83.5 -270.5t225.5 -108.5q106 0 175.5 55.5t123.5 167.5l328 -151q-172 -340 -508 -393q71 -71 71 -154 q0 -88 -81 -148.5t-209 -60.5q-70 0 -126 18t-85 42v219q80 -76 178 -76q53 0 84 20t31 60q0 32 -31 71q-144 6 -266 59t-208.5 143.5t-135 221t-48.5 285.5z" />
<glyph unicode="&#xc8;" horiz-adv-x="1302" d="M131 0v1364h1075v-344h-688v-164h598v-303h-598v-209h709v-344h-1096zM375 1726l293 50q36 -98 166 -291l-138 -60q-93 44 -188.5 129t-132.5 172z" />
<glyph unicode="&#xc9;" horiz-adv-x="1302" d="M131 0v1364h1075v-344h-688v-164h598v-303h-598v-209h709v-344h-1096zM549 1485q130 193 166 291l293 -50q-37 -87 -133 -171.5t-189 -129.5z" />
<glyph unicode="&#xca;" horiz-adv-x="1302" d="M131 0v1364h1075v-344h-688v-164h598v-303h-598v-209h709v-344h-1096zM279 1554q174 111 268 195h258q94 -84 268 -195l-80 -129q-83 13 -168.5 48t-148.5 79q-63 -43 -149 -78.5t-169 -48.5z" />
<glyph unicode="&#xcb;" horiz-adv-x="1302" d="M131 0v1364h1075v-344h-688v-164h598v-303h-598v-209h709v-344h-1096zM317 1460v266h263v-266h-263zM797 1460v266h262v-266h-262z" />
<glyph unicode="&#xcc;" horiz-adv-x="649" d="M59 1720l293 49q36 -96 166 -290l-137 -60q-93 45 -189 129.5t-133 171.5zM131 0v1364h387v-1364h-387z" />
<glyph unicode="&#xcd;" horiz-adv-x="649" d="M131 0v1364h387v-1364h-387zM131 1479q130 194 166 290l293 -49q-37 -87 -133 -171.5t-189 -129.5z" />
<glyph unicode="&#xce;" horiz-adv-x="649" d="M-74 1548q177 113 269 195h258q94 -84 268 -195l-80 -129q-83 13 -168.5 48t-148.5 79q-63 -43 -149 -78.5t-169 -48.5zM131 0v1364h387v-1364h-387z" />
<glyph unicode="&#xcf;" horiz-adv-x="649" d="M-47 1454v266h262v-266h-262zM131 0v1364h387v-1364h-387zM432 1454v266h262v-266h-262z" />
<glyph unicode="&#xd0;" horiz-adv-x="1581" d="M31 532v304h190v528h584q172 0 309.5 -52t225.5 -144.5t135 -216.5t47 -269t-47 -269t-135 -216.5t-225.5 -144.5t-309.5 -52h-584v532h-190zM610 344h195q155 0 236 89t81 249q0 159 -81.5 248.5t-235.5 89.5h-195v-184h279v-304h-279v-188z" />
<glyph unicode="&#xd1;" horiz-adv-x="1523" d="M131 0v1364h490l401 -821v821h371v-1364h-473l-416 840v-840h-373zM358 1526q40 93 115 155t170 62q51 0 102.5 -20.5t95.5 -41t79 -20.5q42 0 85.5 25t73.5 67l127 -90q-40 -93 -114.5 -155t-169.5 -62q-51 0 -102.5 20.5t-95.5 41t-79 20.5q-42 0 -86 -25t-74 -67z" />
<glyph unicode="&#xd2;" horiz-adv-x="1536" d="M55 682q0 146 48.5 274.5t138 225t225 152t299.5 55.5t300.5 -55.5t226 -152t139 -225t49.5 -274.5q0 -118 -31 -224.5t-92 -194.5t-146 -152.5t-199.5 -100t-246.5 -35.5q-164 0 -299.5 55t-225 151t-138 224.5t-48.5 276.5zM457 682q0 -151 80.5 -252.5t228.5 -101.5 q150 0 231.5 101.5t81.5 252.5q0 149 -82 251.5t-231 102.5q-99 0 -171 -50.5t-105 -129t-33 -174.5zM471 1720l293 49q36 -96 166 -290l-137 -60q-93 45 -189 129.5t-133 171.5z" />
<glyph unicode="&#xd3;" horiz-adv-x="1536" d="M55 682q0 146 48.5 274.5t138 225t225 152t299.5 55.5t300.5 -55.5t226 -152t139 -225t49.5 -274.5q0 -118 -31 -224.5t-92 -194.5t-146 -152.5t-199.5 -100t-246.5 -35.5q-164 0 -299.5 55t-225 151t-138 224.5t-48.5 276.5zM457 682q0 -151 80.5 -252.5t228.5 -101.5 q150 0 231.5 101.5t81.5 252.5q0 149 -82 251.5t-231 102.5q-99 0 -171 -50.5t-105 -129t-33 -174.5zM621 1479q128 191 165 290l293 -49q-37 -87 -132.5 -172t-188.5 -129z" />
<glyph unicode="&#xd4;" horiz-adv-x="1536" d="M55 682q0 146 48.5 274.5t138 225t225 152t299.5 55.5t300.5 -55.5t226 -152t139 -225t49.5 -274.5q0 -118 -31 -224.5t-92 -194.5t-146 -152.5t-199.5 -100t-246.5 -35.5q-164 0 -299.5 55t-225 151t-138 224.5t-48.5 276.5zM369 1548q174 111 268 195h258 q94 -84 268 -195l-80 -129q-83 13 -168.5 48t-148.5 79q-63 -44 -148.5 -79t-168.5 -48zM457 682q0 -151 80.5 -252.5t228.5 -101.5q150 0 231.5 101.5t81.5 252.5q0 149 -82 251.5t-231 102.5q-99 0 -171 -50.5t-105 -129t-33 -174.5z" />
<glyph unicode="&#xd5;" horiz-adv-x="1536" d="M55 682q0 146 48.5 274.5t138 225t225 152t299.5 55.5t300.5 -55.5t226 -152t139 -225t49.5 -274.5q0 -118 -31 -224.5t-92 -194.5t-146 -152.5t-199.5 -100t-246.5 -35.5q-164 0 -299.5 55t-225 151t-138 224.5t-48.5 276.5zM352 1526q40 93 115 155t170 62 q51 0 102 -20.5t95 -41t79 -20.5q42 0 86 25t74 67l127 -90q-40 -93 -115 -155t-170 -62q-51 0 -102 20.5t-95 41t-79 20.5q-42 0 -86 -25t-74 -67zM457 682q0 -151 80.5 -252.5t228.5 -101.5q150 0 231.5 101.5t81.5 252.5q0 149 -82 251.5t-231 102.5q-99 0 -171 -50.5 t-105 -129t-33 -174.5z" />
<glyph unicode="&#xd6;" horiz-adv-x="1536" d="M55 682q0 146 48.5 274.5t138 225t225 152t299.5 55.5t300.5 -55.5t226 -152t139 -225t49.5 -274.5q0 -118 -31 -224.5t-92 -194.5t-146 -152.5t-199.5 -100t-246.5 -35.5q-164 0 -299.5 55t-225 151t-138 224.5t-48.5 276.5zM395 1454v266h262v-266h-262zM457 682 q0 -151 80.5 -252.5t228.5 -101.5q150 0 231.5 101.5t81.5 252.5q0 149 -82 251.5t-231 102.5q-99 0 -171 -50.5t-105 -129t-33 -174.5zM874 1454v266h263v-266h-263z" />
<glyph unicode="&#xd7;" d="M57 272l349 351l-349 350l215 215l351 -346l350 346l215 -215l-346 -350l346 -351l-215 -215l-350 349l-351 -349z" />
<glyph unicode="&#xd8;" horiz-adv-x="1536" d="M55 682q0 146 48.5 274.5t138 225t225 152t299.5 55.5q182 0 336 -72l61 88l150 -105l-60 -83q110 -96 169 -235.5t59 -299.5q0 -118 -31 -224.5t-92 -194.5t-146 -152.5t-199.5 -100t-246.5 -35.5q-185 0 -334 70l-59 -86l-150 104l58 80q-110 96 -168 235.5t-58 303.5z M457 682q0 -127 51 -213l381 545q-58 22 -123 22q-99 0 -171 -50.5t-105 -129t-33 -174.5zM645 348q50 -20 121 -20q150 0 231.5 101.5t81.5 252.5q0 120 -53 209z" />
<glyph unicode="&#xd9;" horiz-adv-x="1464" d="M119 537v827h389v-827q0 -108 55 -159.5t170 -51.5q225 0 225 211v827h388v-827q0 -272 -164 -417t-449 -145q-286 0 -450 145t-164 417zM436 1720l293 49q36 -96 166 -290l-137 -60q-93 45 -189 129.5t-133 171.5z" />
<glyph unicode="&#xda;" horiz-adv-x="1464" d="M119 537v827h389v-827q0 -108 55 -159.5t170 -51.5q225 0 225 211v827h388v-827q0 -272 -164 -417t-449 -145q-286 0 -450 145t-164 417zM606 1479q130 194 166 290l293 -49q-37 -87 -133 -171.5t-189 -129.5z" />
<glyph unicode="&#xdb;" horiz-adv-x="1464" d="M119 537v827h389v-827q0 -108 55 -159.5t170 -51.5q225 0 225 211v827h388v-827q0 -272 -164 -417t-449 -145q-286 0 -450 145t-164 417zM336 1548q174 111 268 195h258q94 -84 268 -195l-79 -129q-83 13 -169 48.5t-149 78.5q-63 -44 -148.5 -79t-168.5 -48z" />
<glyph unicode="&#xdc;" horiz-adv-x="1464" d="M119 537v827h389v-827q0 -108 55 -159.5t170 -51.5q225 0 225 211v827h388v-827q0 -272 -164 -417t-449 -145q-286 0 -450 145t-164 417zM371 1454v266h262v-266h-262zM850 1454v266h262v-266h-262z" />
<glyph unicode="&#xdd;" horiz-adv-x="1421" d="M-12 1364h452l271 -504l272 504h451l-531 -852v-512h-385v508zM573 1479q130 194 166 290l293 -49q-37 -87 -132.5 -172t-188.5 -129z" />
<glyph unicode="&#xde;" horiz-adv-x="1366" d="M131 0v1366h389v-149h271q246 0 392 -132.5t146 -353.5t-146 -352t-392 -131h-271v-248h-389zM520 594h266q67 0 109.5 34t42.5 105t-42.5 105t-109.5 34h-266v-278z" />
<glyph unicode="&#xdf;" horiz-adv-x="1398" d="M115 0v1016q0 225 146.5 349t434.5 124q168 0 293.5 -45.5t198 -139.5t72.5 -227q0 -98 -50 -178t-131 -121q125 -34 197 -123t72 -235q0 -205 -141.5 -325t-364.5 -120q-171 0 -289 41l61 320q77 -35 156 -35q77 0 128.5 39t51.5 119q0 82 -54.5 113.5t-158.5 31.5h-127 v303h103q78 0 124 33t46 98q0 72 -53.5 107t-141.5 35q-99 0 -149 -43.5t-50 -126.5v-1010h-374z" />
<glyph unicode="&#xe0;" horiz-adv-x="1218" d="M49 324q0 57 14 103t36 78t57 57t67.5 39.5t78.5 25.5t79.5 16t79.5 10q49 5 73.5 8t57.5 8t48 11t31 15.5t21.5 22.5t5.5 30q0 81 -147 81q-82 0 -179 -26t-173 -72l-113 281q225 118 496 118q114 0 201 -21t153.5 -66.5t101.5 -123t35 -184.5v-450q0 -26 11.5 -35.5 t33.5 -9.5q34 0 51 14l37 -227q-65 -43 -192 -43q-82 0 -147 31.5t-95 93.5q-51 -68 -142.5 -101t-193.5 -33q-174 0 -280.5 91.5t-106.5 257.5zM317 1462l293 49q36 -96 166 -290l-137 -60q-93 45 -189 129.5t-133 171.5zM418 342q0 -102 123 -102q74 0 115.5 40.5 t41.5 118.5v107q-6 -7 -13.5 -12.5t-14.5 -9.5t-18 -8t-17.5 -6t-21 -4.5t-21 -3.5t-24 -3.5t-23.5 -3.5q-27 -5 -45.5 -10.5t-39 -17.5t-31.5 -33.5t-11 -51.5z" />
<glyph unicode="&#xe1;" horiz-adv-x="1218" d="M49 324q0 57 14 103t36 78t57 57t67.5 39.5t78.5 25.5t79.5 16t79.5 10q49 5 73.5 8t57.5 8t48 11t31 15.5t21.5 22.5t5.5 30q0 81 -147 81q-82 0 -179 -26t-173 -72l-113 281q225 118 496 118q114 0 201 -21t153.5 -66.5t101.5 -123t35 -184.5v-450q0 -26 11.5 -35.5 t33.5 -9.5q34 0 51 14l37 -227q-65 -43 -192 -43q-82 0 -147 31.5t-95 93.5q-51 -68 -142.5 -101t-193.5 -33q-174 0 -280.5 91.5t-106.5 257.5zM418 342q0 -102 123 -102q74 0 115.5 40.5t41.5 118.5v107q-6 -7 -13.5 -12.5t-14.5 -9.5t-18 -8t-17.5 -6t-21 -4.5t-21 -3.5 t-24 -3.5t-23.5 -3.5q-27 -5 -45.5 -10.5t-39 -17.5t-31.5 -33.5t-11 -51.5zM418 1221q130 194 166 290l293 -49q-37 -87 -133 -171.5t-189 -129.5z" />
<glyph unicode="&#xe2;" horiz-adv-x="1218" d="M49 324q0 57 14 103t36 78t57 57t67.5 39.5t78.5 25.5t79.5 16t79.5 10q49 5 73.5 8t57.5 8t48 11t31 15.5t21.5 22.5t5.5 30q0 81 -147 81q-82 0 -179 -26t-173 -72l-113 281q225 118 496 118q114 0 201 -21t153.5 -66.5t101.5 -123t35 -184.5v-450q0 -26 11.5 -35.5 t33.5 -9.5q34 0 51 14l37 -227q-65 -43 -192 -43q-82 0 -147 31.5t-95 93.5q-51 -68 -142.5 -101t-193.5 -33q-174 0 -280.5 91.5t-106.5 257.5zM178 1290q174 111 268 195h259q94 -84 268 -195l-80 -129q-83 13 -169 48.5t-149 78.5q-63 -44 -148.5 -79t-168.5 -48z M418 342q0 -102 123 -102q74 0 115.5 40.5t41.5 118.5v107q-6 -7 -13.5 -12.5t-14.5 -9.5t-18 -8t-17.5 -6t-21 -4.5t-21 -3.5t-24 -3.5t-23.5 -3.5q-27 -5 -45.5 -10.5t-39 -17.5t-31.5 -33.5t-11 -51.5z" />
<glyph unicode="&#xe3;" horiz-adv-x="1218" d="M49 324q0 57 14 103t36 78t57 57t67.5 39.5t78.5 25.5t79.5 16t79.5 10q49 5 73.5 8t57.5 8t48 11t31 15.5t21.5 22.5t5.5 30q0 81 -147 81q-82 0 -179 -26t-173 -72l-113 281q225 118 496 118q114 0 201 -21t153.5 -66.5t101.5 -123t35 -184.5v-450q0 -26 11.5 -35.5 t33.5 -9.5q34 0 51 14l37 -227q-65 -43 -192 -43q-82 0 -147 31.5t-95 93.5q-51 -68 -142.5 -101t-193.5 -33q-174 0 -280.5 91.5t-106.5 257.5zM164 1268q40 93 115 155t170 62q51 0 102 -20.5t95 -41t79 -20.5q42 0 86 25t74 67l127 -90q-40 -93 -115 -155t-170 -62 q-51 0 -102 20.5t-95 41t-79 20.5q-42 0 -86 -25t-74 -67zM418 342q0 -102 123 -102q74 0 115.5 40.5t41.5 118.5v107q-6 -7 -13.5 -12.5t-14.5 -9.5t-18 -8t-17.5 -6t-21 -4.5t-21 -3.5t-24 -3.5t-23.5 -3.5q-27 -5 -45.5 -10.5t-39 -17.5t-31.5 -33.5t-11 -51.5z" />
<glyph unicode="&#xe4;" horiz-adv-x="1218" d="M49 324q0 57 14 103t36 78t57 57t67.5 39.5t78.5 25.5t79.5 16t79.5 10q49 5 73.5 8t57.5 8t48 11t31 15.5t21.5 22.5t5.5 30q0 81 -147 81q-82 0 -179 -26t-173 -72l-113 281q225 118 496 118q114 0 201 -21t153.5 -66.5t101.5 -123t35 -184.5v-450q0 -26 11.5 -35.5 t33.5 -9.5q34 0 51 14l37 -227q-65 -43 -192 -43q-82 0 -147 31.5t-95 93.5q-51 -68 -142.5 -101t-193.5 -33q-174 0 -280.5 91.5t-106.5 257.5zM211 1196v266h262v-266h-262zM418 342q0 -102 123 -102q74 0 115.5 40.5t41.5 118.5v107q-6 -7 -13.5 -12.5t-14.5 -9.5t-18 -8 t-17.5 -6t-21 -4.5t-21 -3.5t-24 -3.5t-23.5 -3.5q-27 -5 -45.5 -10.5t-39 -17.5t-31.5 -33.5t-11 -51.5zM690 1196v266h262v-266h-262z" />
<glyph unicode="&#xe5;" horiz-adv-x="1218" d="M49 324q0 57 14 103t36 78t57 57t67.5 39.5t78.5 25.5t79.5 16t79.5 10q49 5 73.5 8t57.5 8t48 11t31 15.5t21.5 22.5t5.5 30q0 81 -147 81q-82 0 -179 -26t-173 -72l-113 281q225 118 496 118q114 0 201 -21t153.5 -66.5t101.5 -123t35 -184.5v-450q0 -26 11.5 -35.5 t33.5 -9.5q34 0 51 14l37 -227q-65 -43 -192 -43q-82 0 -147 31.5t-95 93.5q-51 -68 -142.5 -101t-193.5 -33q-174 0 -280.5 91.5t-106.5 257.5zM307 1376q0 94 76 160t195 66t194.5 -66t75.5 -160q0 -95 -75 -159t-195 -64t-195.5 64t-75.5 159zM418 342q0 -102 123 -102 q74 0 115.5 40.5t41.5 118.5v107q-6 -7 -13.5 -12.5t-14.5 -9.5t-18 -8t-17.5 -6t-21 -4.5t-21 -3.5t-24 -3.5t-23.5 -3.5q-27 -5 -45.5 -10.5t-39 -17.5t-31.5 -33.5t-11 -51.5zM479 1374q0 -40 29.5 -69t69.5 -29t69 29t29 69t-29 69.5t-69 29.5t-69.5 -29.5t-29.5 -69.5z " />
<glyph unicode="&#xe6;" horiz-adv-x="1902" d="M51 326q0 57 14 103t36 78t57 57t67.5 39.5t78.5 25.5t79.5 16t79.5 10q49 5 73.5 8t57.5 8t48 11t31 15.5t21.5 22.5t5.5 30q0 81 -147 81q-83 0 -179.5 -26t-172.5 -72l-113 279q222 118 473 118q238 0 361 -120q129 120 360 120q264 0 414.5 -156.5t150.5 -416.5 q0 -42 -4 -96h-766q6 -87 70 -132.5t168 -45.5q176 0 289 123l243 -213q-222 -218 -555 -218q-132 0 -241.5 38.5t-178.5 113.5q-50 -70 -155.5 -111t-241.5 -41q-199 0 -311.5 90.5t-112.5 260.5zM420 342q0 -102 123 -102q74 0 115.5 40.5t41.5 118.5v107 q-6 -7 -13.5 -12.5t-14.5 -9.5t-18 -8t-17.5 -6t-21 -4.5t-21 -3.5t-24 -3.5t-23.5 -3.5q-27 -5 -45.5 -10.5t-39 -17.5t-31.5 -33.5t-11 -51.5zM1077 686h404q-6 86 -60 131t-141 45t-141.5 -44.5t-61.5 -131.5z" />
<glyph unicode="&#xe7;" horiz-adv-x="1181" d="M53 551q0 253 160.5 416t423.5 163q183 0 310.5 -82t201.5 -221l-275 -165q-76 155 -217 155q-98 0 -153 -72.5t-55 -189.5q0 -121 58.5 -193.5t158.5 -72.5q143 0 233 149l254 -180q-128 -221 -381 -270q74 -71 74 -156q0 -88 -81.5 -148.5t-209.5 -60.5q-70 0 -126 18 t-85 42v219q80 -76 178 -76q53 0 84 20t31 60q0 37 -31 71q-168 7 -294.5 83.5t-192.5 204t-66 286.5z" />
<glyph unicode="&#xe8;" horiz-adv-x="1280" d="M51 547q0 258 160 420.5t438 162.5q271 0 423.5 -155t152.5 -416q0 -44 -4 -98h-766q6 -87 69.5 -132.5t167.5 -45.5q176 0 289 123l244 -213q-222 -218 -555 -218q-151 0 -270 43.5t-194.5 120.5t-115 180.5t-39.5 227.5zM348 1462l293 49q36 -96 166 -290l-137 -60 q-93 45 -189 129.5t-133 171.5zM455 686h403q-6 86 -60 131t-141 45t-141 -44.5t-61 -131.5z" />
<glyph unicode="&#xe9;" horiz-adv-x="1280" d="M51 547q0 258 160 420.5t438 162.5q271 0 423.5 -155t152.5 -416q0 -44 -4 -98h-766q6 -87 69.5 -132.5t167.5 -45.5q176 0 289 123l244 -213q-222 -218 -555 -218q-151 0 -270 43.5t-194.5 120.5t-115 180.5t-39.5 227.5zM455 686h403q-6 86 -60 131t-141 45t-141 -44.5 t-61 -131.5zM494 1221q128 191 165 290l293 -49q-37 -87 -132.5 -172t-188.5 -129z" />
<glyph unicode="&#xea;" horiz-adv-x="1280" d="M51 547q0 258 160 420.5t438 162.5q271 0 423.5 -155t152.5 -416q0 -44 -4 -98h-766q6 -87 69.5 -132.5t167.5 -45.5q176 0 289 123l244 -213q-222 -218 -555 -218q-151 0 -270 43.5t-194.5 120.5t-115 180.5t-39.5 227.5zM254 1290q174 111 268 195h258q92 -82 269 -195 l-80 -129q-83 13 -169 48.5t-149 78.5q-63 -44 -148.5 -79t-168.5 -48zM455 686h403q-6 86 -60 131t-141 45t-141 -44.5t-61 -131.5z" />
<glyph unicode="&#xeb;" horiz-adv-x="1280" d="M51 547q0 258 160 420.5t438 162.5q271 0 423.5 -155t152.5 -416q0 -44 -4 -98h-766q6 -87 69.5 -132.5t167.5 -45.5q176 0 289 123l244 -213q-222 -218 -555 -218q-151 0 -270 43.5t-194.5 120.5t-115 180.5t-39.5 227.5zM283 1196v266h262v-266h-262zM455 686h403 q-6 86 -60 131t-141 45t-141 -44.5t-61 -131.5zM762 1196v266h262v-266h-262z" />
<glyph unicode="&#xec;" horiz-adv-x="604" d="M31 1462l293 49q37 -99 165 -290l-137 -60q-93 44 -188.5 129t-132.5 172zM115 0v1108h374v-1108h-374z" />
<glyph unicode="&#xed;" horiz-adv-x="604" d="M115 0v1108h374v-1108h-374zM115 1221q130 194 166 290l292 -49q-37 -87 -132.5 -172t-188.5 -129z" />
<glyph unicode="&#xee;" horiz-adv-x="604" d="M-96 1290q174 111 268 195h258q94 -84 268 -195l-80 -129q-83 13 -168.5 48t-148.5 79q-63 -44 -148.5 -79t-168.5 -48zM115 0v1108h374v-1108h-374z" />
<glyph unicode="&#xef;" horiz-adv-x="604" d="M-47 1196v266h262v-266h-262zM115 0v1108h374v-1108h-374zM389 1196v266h262v-266h-262z" />
<glyph unicode="&#xf0;" horiz-adv-x="1323" d="M57 516q0 139 60 256t176 189.5t266 72.5q123 0 225 -57q-60 93 -155 168l-242 -88l-51 133l145 51q-39 22 -149 76l325 170q94 -46 191 -113l254 92l51 -133l-180 -65q132 -132 204 -300.5t72 -353.5q0 -191 -65.5 -333t-202.5 -224t-334 -82q-127 0 -234.5 36t-187 103 t-124 170.5t-44.5 231.5zM453 504q0 -102 53.5 -163.5t152.5 -61.5q101 0 158 62.5t57 162.5q0 99 -58 164t-157 65q-98 0 -152 -63.5t-54 -165.5z" />
<glyph unicode="&#xf1;" horiz-adv-x="1271" d="M115 0v1108h374v-102q62 59 144 91.5t168 32.5q93 0 164.5 -31.5t115 -85.5t65 -122.5t21.5 -147.5v-743h-374v657q0 146 -142 146q-70 0 -116 -42t-46 -124v-637h-374zM246 1268q40 93 114.5 155t169.5 62q51 0 102.5 -20.5t95.5 -41t79 -20.5q42 0 86 25t74 67l127 -90 q-40 -93 -115 -155t-170 -62q-51 0 -102.5 20.5t-95.5 41t-79 20.5q-42 0 -85.5 -25t-73.5 -67z" />
<glyph unicode="&#xf2;" horiz-adv-x="1314" d="M51 551q0 264 164.5 421.5t441.5 157.5t442 -157.5t165 -421.5q0 -263 -165 -419.5t-442 -156.5t-441.5 156.5t-164.5 419.5zM348 1462l293 49q36 -96 166 -290l-137 -60q-93 45 -189 129.5t-133 171.5zM449 553q0 -124 53.5 -196t154.5 -72q102 0 155.5 71.5t53.5 196.5 t-53.5 197.5t-155.5 72.5q-101 0 -154.5 -73t-53.5 -197z" />
<glyph unicode="&#xf3;" horiz-adv-x="1314" d="M51 551q0 264 164.5 421.5t441.5 157.5t442 -157.5t165 -421.5q0 -263 -165 -419.5t-442 -156.5t-441.5 156.5t-164.5 419.5zM449 553q0 -124 53.5 -196t154.5 -72q102 0 155.5 71.5t53.5 196.5t-53.5 197.5t-155.5 72.5q-101 0 -154.5 -73t-53.5 -197zM504 1221 q130 194 166 290l293 -49q-37 -87 -133 -171.5t-189 -129.5z" />
<glyph unicode="&#xf4;" horiz-adv-x="1314" d="M51 551q0 264 164.5 421.5t441.5 157.5t442 -157.5t165 -421.5q0 -263 -165 -419.5t-442 -156.5t-441.5 156.5t-164.5 419.5zM262 1290q174 111 268 195h258q92 -82 269 -195l-80 -129q-83 13 -169 48.5t-149 78.5q-63 -44 -148.5 -79t-168.5 -48zM449 553 q0 -124 53.5 -196t154.5 -72q102 0 155.5 71.5t53.5 196.5t-53.5 197.5t-155.5 72.5q-101 0 -154.5 -73t-53.5 -197z" />
<glyph unicode="&#xf5;" horiz-adv-x="1314" d="M51 551q0 264 164.5 421.5t441.5 157.5t442 -157.5t165 -421.5q0 -263 -165 -419.5t-442 -156.5t-441.5 156.5t-164.5 419.5zM231 1268q40 93 115 155t170 62q51 0 102.5 -20.5t95.5 -41t79 -20.5q42 0 85.5 25t73.5 67l127 -90q-40 -93 -114.5 -155t-169.5 -62 q-51 0 -102.5 20.5t-95.5 41t-79 20.5q-42 0 -86 -25t-74 -67zM449 553q0 -124 53.5 -196t154.5 -72q102 0 155.5 71.5t53.5 196.5t-53.5 197.5t-155.5 72.5q-101 0 -154.5 -73t-53.5 -197z" />
<glyph unicode="&#xf6;" horiz-adv-x="1314" d="M51 551q0 264 164.5 421.5t441.5 157.5t442 -157.5t165 -421.5q0 -263 -165 -419.5t-442 -156.5t-441.5 156.5t-164.5 419.5zM289 1196v266h262v-266h-262zM449 553q0 -124 53.5 -196t154.5 -72q102 0 155.5 71.5t53.5 196.5t-53.5 197.5t-155.5 72.5q-101 0 -154.5 -73 t-53.5 -197zM768 1196v266h262v-266h-262z" />
<glyph unicode="&#xf7;" d="M72 469v307h1102v-307h-1102zM424 197q0 83 58 140.5t141 57.5t140.5 -57.5t57.5 -140.5t-57.5 -141t-140.5 -58t-141 58t-58 141zM424 1049q0 83 58 141.5t141 58.5t140.5 -58.5t57.5 -141.5q0 -82 -57.5 -140.5t-140.5 -58.5t-141 58.5t-58 140.5z" />
<glyph unicode="&#xf8;" horiz-adv-x="1314" d="M51 551q0 264 164.5 421.5t441.5 157.5q151 0 275 -51l43 64l127 -88l-37 -54q199 -157 199 -450q0 -263 -165 -419.5t-442 -156.5q-147 0 -276 50l-41 -60l-127 88l35 49q-95 76 -146 191t-51 258zM444 553q0 -81 21 -139l280 401q-40 19 -88 19q-102 0 -157.5 -76 t-55.5 -205zM567 293q43 -19 90 -19q103 0 158 75t55 204q0 77 -22 141z" />
<glyph unicode="&#xf9;" horiz-adv-x="1269" d="M104 365v743h373v-657q0 -146 141 -146q70 0 117 41.5t47 122.5v639h373v-1108h-373v100q-63 -59 -145 -92t-166 -33q-93 0 -165 31.5t-115 86t-65 123.5t-22 149zM319 1462l293 49q36 -96 166 -290l-137 -60q-93 45 -189 129.5t-133 171.5z" />
<glyph unicode="&#xfa;" horiz-adv-x="1269" d="M104 365v743h373v-657q0 -146 141 -146q70 0 117 41.5t47 122.5v639h373v-1108h-373v100q-63 -59 -145 -92t-166 -33q-93 0 -165 31.5t-115 86t-65 123.5t-22 149zM504 1221q130 194 166 290l293 -49q-37 -87 -133 -171.5t-189 -129.5z" />
<glyph unicode="&#xfb;" horiz-adv-x="1269" d="M104 365v743h373v-657q0 -146 141 -146q70 0 117 41.5t47 122.5v639h373v-1108h-373v100q-63 -59 -145 -92t-166 -33q-93 0 -165 31.5t-115 86t-65 123.5t-22 149zM242 1290q174 111 268 195h258q94 -84 268 -195l-80 -129q-83 13 -168.5 48t-148.5 79 q-63 -44 -148.5 -79t-168.5 -48z" />
<glyph unicode="&#xfc;" horiz-adv-x="1269" d="M104 365v743h373v-657q0 -146 141 -146q70 0 117 41.5t47 122.5v639h373v-1108h-373v100q-63 -59 -145 -92t-166 -33q-93 0 -165 31.5t-115 86t-65 123.5t-22 149zM260 1196v266h262v-266h-262zM739 1196v266h262v-266h-262z" />
<glyph unicode="&#xfd;" horiz-adv-x="1212" d="M-10 1108h426l209 -621l192 621h402l-431 -1135q-69 -183 -169 -266.5t-265 -83.5q-179 0 -325 98l137 244q65 -43 125 -43q74 0 117 78l24 45zM504 1221q130 194 166 290l293 -49q-37 -87 -133 -171.5t-189 -129.5z" />
<glyph unicode="&#xfe;" horiz-adv-x="1361" d="M115 -356v1818h374v-458q129 126 316 126q151 0 266 -76.5t175.5 -207t60.5 -293.5q0 -165 -60.5 -295.5t-175.5 -206.5t-266 -76q-181 0 -316 125v-456h-374zM489 555q0 -112 56.5 -186t159.5 -74q100 0 153 74.5t53 185.5t-52.5 184.5t-153.5 73.5q-104 0 -160 -73 t-56 -185z" />
<glyph unicode="&#xff;" horiz-adv-x="1212" d="M-10 1108h426l209 -621l192 621h402l-431 -1135q-69 -183 -169 -266.5t-265 -83.5q-179 0 -325 98l137 244q65 -43 125 -43q74 0 117 78l24 45zM252 1196v266h262v-266h-262zM731 1196v266h262v-266h-262z" />
<glyph unicode="&#x100;" horiz-adv-x="1421" d="M-8 0l485 1364h467l483 -1364h-432l-69 252h-441l-69 -252h-424zM354 1462v191h711v-191h-711zM567 555h275l-137 494z" />
<glyph unicode="&#x101;" horiz-adv-x="1218" d="M49 324q0 57 14 103t36 78t57 57t67.5 39.5t78.5 25.5t79.5 16t79.5 10q49 5 73.5 8t57.5 8t48 11t31 15.5t21.5 22.5t5.5 30q0 81 -147 81q-82 0 -179 -26t-173 -72l-113 281q225 118 496 118q114 0 201 -21t153.5 -66.5t101.5 -123t35 -184.5v-450q0 -26 11.5 -35.5 t33.5 -9.5q34 0 51 14l37 -227q-65 -43 -192 -43q-82 0 -147 31.5t-95 93.5q-51 -68 -142.5 -101t-193.5 -33q-174 0 -280.5 91.5t-106.5 257.5zM242 1200v191h710v-191h-710zM418 342q0 -102 123 -102q74 0 115.5 40.5t41.5 118.5v107q-6 -7 -13.5 -12.5t-14.5 -9.5t-18 -8 t-17.5 -6t-21 -4.5t-21 -3.5t-24 -3.5t-23.5 -3.5q-27 -5 -45.5 -10.5t-39 -17.5t-31.5 -33.5t-11 -51.5z" />
<glyph unicode="&#x102;" horiz-adv-x="1421" d="M-8 0l485 1364h467l483 -1364h-432l-69 252h-441l-69 -252h-424zM324 1694l168 49q29 -57 80.5 -83t136.5 -28q84 0 136 27t81 84l168 -49q-26 -116 -124.5 -189t-260.5 -73t-260.5 73t-124.5 189zM567 555h275l-137 494z" />
<glyph unicode="&#x103;" horiz-adv-x="1218" d="M49 324q0 57 14 103t36 78t57 57t67.5 39.5t78.5 25.5t79.5 16t79.5 10q49 5 73.5 8t57.5 8t48 11t31 15.5t21.5 22.5t5.5 30q0 81 -147 81q-82 0 -179 -26t-173 -72l-113 281q225 118 496 118q114 0 201 -21t153.5 -66.5t101.5 -123t35 -184.5v-450q0 -26 11.5 -35.5 t33.5 -9.5q34 0 51 14l37 -227q-65 -43 -192 -43q-82 0 -147 31.5t-95 93.5q-51 -68 -142.5 -101t-193.5 -33q-174 0 -280.5 91.5t-106.5 257.5zM207 1436l168 49q29 -57 80.5 -83t136.5 -28q84 0 136 27t81 84l168 -49q-26 -116 -124.5 -189t-260.5 -73t-260.5 73 t-124.5 189zM418 342q0 -102 123 -102q74 0 115.5 40.5t41.5 118.5v107q-6 -7 -13.5 -12.5t-14.5 -9.5t-18 -8t-17.5 -6t-21 -4.5t-21 -3.5t-24 -3.5t-23.5 -3.5q-27 -5 -45.5 -10.5t-39 -17.5t-31.5 -33.5t-11 -51.5z" />
<glyph unicode="&#x104;" horiz-adv-x="1419" d="M-8 0l485 1364h467l483 -1364q-162 0 -233.5 -23.5t-71.5 -72.5q0 -37 32.5 -57.5t88.5 -20.5q106 0 170 55v-205q-27 -22 -83 -37.5t-124 -15.5q-132 0 -213.5 60t-81.5 149q0 94 84 168l-69 252h-441l-69 -252h-424zM567 555h275l-137 494z" />
<glyph unicode="&#x105;" horiz-adv-x="1218" d="M49 324q0 57 14 103t36 78t57 57t67.5 39.5t78.5 25.5t79.5 16t79.5 10q49 5 73.5 8t57.5 8t48 11t31 15.5t21.5 22.5t5.5 30q0 81 -147 81q-82 0 -179 -26t-173 -72l-113 281q225 118 502 118q485 0 485 -395v-450q0 -45 43 -45q36 0 53 14l37 -227q-56 -37 -162 -41 q-69 -32 -69 -80q0 -33 31.5 -51.5t83.5 -18.5q37 0 73 10.5t54 24.5v-205q-53 -33 -154 -33q-135 0 -216 58t-81 151q0 55 41.5 95.5t97.5 62.5q-95 26 -133 109q-51 -68 -142.5 -101t-197.5 -33q-169 0 -276 92t-107 257zM418 342q0 -102 123 -102q74 0 115.5 40.5 t41.5 118.5v107q-6 -7 -13.5 -12.5t-14.5 -9.5t-18 -8t-17.5 -6t-21 -4.5t-21 -3.5t-24 -3.5t-23.5 -3.5q-27 -5 -45.5 -10.5t-39 -17.5t-31.5 -33.5t-11 -51.5z" />
<glyph unicode="&#x106;" horiz-adv-x="1421" d="M57 686q0 158 51.5 290t143.5 222.5t221 140.5t281 50q420 0 628 -369l-307 -170q-58 109 -134.5 158t-176.5 49q-142 0 -225.5 -106t-83.5 -265q0 -162 83.5 -270.5t225.5 -108.5q106 0 175.5 55.5t123.5 167.5l328 -151q-204 -404 -637 -404q-203 0 -361 87t-247 249 t-89 375zM555 1479q130 194 166 290l293 -49q-37 -87 -133 -171.5t-189 -129.5z" />
<glyph unicode="&#x107;" horiz-adv-x="1179" d="M51 551q0 253 160.5 416t423.5 163q183 0 310.5 -82t201.5 -221l-275 -165q-76 155 -217 155q-98 0 -153.5 -72.5t-55.5 -189.5q0 -121 58.5 -193.5t159.5 -72.5q143 0 233 149l254 -180q-74 -129 -202 -206t-310 -77q-133 0 -244 43.5t-186 120.5t-116.5 183t-41.5 229z M494 1221q128 191 165 290l293 -49q-37 -87 -132.5 -172t-188.5 -129z" />
<glyph unicode="&#x108;" horiz-adv-x="1421" d="M57 686q0 158 51.5 290t143.5 222.5t221 140.5t281 50q420 0 628 -369l-307 -170q-58 109 -134.5 158t-176.5 49q-142 0 -225.5 -106t-83.5 -265q0 -162 83.5 -270.5t225.5 -108.5q106 0 175.5 55.5t123.5 167.5l328 -151q-204 -404 -637 -404q-203 0 -361 87t-247 249 t-89 375zM362 1548q177 113 269 195h258q94 -84 268 -195l-80 -129q-83 13 -168.5 48t-148.5 79q-63 -43 -149 -78.5t-169 -48.5z" />
<glyph unicode="&#x109;" horiz-adv-x="1179" d="M51 551q0 253 160.5 416t423.5 163q183 0 310.5 -82t201.5 -221l-275 -165q-76 155 -217 155q-98 0 -153.5 -72.5t-55.5 -189.5q0 -121 58.5 -193.5t159.5 -72.5q143 0 233 149l254 -180q-74 -129 -202 -206t-310 -77q-133 0 -244 43.5t-186 120.5t-116.5 183t-41.5 229z M240 1290q174 111 268 195h258q94 -84 268 -195l-80 -129q-83 13 -168.5 48t-148.5 79q-63 -43 -149 -78.5t-169 -48.5z" />
<glyph unicode="&#x10a;" horiz-adv-x="1421" d="M57 686q0 158 51.5 290t143.5 222.5t221 140.5t281 50q420 0 628 -369l-307 -170q-58 109 -134.5 158t-176.5 49q-142 0 -225.5 -106t-83.5 -265q0 -162 83.5 -270.5t225.5 -108.5q106 0 175.5 55.5t123.5 167.5l328 -151q-204 -404 -637 -404q-203 0 -361 87t-247 249 t-89 375zM627 1464v256h282v-256h-282z" />
<glyph unicode="&#x10b;" horiz-adv-x="1179" d="M51 551q0 253 160.5 416t423.5 163q183 0 310.5 -82t201.5 -221l-275 -165q-76 155 -217 155q-98 0 -153.5 -72.5t-55.5 -189.5q0 -121 58.5 -193.5t159.5 -72.5q143 0 233 149l254 -180q-74 -129 -202 -206t-310 -77q-133 0 -244 43.5t-186 120.5t-116.5 183t-41.5 229z M492 1206v256h282v-256h-282z" />
<glyph unicode="&#x10c;" horiz-adv-x="1421" d="M57 686q0 158 51.5 290t143.5 222.5t221 140.5t281 50q420 0 628 -369l-307 -170q-58 109 -134.5 158t-176.5 49q-142 0 -225.5 -106t-83.5 -265q0 -162 83.5 -270.5t225.5 -108.5q106 0 175.5 55.5t123.5 167.5l328 -151q-204 -404 -637 -404q-203 0 -361 87t-247 249 t-89 375zM356 1636l80 129q83 -13 169 -48.5t149 -78.5q63 44 148.5 79t168.5 48l80 -129q-177 -113 -268 -194h-258q-88 79 -269 194z" />
<glyph unicode="&#x10d;" horiz-adv-x="1179" d="M51 551q0 253 160.5 416t423.5 163q183 0 310.5 -82t201.5 -221l-275 -165q-76 155 -217 155q-98 0 -153.5 -72.5t-55.5 -189.5q0 -121 58.5 -193.5t159.5 -72.5q143 0 233 149l254 -180q-74 -129 -202 -206t-310 -77q-133 0 -244 43.5t-186 120.5t-116.5 183t-41.5 229z M236 1378l79 129q83 -13 169 -48.5t149 -78.5q63 44 148.5 79t168.5 48l80 -129q-177 -113 -268 -194h-258q-91 81 -268 194z" />
<glyph unicode="&#x10e;" horiz-adv-x="1490" d="M131 0v1364h584q172 0 309.5 -52t225.5 -144.5t135 -216.5t47 -269t-47 -269t-135 -216.5t-225.5 -144.5t-309.5 -52h-584zM354 1636l80 129q83 -13 169 -48.5t149 -78.5q63 44 148.5 79t168.5 48l80 -129q-177 -113 -268 -194h-258q-88 79 -269 194zM520 344h195 q155 0 236 89t81 249q0 159 -81.5 248.5t-235.5 89.5h-195v-676z" />
<glyph unicode="&#x10f;" horiz-adv-x="1660" d="M55 553q0 253 137 415t365 162q185 0 315 -124v456h375v-1462h-375v102q-133 -127 -315 -127q-113 0 -208 44.5t-159 122t-99.5 183.5t-35.5 228zM451 551q0 -111 52.5 -183.5t153.5 -72.5q104 0 159.5 72t55.5 184t-56 187t-159 75q-100 0 -153 -75t-53 -187zM1370 911 q64 52 99.5 106t35.5 124q0 33 -11.5 64.5t-25 54.5t-25 62.5t-11.5 86.5v53h325v-186q0 -158 -63.5 -274.5t-214.5 -229.5z" />
<glyph unicode="&#x110;" horiz-adv-x="1581" d="M31 532v304h190v528h584q172 0 309.5 -52t225.5 -144.5t135 -216.5t47 -269t-47 -269t-135 -216.5t-225.5 -144.5t-309.5 -52h-584v532h-190zM610 344h195q155 0 236 89t81 249q0 159 -81.5 248.5t-235.5 89.5h-195v-184h279v-304h-279v-188z" />
<glyph unicode="&#x111;" horiz-adv-x="1361" d="M55 553q0 253 137 415t365 162q185 0 315 -124v170h-227v190h227v96h375v-96h109v-190h-109v-1176h-375v102q-133 -127 -315 -127q-113 0 -208 44.5t-159 122t-99.5 183.5t-35.5 228zM451 551q0 -111 52.5 -183.5t153.5 -72.5q104 0 159.5 72t55.5 184t-56 187t-159 75 q-100 0 -153 -75t-53 -187z" />
<glyph unicode="&#x112;" horiz-adv-x="1302" d="M131 0v1364h1075v-344h-688v-164h598v-303h-598v-209h709v-344h-1096zM305 1462v191h711v-191h-711z" />
<glyph unicode="&#x113;" horiz-adv-x="1280" d="M51 547q0 258 160 420.5t438 162.5q271 0 423.5 -155t152.5 -416q0 -44 -4 -98h-766q6 -87 69.5 -132.5t167.5 -45.5q176 0 289 123l244 -213q-222 -218 -555 -218q-151 0 -270 43.5t-194.5 120.5t-115 180.5t-39.5 227.5zM297 1200v191h711v-191h-711zM455 686h403 q-6 86 -60 131t-141 45t-141 -44.5t-61 -131.5z" />
<glyph unicode="&#x114;" horiz-adv-x="1302" d="M131 0v1364h1075v-344h-688v-164h598v-303h-598v-209h709v-344h-1096zM276 1694l168 49q29 -57 81 -83t137 -28q84 0 136 27t81 84l168 -49q-26 -116 -124.5 -189t-260.5 -73t-261 73t-125 189z" />
<glyph unicode="&#x115;" horiz-adv-x="1280" d="M51 547q0 258 160 420.5t438 162.5q271 0 423.5 -155t152.5 -416q0 -44 -4 -98h-766q6 -87 69.5 -132.5t167.5 -45.5q176 0 289 123l244 -213q-222 -218 -555 -218q-151 0 -270 43.5t-194.5 120.5t-115 180.5t-39.5 227.5zM262 1436l168 49q29 -57 80.5 -83t136.5 -28 q84 0 136 27t81 84l168 -49q-26 -116 -124.5 -189t-260.5 -73t-260.5 73t-124.5 189zM455 686h403q-6 86 -60 131t-141 45t-141 -44.5t-61 -131.5z" />
<glyph unicode="&#x116;" horiz-adv-x="1302" d="M131 0v1364h1075v-344h-688v-164h598v-303h-598v-209h709v-344h-1096zM520 1464v256h283v-256h-283z" />
<glyph unicode="&#x117;" horiz-adv-x="1280" d="M51 547q0 258 160 420.5t438 162.5q271 0 423.5 -155t152.5 -416q0 -44 -4 -98h-766q6 -87 69.5 -132.5t167.5 -45.5q176 0 289 123l244 -213q-222 -218 -555 -218q-151 0 -270 43.5t-194.5 120.5t-115 180.5t-39.5 227.5zM455 686h403q-6 86 -60 131t-141 45t-141 -44.5 t-61 -131.5zM504 1206v256h282v-256h-282z" />
<glyph unicode="&#x118;" horiz-adv-x="1302" d="M131 0v1364h1075v-344h-688v-164h598v-303h-598v-209h709v-344h-252q-41 -44 -41 -88q0 -38 33 -61t86 -23q51 0 99 20t75 43v-198q-29 -24 -85 -42t-126 -18q-128 0 -209.5 60.5t-81.5 148.5q0 87 74 158h-668z" />
<glyph unicode="&#x119;" horiz-adv-x="1282" d="M51 549q0 168 69.5 298.5t206.5 206.5t322 76q271 0 423.5 -155t152.5 -416q0 -44 -4 -98h-766q6 -87 69.5 -132.5t167.5 -45.5q176 0 289 123l244 -213q-69 -67 -117.5 -97t-132.5 -67q-105 -45 -105 -115q0 -38 31.5 -58t83.5 -20q98 0 178 76v-219q-29 -24 -84.5 -42 t-128.5 -18q-128 0 -208 58t-80 147q0 87 75 142q-30 -5 -78 -5q-146 0 -262.5 43.5t-191.5 120.5t-114.5 181.5t-39.5 228.5zM455 686h403q-6 86 -60 131t-141 45t-141 -44.5t-61 -131.5z" />
<glyph unicode="&#x11a;" horiz-adv-x="1302" d="M131 0v1364h1075v-344h-688v-164h598v-303h-598v-209h709v-344h-1096zM264 1636l80 129q83 -13 169 -48.5t149 -78.5q63 44 148.5 79t168.5 48l80 -129q-177 -113 -268 -194h-259q-91 81 -268 194z" />
<glyph unicode="&#x11b;" horiz-adv-x="1280" d="M51 547q0 258 160 420.5t438 162.5q271 0 423.5 -155t152.5 -416q0 -44 -4 -98h-766q6 -87 69.5 -132.5t167.5 -45.5q176 0 289 123l244 -213q-222 -218 -555 -218q-151 0 -270 43.5t-194.5 120.5t-115 180.5t-39.5 227.5zM254 1378l80 129q83 -13 168.5 -48t148.5 -79 q63 43 149 78.5t169 48.5l80 -129q-181 -115 -269 -194h-258q-91 81 -268 194zM455 686h403q-6 86 -60 131t-141 45t-141 -44.5t-61 -131.5z" />
<glyph unicode="&#x11c;" horiz-adv-x="1486" d="M57 686q0 323 194.5 513t516.5 190q208 0 367 -94t251 -265l-327 -162q-84 189 -291 189q-151 0 -231 -103.5t-80 -267.5q0 -190 84.5 -293.5t236.5 -103.5q101 0 175 47.5t91 130.5h-296v303h686q12 -56 12 -135q0 -140 -44 -259t-127.5 -209t-214.5 -141t-296 -51 q-317 0 -512 194.5t-195 516.5zM358 1548q177 113 269 195h258q94 -84 268 -195l-80 -129q-83 13 -168.5 48t-148.5 79q-63 -43 -149 -78.5t-169 -48.5z" />
<glyph unicode="&#x11d;" horiz-adv-x="1361" d="M57 602q0 146 60 265.5t176 191t266 71.5q186 0 315 -126v104h375v-870q0 -147 -27.5 -250.5t-101.5 -184.5q-164 -180 -536 -180q-287 0 -490 111l123 282q148 -86 356 -86q136 0 218.5 50t82.5 161v58q-131 -125 -315 -125q-151 0 -266.5 71t-175.5 190.5t-60 266.5z M256 1290q174 111 268 195h258q92 -82 269 -195l-80 -129q-83 13 -169 48.5t-149 78.5q-63 -44 -148.5 -79t-168.5 -48zM453 604q0 -102 54 -165.5t152 -63.5q99 0 157 65t58 164q0 100 -57 162.5t-158 62.5q-99 0 -152.5 -61.5t-53.5 -163.5z" />
<glyph unicode="&#x11e;" horiz-adv-x="1486" d="M57 686q0 323 194.5 513t516.5 190q208 0 367 -94t251 -265l-327 -162q-84 189 -291 189q-151 0 -231 -103.5t-80 -267.5q0 -190 84.5 -293.5t236.5 -103.5q101 0 175 47.5t91 130.5h-296v303h686q12 -56 12 -135q0 -140 -44 -259t-127.5 -209t-214.5 -141t-296 -51 q-317 0 -512 194.5t-195 516.5zM367 1694l168 49q29 -57 80.5 -83t136.5 -28q84 0 136 27t81 84l168 -49q-26 -116 -124.5 -189t-260.5 -73t-260.5 73t-124.5 189z" />
<glyph unicode="&#x11f;" horiz-adv-x="1361" d="M57 602q0 146 60 265.5t176 191t266 71.5q186 0 315 -126v104h375v-870q0 -147 -27.5 -250.5t-101.5 -184.5q-164 -180 -536 -180q-287 0 -490 111l123 282q148 -86 356 -86q136 0 218.5 50t82.5 161v58q-131 -125 -315 -125q-151 0 -266.5 71t-175.5 190.5t-60 266.5z M250 1436l168 49q29 -57 80.5 -83t136.5 -28q84 0 136 27t81 84l168 -49q-26 -116 -124.5 -189t-260.5 -73t-260.5 73t-124.5 189zM453 604q0 -102 54 -165.5t152 -63.5q99 0 157 65t58 164q0 100 -57 162.5t-158 62.5q-99 0 -152.5 -61.5t-53.5 -163.5z" />
<glyph unicode="&#x120;" horiz-adv-x="1486" d="M57 686q0 323 194.5 513t516.5 190q208 0 367 -94t251 -265l-327 -162q-84 189 -291 189q-151 0 -231 -103.5t-80 -267.5q0 -190 84.5 -293.5t236.5 -103.5q101 0 175 47.5t91 130.5h-296v303h686q12 -56 12 -135q0 -140 -44 -259t-127.5 -209t-214.5 -141t-296 -51 q-317 0 -512 194.5t-195 516.5zM612 1464v256h283v-256h-283z" />
<glyph unicode="&#x121;" horiz-adv-x="1361" d="M57 602q0 146 60 265.5t176 191t266 71.5q186 0 315 -126v104h375v-870q0 -147 -27.5 -250.5t-101.5 -184.5q-164 -180 -536 -180q-287 0 -490 111l123 282q148 -86 356 -86q136 0 218.5 50t82.5 161v58q-131 -125 -315 -125q-151 0 -266.5 71t-175.5 190.5t-60 266.5z M453 604q0 -102 54 -165.5t152 -63.5q99 0 157 65t58 164q0 100 -57 162.5t-158 62.5q-99 0 -152.5 -61.5t-53.5 -163.5zM494 1206v256h282v-256h-282z" />
<glyph unicode="&#x122;" horiz-adv-x="1486" d="M57 686q0 323 194.5 513t516.5 190q208 0 367 -94t251 -265l-327 -162q-84 189 -291 189q-151 0 -231 -103.5t-80 -267.5q0 -190 84.5 -293.5t236.5 -103.5q101 0 175 47.5t91 130.5h-296v303h686q12 -56 12 -135q0 -140 -44 -259t-127.5 -209t-214.5 -141t-296 -51 q-317 0 -512 194.5t-195 516.5zM471 -350q1 1 16.5 24.5t18.5 27.5t17.5 26t18.5 29.5t17 27.5t18 30t15.5 28t16 30.5t12.5 27.5t12 29l297 -28q-34 -90 -131 -178.5t-191 -133.5z" />
<glyph unicode="&#x123;" horiz-adv-x="1361" d="M57 602q0 146 60 265.5t176 191t266 71.5q186 0 315 -126v104h375v-870q0 -147 -27.5 -250.5t-101.5 -184.5q-164 -180 -536 -180q-287 0 -490 111l123 282q148 -86 356 -86q136 0 218.5 50t82.5 161v58q-131 -125 -315 -125q-151 0 -266.5 71t-175.5 190.5t-60 266.5z M449 1200q34 90 130.5 178t190.5 133l137 -59q-129 -192 -162 -281zM453 604q0 -102 54 -165.5t152 -63.5q99 0 157 65t58 164q0 100 -57 162.5t-158 62.5q-99 0 -152.5 -61.5t-53.5 -163.5z" />
<glyph unicode="&#x124;" horiz-adv-x="1521" d="M131 0v1364h389v-479h479v479h392v-1364h-392v541h-479v-541h-389zM362 1548q177 113 269 195h258q94 -84 268 -195l-80 -129q-83 13 -168.5 48t-148.5 79q-63 -43 -149 -78.5t-169 -48.5z" />
<glyph unicode="&#x125;" horiz-adv-x="1273" d="M-92 1597q174 111 268 195h258q94 -84 268 -195l-79 -129q-83 13 -169 48.5t-149 78.5q-63 -44 -148.5 -79t-168.5 -48zM115 0v1462h374v-456q62 59 144 91.5t168 32.5q93 0 164.5 -31.5t115 -85.5t65 -122.5t21.5 -147.5v-743h-374v657q0 146 -142 146q-70 0 -116 -42 t-46 -124v-637h-374z" />
<glyph unicode="&#x126;" horiz-adv-x="1521" d="M14 1075v191h117v98h389v-98h479v98h392v-98h116v-191h-116v-1075h-392v541h-479v-541h-389v1075h-117zM520 885h479v190h-479v-190z" />
<glyph unicode="&#x127;" horiz-adv-x="1273" d="M6 1176v190h109v96h374v-96h228v-190h-228v-170q62 59 144 91.5t168 32.5q93 0 164.5 -31.5t115 -85.5t65 -122.5t21.5 -147.5v-743h-374v657q0 146 -142 146q-70 0 -116 -42t-46 -124v-637h-374v1176h-109z" />
<glyph unicode="&#x128;" horiz-adv-x="649" d="M-98 1526q40 93 114.5 155t169.5 62q51 0 102.5 -20.5t95.5 -41t79 -20.5q42 0 86 25t74 67l127 -90q-40 -93 -115 -155t-170 -62q-51 0 -102.5 20.5t-95.5 41t-79 20.5q-42 0 -85.5 -25t-73.5 -67zM131 0v1364h387v-1364h-387z" />
<glyph unicode="&#x129;" horiz-adv-x="604" d="M-121 1268q40 93 115 155t170 62q51 0 102 -20.5t95 -41t79 -20.5q42 0 86 25t74 67l127 -90q-40 -93 -115 -155t-170 -62q-51 0 -102 20.5t-95 41t-79 20.5q-42 0 -86 -25t-74 -67zM115 0v1108h374v-1108h-374z" />
<glyph unicode="&#x12a;" horiz-adv-x="649" d="M23 1462v191h604v-191h-604zM131 0v1364h387v-1364h-387z" />
<glyph unicode="&#x12b;" horiz-adv-x="604" d="M0 1200v191h604v-191h-604zM115 0v1108h374v-1108h-374z" />
<glyph unicode="&#x12c;" horiz-adv-x="649" d="M-59 1694l168 49q29 -57 80.5 -83t136.5 -28q84 0 136 27t81 84l168 -49q-26 -116 -124.5 -189t-260.5 -73t-260.5 73t-124.5 189zM131 0v1364h387v-1364h-387z" />
<glyph unicode="&#x12d;" horiz-adv-x="604" d="M-82 1436l168 49q29 -57 80.5 -83t136.5 -28q84 0 136 27t81 84l168 -49q-26 -116 -124.5 -189t-260.5 -73t-260.5 73t-124.5 189zM115 0v1108h374v-1108h-374z" />
<glyph unicode="&#x12e;" horiz-adv-x="649" d="M68 -158q0 86 63 158v1364h387v-1364h-129q-113 -34 -113 -94q0 -33 31.5 -51.5t83.5 -18.5q37 0 73 10.5t54 24.5v-205q-53 -33 -153 -33q-135 0 -216 58t-81 151z" />
<glyph unicode="&#x12f;" horiz-adv-x="604" d="M39 -158q0 36 15 67.5t37 59.5t24 31v1108h374v-1108h-129q-112 -34 -112 -94q0 -33 31 -51.5t83 -18.5q37 0 73 10.5t54 24.5v-205q-53 -33 -153 -33q-135 0 -216 58t-81 151zM115 1223v239h374v-239h-374z" />
<glyph unicode="&#x130;" horiz-adv-x="649" d="M131 0v1364h387v-1364h-387zM184 1464v256h283v-256h-283z" />
<glyph unicode="&#x131;" horiz-adv-x="604" d="M115 0v1108h374v-1108h-374z" />
<glyph unicode="&#x134;" horiz-adv-x="1177" d="M-2 307l334 144q23 -68 69 -103t107 -35q78 0 120 43t42 129v879h387v-868q0 -254 -142 -387.5t-385 -133.5q-188 0 -325.5 83t-206.5 249zM457 1548q174 111 268 195h258q94 -84 268 -195l-80 -129q-83 13 -168.5 48t-148.5 79q-63 -44 -148.5 -79t-168.5 -48z" />
<glyph unicode="&#x135;" horiz-adv-x="604" d="M-186 -303l104 266q53 -31 107 -31q90 0 90 107v1069h374v-1063q0 -209 -107.5 -313.5t-301.5 -104.5q-69 0 -141 18.5t-125 51.5zM-109 1290q177 113 269 195h258q94 -84 268 -195l-80 -129q-83 13 -168.5 48t-148.5 79q-63 -43 -149 -78.5t-169 -48.5z" />
<glyph unicode="&#x136;" horiz-adv-x="1462" d="M131 0v1364h387v-528l443 528h466l-458 -535l510 -829h-463l-320 541l-178 -211v-330h-387zM504 -350q1 1 16.5 24.5t18.5 27.5t17.5 26t18.5 29.5t17 27.5t18 30t15.5 28t16 30.5t12.5 27.5t12 29l297 -28q-34 -90 -131 -178.5t-191 -133.5z" />
<glyph unicode="&#x137;" horiz-adv-x="1316" d="M115 0v1462h374v-770l359 416h434l-389 -426l432 -682h-440l-246 432l-150 -166v-266h-374zM434 -350q1 1 16.5 24.5t18.5 27.5t17.5 26t18.5 29.5t17 27.5t18 30t15.5 28t16 30.5t12.5 27.5t12 29l297 -28q-34 -90 -131 -178.5t-191 -133.5z" />
<glyph unicode="&#x138;" horiz-adv-x="1316" d="M115 0v1108h374v-416l359 416h434l-389 -426l432 -682h-440l-246 432l-150 -166v-266h-374z" />
<glyph unicode="&#x139;" horiz-adv-x="1202" d="M86 1479q130 194 166 290l293 -49q-37 -87 -133 -171.5t-189 -129.5zM131 0v1364h387v-1020h660v-344h-1047z" />
<glyph unicode="&#x13a;" horiz-adv-x="604" d="M115 0v1462h374v-1462h-374zM115 1548q130 193 166 291l292 -49q-37 -87 -132.5 -172t-188.5 -129z" />
<glyph unicode="&#x13b;" horiz-adv-x="1202" d="M131 0v1364h387v-1020h660v-344h-1047zM416 -350q1 1 16.5 24.5t18.5 27.5t17.5 26t18.5 29.5t17 27.5t18 30t15.5 28t16 30.5t12.5 27.5t12 29l296 -28q-34 -90 -131 -178.5t-190 -133.5z" />
<glyph unicode="&#x13c;" horiz-adv-x="604" d="M4 -350q1 1 16.5 24.5t18.5 27.5t17.5 26t18.5 29.5t17 27.5t18 30t15.5 28t16 30.5t12.5 27.5t12 29l297 -28q-34 -90 -131 -178.5t-191 -133.5zM115 0v1462h374v-1462h-374z" />
<glyph unicode="&#x13d;" horiz-adv-x="1204" d="M131 0v1364h387v-1020h660v-344h-1047zM659 813q65 52 100.5 106t35.5 123q0 41 -18.5 79.5t-37 84.5t-18.5 105v53h326v-186q0 -158 -64 -274.5t-215 -229.5z" />
<glyph unicode="&#x13e;" horiz-adv-x="913" d="M115 0v1462h374v-1462h-374zM623 911q64 52 99.5 106t35.5 124q0 41 -18.5 79t-37 84t-18.5 105v53h326v-186q0 -158 -64 -274.5t-215 -229.5z" />
<glyph unicode="&#x13f;" horiz-adv-x="1202" d="M131 0v1364h387v-1020h660v-344h-1047zM707 750q0 92 66 157.5t157 65.5q92 0 157.5 -65.5t65.5 -157.5q0 -91 -65.5 -157.5t-157.5 -66.5q-91 0 -157 66.5t-66 157.5z" />
<glyph unicode="&#x140;" horiz-adv-x="1193" d="M115 0v1462h374v-1462h-374zM674 623q0 92 66 157.5t157 65.5q92 0 157.5 -65.5t65.5 -157.5q0 -91 -65.5 -157.5t-157.5 -66.5q-91 0 -157 66.5t-66 157.5z" />
<glyph unicode="&#x141;" horiz-adv-x="1267" d="M6 426v307l193 70v561h385v-420l391 141v-307l-391 -141v-293h659v-344h-1044v496z" />
<glyph unicode="&#x142;" horiz-adv-x="757" d="M8 565v293l187 62v542h374v-418l187 64v-293l-187 -61v-754h-374v629z" />
<glyph unicode="&#x143;" horiz-adv-x="1523" d="M131 0v1364h490l401 -821v821h371v-1364h-473l-416 840v-840h-373zM621 1479q128 191 165 290l293 -49q-37 -87 -132.5 -172t-188.5 -129z" />
<glyph unicode="&#x144;" horiz-adv-x="1271" d="M115 0v1108h374v-102q62 59 144 91.5t168 32.5q93 0 164.5 -31.5t115 -85.5t65 -122.5t21.5 -147.5v-743h-374v657q0 146 -142 146q-70 0 -116 -42t-46 -124v-637h-374zM500 1221q130 194 166 290l292 -49q-37 -87 -132.5 -172t-188.5 -129z" />
<glyph unicode="&#x145;" horiz-adv-x="1523" d="M131 0v1364h490l401 -821v821h371v-1364h-473l-416 840v-840h-373zM502 -350q1 1 16.5 24.5t18.5 27.5t17.5 26t18.5 29.5t17 27.5t18 30t15.5 28t16 30.5t12.5 27.5t12 29l297 -28q-34 -90 -131 -178.5t-191 -133.5z" />
<glyph unicode="&#x146;" horiz-adv-x="1273" d="M115 0v1108h374v-102q62 59 144 91.5t168 32.5q93 0 164.5 -31.5t115 -85.5t65 -122.5t21.5 -147.5v-743h-374v657q0 146 -142 146q-70 0 -116 -42t-46 -124v-637h-374zM381 -350q1 1 16.5 24.5t18.5 27.5t17.5 26t18.5 29.5t17 27.5t18 30t15.5 28t16 30.5t12.5 27.5 t12 29l297 -28q-34 -90 -131 -178.5t-191 -133.5z" />
<glyph unicode="&#x147;" horiz-adv-x="1523" d="M131 0v1364h490l401 -821v821h371v-1364h-473l-416 840v-840h-373zM365 1636l79 129q83 -13 169 -48.5t149 -78.5q63 44 148.5 79t168.5 48l80 -129q-177 -113 -268 -194h-258q-91 81 -268 194z" />
<glyph unicode="&#x148;" horiz-adv-x="1271" d="M115 0v1108h374v-102q62 59 144 91.5t168 32.5q93 0 164.5 -31.5t115 -85.5t65 -122.5t21.5 -147.5v-743h-374v657q0 146 -142 146q-70 0 -116 -42t-46 -124v-637h-374zM240 1378l79 129q83 -13 169 -48.5t149 -78.5q63 44 148.5 79t168.5 48l80 -129 q-177 -113 -268 -194h-258q-91 81 -268 194z" />
<glyph unicode="&#x14a;" horiz-adv-x="1523" d="M131 0v1364h498l393 -700v700h371v-1221q0 -256 -137 -388t-379 -132q-138 0 -244 62l110 288q49 -28 111 -28q88 0 131 55l-481 842v-842h-373z" />
<glyph unicode="&#x14b;" horiz-adv-x="1273" d="M115 0v1108h374v-102q62 59 144 91.5t168 32.5q93 0 164.5 -31.5t115 -85.5t65 -122.5t21.5 -147.5v-698q0 -189 -97 -303.5t-292 -114.5q-168 0 -286 70l104 266q53 -31 106 -31q44 0 67.5 22t23.5 62v641q0 146 -142 146q-70 0 -116 -42t-46 -124v-637h-374z" />
<glyph unicode="&#x14c;" horiz-adv-x="1536" d="M55 682q0 146 48.5 274.5t138 225t225 152t299.5 55.5t300.5 -55.5t226 -152t139 -225t49.5 -274.5q0 -118 -31 -224.5t-92 -194.5t-146 -152.5t-199.5 -100t-246.5 -35.5q-164 0 -299.5 55t-225 151t-138 224.5t-48.5 276.5zM412 1462v191h710v-191h-710zM457 682 q0 -151 80.5 -252.5t228.5 -101.5q150 0 231.5 101.5t81.5 252.5q0 149 -82 251.5t-231 102.5q-99 0 -171 -50.5t-105 -129t-33 -174.5z" />
<glyph unicode="&#x14d;" horiz-adv-x="1314" d="M51 551q0 264 164.5 421.5t441.5 157.5t442 -157.5t165 -421.5q0 -263 -165 -419.5t-442 -156.5t-441.5 156.5t-164.5 419.5zM301 1200v191h711v-191h-711zM449 553q0 -124 53.5 -196t154.5 -72q102 0 155.5 71.5t53.5 196.5t-53.5 197.5t-155.5 72.5q-101 0 -154.5 -73 t-53.5 -197z" />
<glyph unicode="&#x14e;" horiz-adv-x="1536" d="M55 682q0 146 48.5 274.5t138 225t225 152t299.5 55.5t300.5 -55.5t226 -152t139 -225t49.5 -274.5q0 -118 -31 -224.5t-92 -194.5t-146 -152.5t-199.5 -100t-246.5 -35.5q-164 0 -299.5 55t-225 151t-138 224.5t-48.5 276.5zM383 1694l168 49q29 -57 80.5 -83t136.5 -28 q84 0 136 27t81 84l168 -49q-26 -116 -124.5 -189t-260.5 -73t-260.5 73t-124.5 189zM457 682q0 -151 80.5 -252.5t228.5 -101.5q150 0 231.5 101.5t81.5 252.5q0 149 -82 251.5t-231 102.5q-99 0 -171 -50.5t-105 -129t-33 -174.5z" />
<glyph unicode="&#x14f;" horiz-adv-x="1314" d="M51 551q0 264 164.5 421.5t441.5 157.5t442 -157.5t165 -421.5q0 -263 -165 -419.5t-442 -156.5t-441.5 156.5t-164.5 419.5zM272 1436l168 49q29 -57 80.5 -83t136.5 -28q84 0 136 27t81 84l168 -49q-26 -116 -124.5 -189t-260.5 -73t-260.5 73t-124.5 189zM449 553 q0 -124 53.5 -196t154.5 -72q102 0 155.5 71.5t53.5 196.5t-53.5 197.5t-155.5 72.5q-101 0 -154.5 -73t-53.5 -197z" />
<glyph unicode="&#x150;" horiz-adv-x="1536" d="M55 682q0 146 48.5 274.5t138 225t225 152t299.5 55.5t300.5 -55.5t226 -152t139 -225t49.5 -274.5q0 -118 -31 -224.5t-92 -194.5t-146 -152.5t-199.5 -100t-246.5 -35.5q-164 0 -299.5 55t-225 151t-138 224.5t-48.5 276.5zM457 682q0 -151 80.5 -252.5t228.5 -101.5 q150 0 231.5 101.5t81.5 252.5q0 149 -82 251.5t-231 102.5q-99 0 -171 -50.5t-105 -129t-33 -174.5zM459 1479q130 194 166 290l268 -49q-37 -87 -133 -171.5t-189 -129.5zM858 1479q130 194 166 290l268 -49q-37 -87 -132.5 -172t-188.5 -129z" />
<glyph unicode="&#x151;" horiz-adv-x="1314" d="M51 551q0 264 164.5 421.5t441.5 157.5t442 -157.5t165 -421.5q0 -263 -165 -419.5t-442 -156.5t-441.5 156.5t-164.5 419.5zM350 1221q130 194 166 290l268 -49q-37 -87 -132.5 -172t-188.5 -129zM449 553q0 -124 53.5 -196t154.5 -72q102 0 155.5 71.5t53.5 196.5 t-53.5 197.5t-155.5 72.5q-101 0 -154.5 -73t-53.5 -197zM750 1221q128 191 165 290l269 -49q-37 -87 -133 -171.5t-189 -129.5z" />
<glyph unicode="&#x152;" horiz-adv-x="2035" d="M59 682q0 145 47 269t135 216.5t225.5 144.5t309.5 52h1163v-344h-622v-164h532v-303h-532v-209h643v-344h-1184q-172 0 -309.5 52t-225.5 144.5t-135 216.5t-47 269zM459 680q0 -159 81 -247.5t236 -88.5h156v676h-156q-155 0 -236 -89.5t-81 -250.5z" />
<glyph unicode="&#x153;" horiz-adv-x="2041" d="M51 551q0 253 157.5 416t418.5 163q242 0 397 -145q155 145 395 145q265 0 416.5 -156.5t151.5 -422.5q0 -23 -5 -90h-765q6 -87 69.5 -132.5t167.5 -45.5q176 0 289 123l244 -213q-222 -218 -555 -218q-250 0 -404 148q-158 -148 -401 -148q-261 0 -418.5 162 t-157.5 414zM449 553q0 -124 50 -196t144 -72q95 0 145 72t50 196q0 125 -50 197.5t-145 72.5q-93 0 -143.5 -73t-50.5 -197zM1217 686h403q-6 86 -60 131t-141 45t-141 -44.5t-61 -131.5z" />
<glyph unicode="&#x154;" horiz-adv-x="1406" d="M131 0v1364h662q262 0 399 -124t137 -327q0 -97 -39 -181t-91 -133.5t-114 -82.5l283 -516h-430l-225 438h-193v-438h-389zM520 741h264q65 0 108.5 38t43.5 104t-43.5 101.5t-108.5 35.5h-264v-279zM522 1479q130 194 166 290l293 -49q-37 -87 -133 -171.5t-189 -129.5z " />
<glyph unicode="&#x155;" horiz-adv-x="905" d="M115 0v1108h374v-160q51 85 124.5 132.5t156.5 47.5q81 0 139 -30l-92 -383q-64 35 -123 35q-92 0 -148.5 -66.5t-56.5 -167.5v-516h-374zM233 1221q130 194 166 290l293 -49q-37 -87 -132.5 -172t-188.5 -129z" />
<glyph unicode="&#x156;" horiz-adv-x="1406" d="M131 0v1364h662q262 0 399 -124t137 -327q0 -97 -39 -181t-91 -133.5t-114 -82.5l283 -516h-430l-225 438h-193v-438h-389zM432 -350q1 1 16.5 24.5t18.5 27.5t17.5 26t18.5 29.5t17 27.5t18 30t15.5 28t16 30.5t12.5 27.5t12 29l297 -28q-34 -90 -131 -178.5 t-191 -133.5zM520 741h264q65 0 108.5 38t43.5 104t-43.5 101.5t-108.5 35.5h-264v-279z" />
<glyph unicode="&#x157;" horiz-adv-x="905" d="M0 -350q1 1 16.5 24.5t18.5 27.5t17.5 26t18.5 29.5t17 27.5t18 30t15.5 28t16 30.5t12.5 27.5t12 29l297 -28q-34 -90 -131 -178.5t-191 -133.5zM115 0v1108h374v-160q51 85 124.5 132.5t156.5 47.5q81 0 139 -30l-92 -383q-64 35 -123 35q-92 0 -148.5 -66.5 t-56.5 -167.5v-516h-374z" />
<glyph unicode="&#x158;" horiz-adv-x="1406" d="M131 0v1364h662q262 0 399 -124t137 -327q0 -97 -39 -181t-91 -133.5t-114 -82.5l283 -516h-430l-225 438h-193v-438h-389zM293 1636l80 129q83 -13 168.5 -48t148.5 -79q63 43 149 78.5t169 48.5l79 -129q-177 -113 -268 -194h-258q-91 81 -268 194zM520 741h264 q65 0 108.5 38t43.5 104t-43.5 101.5t-108.5 35.5h-264v-279z" />
<glyph unicode="&#x159;" horiz-adv-x="905" d="M92 1378l80 129q83 -13 168.5 -48t148.5 -79q63 43 149 78.5t169 48.5l80 -129q-181 -115 -269 -194h-258q-91 81 -268 194zM115 0v1108h374v-160q51 85 124.5 132.5t156.5 47.5q81 0 139 -30l-92 -383q-64 35 -123 35q-92 0 -148.5 -66.5t-56.5 -167.5v-516h-374z" />
<glyph unicode="&#x15a;" horiz-adv-x="1339" d="M20 346l302 150q119 -211 380 -211q96 0 150.5 28.5t54.5 79.5q0 20 -8 36t-26.5 28t-34 20t-47 15t-47.5 10t-53.5 8.5t-47.5 7.5q-89 14 -161 33t-146 53.5t-123.5 80t-81 115t-31.5 156.5q0 200 150 316.5t403 116.5q87 0 168 -15t162 -47.5t153 -91t124 -139.5 l-293 -166q-108 153 -320 153q-75 0 -118.5 -26t-43.5 -72q0 -20 9 -36t29.5 -27.5t40 -20t55.5 -16t59 -11t67 -10.5q68 -11 123.5 -23t113 -30.5t101.5 -41t83.5 -54.5t64.5 -70.5t40 -89.5t15 -111q0 -99 -39 -184t-112.5 -148.5t-188 -100t-256.5 -36.5 q-236 0 -411.5 97t-258.5 274zM512 1479q130 194 166 290l293 -49q-37 -87 -133 -171.5t-189 -129.5z" />
<glyph unicode="&#x15b;" horiz-adv-x="1198" d="M23 260l260 146q54 -86 148 -127t194 -41q70 0 114.5 20t44.5 59q0 20 -12.5 34.5t-43 24t-57 15t-78.5 14.5q-28 5 -42 7q-55 9 -95.5 17.5t-92 23.5t-87.5 32t-73.5 44t-60.5 59.5t-37.5 78t-14.5 99.5q0 91 38.5 162t106 114.5t155 65.5t190.5 22q185 0 328.5 -63 t230.5 -156l-242 -174q-52 63 -135.5 98t-177.5 35q-67 0 -106.5 -17.5t-39.5 -51.5q0 -10 3.5 -18.5t11.5 -15t17 -12t24 -10t27.5 -7.5t33.5 -7t35 -6t39 -6t41 -6q116 -19 198 -44.5t146.5 -65.5t96.5 -100.5t32 -142.5q0 -178 -143.5 -281.5t-389.5 -103.5 q-195 0 -348 70.5t-239 214.5zM444 1221q130 194 166 290l293 -49q-37 -87 -132.5 -172t-188.5 -129z" />
<glyph unicode="&#x15c;" horiz-adv-x="1339" d="M20 346l302 150q119 -211 380 -211q96 0 150.5 28.5t54.5 79.5q0 20 -8 36t-26.5 28t-34 20t-47 15t-47.5 10t-53.5 8.5t-47.5 7.5q-89 14 -161 33t-146 53.5t-123.5 80t-81 115t-31.5 156.5q0 200 150 316.5t403 116.5q87 0 168 -15t162 -47.5t153 -91t124 -139.5 l-293 -166q-108 153 -320 153q-75 0 -118.5 -26t-43.5 -72q0 -20 9 -36t29.5 -27.5t40 -20t55.5 -16t59 -11t67 -10.5q68 -11 123.5 -23t113 -30.5t101.5 -41t83.5 -54.5t64.5 -70.5t40 -89.5t15 -111q0 -99 -39 -184t-112.5 -148.5t-188 -100t-256.5 -36.5 q-236 0 -411.5 97t-258.5 274zM272 1548q177 113 269 195h258q94 -84 268 -195l-80 -129q-83 13 -168.5 48t-148.5 79q-63 -43 -149 -78.5t-169 -48.5z" />
<glyph unicode="&#x15d;" horiz-adv-x="1198" d="M23 260l260 146q54 -86 148 -127t194 -41q70 0 114.5 20t44.5 59q0 20 -12.5 34.5t-43 24t-57 15t-78.5 14.5q-28 5 -42 7q-55 9 -95.5 17.5t-92 23.5t-87.5 32t-73.5 44t-60.5 59.5t-37.5 78t-14.5 99.5q0 91 38.5 162t106 114.5t155 65.5t190.5 22q185 0 328.5 -63 t230.5 -156l-242 -174q-52 63 -135.5 98t-177.5 35q-67 0 -106.5 -17.5t-39.5 -51.5q0 -10 3.5 -18.5t11.5 -15t17 -12t24 -10t27.5 -7.5t33.5 -7t35 -6t39 -6t41 -6q116 -19 198 -44.5t146.5 -65.5t96.5 -100.5t32 -142.5q0 -178 -143.5 -281.5t-389.5 -103.5 q-195 0 -348 70.5t-239 214.5zM197 1290q174 111 268 195h258q94 -84 268 -195l-80 -129q-83 13 -168.5 48t-148.5 79q-63 -43 -149 -78.5t-169 -48.5z" />
<glyph unicode="&#x15e;" horiz-adv-x="1347" d="M27 346l301 150q119 -211 381 -211q96 0 150 28.5t54 79.5q0 20 -8 36t-26.5 28t-34 20t-47 15t-47.5 10t-53.5 8.5t-47.5 7.5q-89 14 -161 33t-146 53.5t-123.5 80t-81 115t-31.5 156.5q0 200 150 316.5t403 116.5q87 0 168 -15t162 -47.5t153 -91t124 -139.5l-293 -166 q-108 153 -320 153q-75 0 -118 -26t-43 -72q0 -20 9 -36t29.5 -27.5t40 -20t55.5 -16t59 -11t67 -10.5q98 -15 171.5 -34t146 -51.5t119 -76t75 -109t28.5 -149.5q0 -184 -128 -311t-363 -151q65 -71 65 -150q0 -88 -81.5 -148.5t-209.5 -60.5q-70 0 -125.5 18t-84.5 42v219 q80 -76 178 -76q53 0 83.5 20t30.5 60q0 41 -30 71q-212 14 -368 109.5t-232 259.5z" />
<glyph unicode="&#x15f;" horiz-adv-x="1204" d="M27 260l260 146q54 -86 148 -127t194 -41q70 0 114.5 20t44.5 59q0 20 -12.5 34.5t-43 24t-57 15t-78.5 14.5q-28 5 -42 7q-55 9 -95.5 17.5t-92 23.5t-87.5 32t-73.5 44t-60.5 59.5t-37.5 78t-14.5 99.5q0 91 38.5 162t106 114.5t155 65.5t190.5 22q185 0 328.5 -63 t230.5 -156l-242 -174q-52 63 -135.5 98t-177.5 35q-67 0 -106.5 -17.5t-39.5 -51.5q0 -10 3.5 -18.5t11.5 -15t17 -12t24 -10t27.5 -7.5t33.5 -7t35 -6t39 -6t41 -6q116 -19 198 -44.5t146.5 -65.5t96.5 -100.5t32 -142.5q0 -156 -111 -255t-307 -121q68 -71 68 -152 q0 -88 -81.5 -148.5t-209.5 -60.5q-70 0 -126 18t-85 42v219q80 -76 178 -76q53 0 84 20t31 60q0 37 -31 71q-176 9 -313.5 79.5t-216.5 203.5z" />
<glyph unicode="&#x160;" horiz-adv-x="1339" d="M20 346l302 150q119 -211 380 -211q96 0 150.5 28.5t54.5 79.5q0 20 -8 36t-26.5 28t-34 20t-47 15t-47.5 10t-53.5 8.5t-47.5 7.5q-89 14 -161 33t-146 53.5t-123.5 80t-81 115t-31.5 156.5q0 200 150 316.5t403 116.5q87 0 168 -15t162 -47.5t153 -91t124 -139.5 l-293 -166q-108 153 -320 153q-75 0 -118.5 -26t-43.5 -72q0 -20 9 -36t29.5 -27.5t40 -20t55.5 -16t59 -11t67 -10.5q68 -11 123.5 -23t113 -30.5t101.5 -41t83.5 -54.5t64.5 -70.5t40 -89.5t15 -111q0 -99 -39 -184t-112.5 -148.5t-188 -100t-256.5 -36.5 q-236 0 -411.5 97t-258.5 274zM270 1642l80 130q83 -13 169 -48.5t149 -78.5q63 44 148.5 79t168.5 48l80 -130q-177 -113 -268 -194h-258q-88 79 -269 194z" />
<glyph unicode="&#x161;" horiz-adv-x="1198" d="M23 260l260 146q54 -86 148 -127t194 -41q70 0 114.5 20t44.5 59q0 20 -12.5 34.5t-43 24t-57 15t-78.5 14.5q-28 5 -42 7q-55 9 -95.5 17.5t-92 23.5t-87.5 32t-73.5 44t-60.5 59.5t-37.5 78t-14.5 99.5q0 91 38.5 162t106 114.5t155 65.5t190.5 22q185 0 328.5 -63 t230.5 -156l-242 -174q-52 63 -135.5 98t-177.5 35q-67 0 -106.5 -17.5t-39.5 -51.5q0 -10 3.5 -18.5t11.5 -15t17 -12t24 -10t27.5 -7.5t33.5 -7t35 -6t39 -6t41 -6q116 -19 198 -44.5t146.5 -65.5t96.5 -100.5t32 -142.5q0 -178 -143.5 -281.5t-389.5 -103.5 q-195 0 -348 70.5t-239 214.5zM193 1378l79 129q83 -13 169 -48.5t149 -78.5q63 44 148.5 79t168.5 48l80 -129q-177 -113 -268 -194h-258q-91 81 -268 194z" />
<glyph unicode="&#x21a;" horiz-adv-x="1302" d="M53 1020v344h1196v-344h-405v-1020h-387v1020h-404zM348 -350q1 1 16.5 24.5t18.5 27.5t17.5 26t18.5 29.5t17 27.5t18 30t15.5 28t16 30.5t12.5 27.5t12 29l297 -28q-34 -90 -131 -178.5t-191 -133.5z" />
<glyph unicode="&#x162;" horiz-adv-x="1302" d="M53 1020v344h1196v-344h-405v-1020h-387v1020h-404zM348 -350q1 1 16.5 24.5t18.5 27.5t17.5 26t18.5 29.5t17 27.5t18 30t15.5 28t16 30.5t12.5 27.5t12 29l297 -28q-34 -90 -131 -178.5t-191 -133.5z" />
<glyph unicode="&#x21b;" horiz-adv-x="946" d="M33 829v279h168v256h374v-256h297v-279h-297v-448q0 -82 91 -82q72 0 133 51l135 -266q-142 -109 -336 -109q-227 0 -328 140q-69 97 -69 268v446h-168zM264 -350q1 1 16.5 24.5t18.5 27.5t17.5 26t18.5 29.5t17 27.5t18 30t15.5 28t16 30.5t12.5 27.5t12 29l297 -28 q-34 -90 -131 -178.5t-191 -133.5z" />
<glyph unicode="&#x163;" horiz-adv-x="946" d="M33 829v279h168v256h374v-256h297v-279h-297v-448q0 -82 91 -82q72 0 133 51l135 -266q-142 -109 -336 -109q-227 0 -328 140q-69 97 -69 268v446h-168zM264 -350q1 1 16.5 24.5t18.5 27.5t17.5 26t18.5 29.5t17 27.5t18 30t15.5 28t16 30.5t12.5 27.5t12 29l297 -28 q-34 -90 -131 -178.5t-191 -133.5z" />
<glyph unicode="&#x164;" horiz-adv-x="1302" d="M53 1020v344h1196v-344h-405v-1020h-387v1020h-404zM254 1636l80 129q83 -13 168.5 -48t148.5 -79q63 43 149 78.5t169 48.5l80 -129q-181 -115 -269 -194h-258q-91 81 -268 194z" />
<glyph unicode="&#x165;" horiz-adv-x="944" d="M33 829v279h168v256h374v-256h297v-279h-297v-448q0 -82 91 -82q72 0 133 51l135 -266q-142 -109 -336 -109q-227 0 -328 140q-69 97 -69 268v446h-168zM670 1233q88 66 88 137q0 28 -23.5 72.5t-23.5 89.5v33h211v-113q0 -94 -41.5 -164t-139.5 -139z" />
<glyph unicode="&#x166;" horiz-adv-x="1302" d="M53 1020v344h1196v-344h-405v-338h196v-190h-196v-492h-387v492h-197v190h197v338h-404z" />
<glyph unicode="&#x167;" horiz-adv-x="944" d="M33 496v190h168v143h-168v279h168v256h374v-256h297v-279h-297v-143h177v-190h-177v-115q0 -82 91 -82q72 0 133 51l135 -266q-142 -109 -336 -109q-227 0 -328 140q-69 97 -69 268v113h-168z" />
<glyph unicode="&#x168;" horiz-adv-x="1464" d="M119 537v827h389v-827q0 -108 55 -159.5t170 -51.5q225 0 225 211v827h388v-827q0 -272 -164 -417t-449 -145q-286 0 -450 145t-164 417zM309 1526q40 93 115 155t170 62q51 0 102 -20.5t95 -41t79 -20.5q42 0 86 25t74 67l127 -90q-40 -93 -115 -155t-170 -62 q-51 0 -102 20.5t-95 41t-79 20.5q-42 0 -86 -25t-74 -67z" />
<glyph unicode="&#x169;" horiz-adv-x="1269" d="M104 365v743h373v-657q0 -146 141 -146q70 0 117 41.5t47 122.5v639h373v-1108h-373v100q-63 -59 -145 -92t-166 -33q-93 0 -165 31.5t-115 86t-65 123.5t-22 149zM217 1268q40 93 115 155t170 62q51 0 102 -20.5t95 -41t79 -20.5q42 0 86 25t74 67l127 -90 q-40 -93 -115 -155t-170 -62q-51 0 -102 20.5t-95 41t-79 20.5q-42 0 -86 -25t-74 -67z" />
<glyph unicode="&#x16a;" horiz-adv-x="1464" d="M119 537v827h389v-827q0 -108 55 -159.5t170 -51.5q225 0 225 211v827h388v-827q0 -272 -164 -417t-449 -145q-286 0 -450 145t-164 417zM379 1462v191h711v-191h-711z" />
<glyph unicode="&#x16b;" horiz-adv-x="1269" d="M104 365v743h373v-657q0 -146 141 -146q70 0 117 41.5t47 122.5v639h373v-1108h-373v100q-63 -59 -145 -92t-166 -33q-93 0 -165 31.5t-115 86t-65 123.5t-22 149zM285 1200v191h710v-191h-710z" />
<glyph unicode="&#x16c;" horiz-adv-x="1464" d="M119 537v827h389v-827q0 -108 55 -159.5t170 -51.5q225 0 225 211v827h388v-827q0 -272 -164 -417t-449 -145q-286 0 -450 145t-164 417zM348 1694l168 49q29 -57 80.5 -83t136.5 -28q84 0 136 27t81 84l168 -49q-26 -116 -124.5 -189t-260.5 -73t-260.5 73t-124.5 189z " />
<glyph unicode="&#x16d;" horiz-adv-x="1269" d="M104 365v743h373v-657q0 -146 141 -146q70 0 117 41.5t47 122.5v639h373v-1108h-373v100q-63 -59 -145 -92t-166 -33q-93 0 -165 31.5t-115 86t-65 123.5t-22 149zM248 1436l168 49q29 -57 80.5 -83t136.5 -28q84 0 136 27t81 84l168 -49q-26 -116 -124.5 -189 t-260.5 -73t-260.5 73t-124.5 189z" />
<glyph unicode="&#x16e;" horiz-adv-x="1464" d="M119 537v827h389v-827q0 -108 55 -159.5t170 -51.5q225 0 225 211v827h388v-827q0 -272 -164 -417t-449 -145q-286 0 -450 145t-164 417zM463 1581q0 94 75.5 159.5t194.5 65.5t195 -65.5t76 -159.5q0 -95 -75.5 -159t-195.5 -64t-195 64t-75 159zM635 1579q0 -40 29 -69 t69 -29t69 29t29 69t-29 69t-69 29t-69 -29t-29 -69z" />
<glyph unicode="&#x16f;" horiz-adv-x="1269" d="M104 365v743h373v-657q0 -146 141 -146q70 0 117 41.5t47 122.5v639h373v-1108h-373v100q-63 -59 -145 -92t-166 -33q-93 0 -165 31.5t-115 86t-65 123.5t-22 149zM362 1376q0 94 76 160t195 66t194.5 -66t75.5 -160q0 -95 -75 -159t-195 -64t-195.5 64t-75.5 159z M535 1374q0 -40 29 -69t69 -29t69 29t29 69t-29 69.5t-69 29.5t-69 -29.5t-29 -69.5z" />
<glyph unicode="&#x170;" horiz-adv-x="1464" d="M119 537v827h389v-827q0 -108 55 -159.5t170 -51.5q225 0 225 211v827h388v-827q0 -272 -164 -417t-449 -145q-286 0 -450 145t-164 417zM401 1479q130 194 166 290l269 -49q-37 -87 -133 -171.5t-189 -129.5zM801 1479q130 194 166 290l268 -49q-37 -87 -133 -171.5 t-189 -129.5z" />
<glyph unicode="&#x171;" horiz-adv-x="1269" d="M104 365v743h373v-657q0 -146 141 -146q70 0 117 41.5t47 122.5v639h373v-1108h-373v100q-63 -59 -145 -92t-166 -33q-93 0 -165 31.5t-115 86t-65 123.5t-22 149zM297 1221q130 194 166 290l268 -49q-37 -87 -132.5 -172t-188.5 -129zM696 1221q130 194 166 290l268 -49 q-37 -87 -132.5 -172t-188.5 -129z" />
<glyph unicode="&#x172;" horiz-adv-x="1466" d="M119 537v827h389v-827q0 -107 54.5 -159t168.5 -52q227 0 227 211v827h388v-827q0 -88 -16 -159.5t-41.5 -121.5t-68.5 -94t-86 -73t-104 -62q-33 -17 -50.5 -28.5t-33.5 -33t-16 -47.5q0 -40 30.5 -61t83.5 -21q99 0 179 76v-219q-29 -24 -85.5 -42t-127.5 -18 q-128 0 -208.5 58t-80.5 147q0 85 78 139q-11 0 -31.5 -1t-40.5 -1q-280 0 -444 145.5t-164 416.5z" />
<glyph unicode="&#x173;" horiz-adv-x="1269" d="M104 365v743h373v-657q0 -146 141 -146q70 0 117 41.5t47 122.5v639h373v-1108q-68 0 -117.5 -8.5t-75.5 -22.5t-37.5 -29.5t-11.5 -33.5q0 -33 31.5 -51.5t83.5 -18.5q37 0 73 10.5t54 24.5v-205q-53 -33 -154 -33q-135 0 -215.5 58t-80.5 151q0 54 24.5 97t52.5 61v100 q-63 -59 -145 -92t-166 -33q-93 0 -165 31.5t-115 86t-65 123.5t-22 149z" />
<glyph unicode="&#x174;" horiz-adv-x="1998" d="M27 1364h424l163 -805l215 805h338l215 -809l166 809h430l-376 -1364h-416l-191 748l-192 -748h-416zM604 1548q174 111 268 195h258q92 -82 269 -195l-80 -129q-83 13 -169 48.5t-149 78.5q-63 -44 -148.5 -79t-168.5 -48z" />
<glyph unicode="&#x175;" horiz-adv-x="1740" d="M27 1108h411l117 -631l168 631h299l166 -631l119 631h409l-311 -1108h-371l-164 631l-168 -631h-370zM473 1290q174 111 268 195h258q92 -82 269 -195l-80 -129q-83 13 -169 48.5t-149 78.5q-63 -44 -148.5 -79t-168.5 -48z" />
<glyph unicode="&#x176;" horiz-adv-x="1421" d="M-12 1364h452l271 -504l272 504h451l-531 -852v-512h-385v508zM313 1548q177 113 269 195h258q94 -84 268 -195l-80 -129q-83 13 -168.5 48t-148.5 79q-63 -43 -149 -78.5t-169 -48.5z" />
<glyph unicode="&#x177;" horiz-adv-x="1212" d="M-10 1108h426l209 -621l192 621h402l-431 -1135q-69 -183 -169 -266.5t-265 -83.5q-179 0 -325 98l137 244q65 -43 125 -43q74 0 117 78l24 45zM207 1290q174 111 268 195h258q94 -84 268 -195l-79 -129q-83 13 -169 48.5t-149 78.5q-63 -44 -148.5 -79t-168.5 -48z" />
<glyph unicode="&#x178;" horiz-adv-x="1421" d="M-12 1364h452l271 -504l272 504h451l-531 -852v-512h-385v508zM340 1454v266h262v-266h-262zM819 1454v266h262v-266h-262z" />
<glyph unicode="&#x179;" horiz-adv-x="1339" d="M72 0v291l626 729h-600v344h1147v-270l-643 -750h662v-344h-1192zM508 1479q130 194 166 290l293 -49q-37 -87 -133 -171.5t-189 -129.5z" />
<glyph unicode="&#x17a;" horiz-adv-x="1134" d="M63 0v262l447 524h-424v322h961v-246l-457 -540h473v-322h-1000zM406 1221q128 191 165 290l293 -49q-37 -87 -132.5 -172t-188.5 -129z" />
<glyph unicode="&#x17b;" horiz-adv-x="1339" d="M72 0v291l626 729h-600v344h1147v-270l-643 -750h662v-344h-1192zM522 1464v256h283v-256h-283z" />
<glyph unicode="&#x17c;" horiz-adv-x="1134" d="M63 0v262l447 524h-424v322h961v-246l-457 -540h473v-322h-1000zM418 1206v256h282v-256h-282z" />
<glyph unicode="&#x17d;" horiz-adv-x="1339" d="M72 0v291l626 729h-600v344h1147v-270l-643 -750h662v-344h-1192zM256 1636l80 129q83 -13 168.5 -48t148.5 -79q63 43 149 78.5t169 48.5l80 -129q-181 -115 -269 -194h-258q-91 81 -268 194z" />
<glyph unicode="&#x17e;" horiz-adv-x="1134" d="M63 0v262l447 524h-424v322h961v-246l-457 -540h473v-322h-1000zM162 1378l80 129q83 -13 168.5 -48t148.5 -79q63 43 149 78.5t169 48.5l79 -129q-177 -113 -268 -194h-258q-91 81 -268 194z" />
<glyph unicode="&#x192;" d="M12 -168l125 285q37 -23 63.5 -32t63.5 -9q43 0 72.5 25t36.5 69l76 426h-222l52 289h223l18 114q30 181 135.5 286.5t300.5 105.5q153 0 289 -70l-125 -287q-36 23 -62.5 32t-64.5 9q-43 0 -72 -24t-36 -68l-17 -98h250l-53 -289h-250l-78 -442q-68 -392 -436 -392 q-156 0 -289 70z" />
<glyph unicode="&#x1fa;" horiz-adv-x="1413" d="M-12 0l448 1260q-61 71 -61 153q0 114 97.5 195.5t234.5 81.5q136 0 232.5 -81.5t96.5 -195.5q0 -84 -59 -153l446 -1260h-432l-69 252h-441l-69 -252h-424zM444 1837q238 104 369 186l156 -186q-168 -84 -445 -129zM563 555h275l-138 494zM598 1413q0 -44 31.5 -75 t77.5 -31q44 0 75 31t31 75q0 46 -31 77.5t-75 31.5q-46 0 -77.5 -31.5t-31.5 -77.5z" />
<glyph unicode="&#x1fb;" horiz-adv-x="1218" d="M49 324q0 57 14 103t36 78t57 57t67.5 39.5t78.5 25.5t79.5 16t79.5 10q49 5 73.5 8t57.5 8t48 11t31 15.5t21.5 22.5t5.5 30q0 81 -147 81q-82 0 -179 -26t-173 -72l-113 281q225 118 496 118q114 0 201 -21t153.5 -66.5t101.5 -123t35 -184.5v-450q0 -26 11.5 -35.5 t33.5 -9.5q34 0 51 14l37 -227q-65 -43 -192 -43q-82 0 -147 31.5t-95 93.5q-51 -68 -142.5 -101t-193.5 -33q-174 0 -280.5 91.5t-106.5 257.5zM307 1376q0 94 76 160t195 66t194.5 -66t75.5 -160q0 -95 -75 -159t-195 -64t-195.5 64t-75.5 159zM395 1690q130 194 166 290 l293 -49q-37 -87 -133 -171.5t-189 -129.5zM418 342q0 -102 123 -102q74 0 115.5 40.5t41.5 118.5v107q-6 -7 -13.5 -12.5t-14.5 -9.5t-18 -8t-17.5 -6t-21 -4.5t-21 -3.5t-24 -3.5t-23.5 -3.5q-27 -5 -45.5 -10.5t-39 -17.5t-31.5 -33.5t-11 -51.5zM479 1374 q0 -40 29.5 -69t69.5 -29t69 29t29 69t-29 69.5t-69 29.5t-69.5 -29.5t-29.5 -69.5z" />
<glyph unicode="&#x1fc;" horiz-adv-x="2039" d="M-20 0l684 1364h1280v-344h-623v-164h532v-303h-532v-209h643v-344h-1028v252h-416l-117 -252h-423zM662 555h274v510h-53zM860 1479q130 194 166 290l293 -49q-37 -87 -133 -171.5t-189 -129.5z" />
<glyph unicode="&#x1fd;" horiz-adv-x="1902" d="M51 326q0 57 14 103t36 78t57 57t67.5 39.5t78.5 25.5t79.5 16t79.5 10q49 5 73.5 8t57.5 8t48 11t31 15.5t21.5 22.5t5.5 30q0 81 -147 81q-83 0 -179.5 -26t-172.5 -72l-113 279q222 118 473 118q238 0 361 -120q129 120 360 120q264 0 414.5 -156.5t150.5 -416.5 q0 -42 -4 -96h-766q6 -87 70 -132.5t168 -45.5q176 0 289 123l243 -213q-222 -218 -555 -218q-132 0 -241.5 38.5t-178.5 113.5q-50 -70 -155.5 -111t-241.5 -41q-199 0 -311.5 90.5t-112.5 260.5zM420 342q0 -102 123 -102q74 0 115.5 40.5t41.5 118.5v107 q-6 -7 -13.5 -12.5t-14.5 -9.5t-18 -8t-17.5 -6t-21 -4.5t-21 -3.5t-24 -3.5t-23.5 -3.5q-27 -5 -45.5 -10.5t-39 -17.5t-31.5 -33.5t-11 -51.5zM776 1221q130 194 166 290l293 -49q-37 -87 -133 -171.5t-189 -129.5zM1077 686h404q-6 86 -60 131t-141 45t-141.5 -44.5 t-61.5 -131.5z" />
<glyph unicode="&#x1fe;" horiz-adv-x="1536" d="M55 682q0 146 48.5 274.5t138 225t225 152t299.5 55.5q182 0 336 -72l61 88l150 -105l-60 -83q110 -96 169 -235.5t59 -299.5q0 -118 -31 -224.5t-92 -194.5t-146 -152.5t-199.5 -100t-246.5 -35.5q-185 0 -334 70l-59 -86l-150 104l58 80q-110 96 -168 235.5t-58 303.5z M457 682q0 -127 51 -213l381 545q-58 22 -123 22q-99 0 -171 -50.5t-105 -129t-33 -174.5zM596 1479q130 194 166 290l293 -49q-37 -87 -133 -171.5t-189 -129.5zM645 348q50 -20 121 -20q150 0 231.5 101.5t81.5 252.5q0 120 -53 209z" />
<glyph unicode="&#x1ff;" horiz-adv-x="1314" d="M51 551q0 264 164.5 421.5t441.5 157.5q151 0 275 -51l43 64l127 -88l-37 -54q199 -157 199 -450q0 -263 -165 -419.5t-442 -156.5q-147 0 -276 50l-41 -60l-127 88l35 49q-95 76 -146 191t-51 258zM444 553q0 -81 21 -139l280 401q-40 19 -88 19q-102 0 -157.5 -76 t-55.5 -205zM506 1221q130 194 166 290l293 -49q-37 -87 -133 -171.5t-189 -129.5zM567 293q43 -19 90 -19q103 0 158 75t55 204q0 77 -22 141z" />
<glyph unicode="&#x218;" horiz-adv-x="1339" d="M20 346l302 150q119 -211 380 -211q96 0 150.5 28.5t54.5 79.5q0 20 -8 36t-26.5 28t-34 20t-47 15t-47.5 10t-53.5 8.5t-47.5 7.5q-89 14 -161 33t-146 53.5t-123.5 80t-81 115t-31.5 156.5q0 200 150 316.5t403 116.5q87 0 168 -15t162 -47.5t153 -91t124 -139.5 l-293 -166q-108 153 -320 153q-75 0 -118.5 -26t-43.5 -72q0 -20 9 -36t29.5 -27.5t40 -20t55.5 -16t59 -11t67 -10.5q68 -11 123.5 -23t113 -30.5t101.5 -41t83.5 -54.5t64.5 -70.5t40 -89.5t15 -111q0 -99 -39 -184t-112.5 -148.5t-188 -100t-256.5 -36.5 q-236 0 -411.5 97t-258.5 274zM383 -350q1 1 16.5 24.5t18.5 27.5t17.5 26t18.5 29.5t17 27.5t18 30t15.5 28t16 30.5t12.5 27.5t12 29l297 -28q-34 -90 -131 -178.5t-191 -133.5z" />
<glyph unicode="&#x219;" horiz-adv-x="1198" d="M23 260l260 146q54 -86 148 -127t194 -41q70 0 114.5 20t44.5 59q0 20 -12.5 34.5t-43 24t-57 15t-78.5 14.5q-28 5 -42 7q-55 9 -95.5 17.5t-92 23.5t-87.5 32t-73.5 44t-60.5 59.5t-37.5 78t-14.5 99.5q0 91 38.5 162t106 114.5t155 65.5t190.5 22q185 0 328.5 -63 t230.5 -156l-242 -174q-52 63 -135.5 98t-177.5 35q-67 0 -106.5 -17.5t-39.5 -51.5q0 -10 3.5 -18.5t11.5 -15t17 -12t24 -10t27.5 -7.5t33.5 -7t35 -6t39 -6t41 -6q116 -19 198 -44.5t146.5 -65.5t96.5 -100.5t32 -142.5q0 -178 -143.5 -281.5t-389.5 -103.5 q-195 0 -348 70.5t-239 214.5zM311 -350q1 1 16.5 24.5t18.5 27.5t17.5 26t18.5 29.5t17 27.5t18 30t15.5 28t16 30.5t12.5 27.5t12 29l297 -28q-34 -90 -131 -178.5t-190 -133.5z" />
<glyph unicode="&#x237;" horiz-adv-x="604" d="M-186 -303l104 266q53 -31 107 -31q90 0 90 107v1069h374v-1063q0 -209 -107.5 -313.5t-301.5 -104.5q-69 0 -141 18.5t-125 51.5z" />
<glyph unicode="&#x259;" horiz-adv-x="1267" d="M41 541q0 64 12 104h764q-17 82 -73.5 125t-143.5 43q-70 0 -130.5 -31.5t-98.5 -97.5l-301 147q80 144 218 221.5t322 77.5q177 0 313.5 -69.5t213.5 -202t77 -309.5q0 -258 -159.5 -416t-436.5 -158q-182 0 -314 74t-197.5 200.5t-65.5 291.5zM393 420 q15 -83 70.5 -129.5t140.5 -46.5q89 0 144.5 45t68.5 131h-424z" />
<glyph unicode="&#x2c6;" horiz-adv-x="710" d="M-41 1290q174 111 268 195h258q92 -82 269 -195l-80 -129q-83 13 -169 48.5t-149 78.5q-63 -44 -148.5 -79t-168.5 -48z" />
<glyph unicode="&#x2c7;" horiz-adv-x="710" d="M-41 1378l80 129q83 -13 168.5 -48t148.5 -79q63 43 149 78.5t169 48.5l80 -129q-181 -115 -269 -194h-258q-91 81 -268 194z" />
<glyph unicode="&#x2d8;" horiz-adv-x="710" d="M-29 1436l168 49q29 -57 80.5 -83t136.5 -28q84 0 136 27t81 84l168 -49q-26 -116 -124.5 -189t-260.5 -73t-260.5 73t-124.5 189z" />
<glyph unicode="&#x2d9;" horiz-adv-x="663" d="M193 1206v256h282v-256h-282z" />
<glyph unicode="&#x2da;" horiz-adv-x="663" d="M68 1376q0 94 75.5 160t194.5 66t194.5 -66t75.5 -160q0 -95 -75 -159t-195 -64t-195 64t-75 159zM240 1374q0 -40 29 -69t69 -29t69 29t29 69t-29 69.5t-69 29.5t-69 -29.5t-29 -69.5z" />
<glyph unicode="&#x2db;" horiz-adv-x="663" d="M78 -168q0 72 57 138t150 100h155q-67 -31 -109 -73.5t-42 -88.5q0 -40 32 -61t89 -21q106 0 170 55v-205q-27 -22 -83 -37.5t-124 -15.5q-132 0 -213.5 60t-81.5 149z" />
<glyph unicode="&#x2dc;" horiz-adv-x="792" d="M-29 1268q40 93 115 155t170 62q51 0 102 -20.5t95 -41t79 -20.5q42 0 86 25t74 67l127 -90q-40 -93 -114.5 -155t-169.5 -62q-51 0 -102.5 20.5t-95.5 41t-79 20.5q-42 0 -86 -25t-74 -67z" />
<glyph unicode="&#x2dd;" horiz-adv-x="890" d="M117 1221q130 194 166 290l268 -49q-37 -87 -133 -171.5t-189 -129.5zM516 1221q130 194 166 290l268 -49q-37 -87 -132.5 -172t-188.5 -129z" />
<glyph unicode="&#x2206;" horiz-adv-x="1294" d="M59 0v29l576 1433h24l576 -1433v-29h-1176zM381 225h532l-266 664z" />
<glyph unicode="&#x394;" horiz-adv-x="1294" d="M59 0v29l576 1433h24l576 -1433v-29h-1176zM381 225h532l-266 664z" />
<glyph unicode="&#x2126;" horiz-adv-x="1282" d="M84 819q0 249 155 409.5t402 160.5t402 -160.5t155 -409.5q0 -52 -7.5 -102.5t-17.5 -90.5t-30 -86t-34.5 -75.5t-42.5 -73t-42.5 -64.5t-45.5 -64t-42 -58h225v-205h-440l-31 197q79 104 122 167.5t85 142.5t59 153t17 159q0 160 -91 264.5t-241 104.5t-241 -104.5 t-91 -264.5q0 -85 17 -159t59 -153t85 -142.5t122 -167.5l-31 -197h-440v205h225q-11 15 -42 58t-45.5 64t-42.5 64.5t-42.5 73t-34.5 75.5t-30 86t-17.5 90.5t-7.5 102.5z" />
<glyph unicode="&#x3a9;" horiz-adv-x="1282" d="M84 819q0 249 155 409.5t402 160.5t402 -160.5t155 -409.5q0 -52 -7.5 -102.5t-17.5 -90.5t-30 -86t-34.5 -75.5t-42.5 -73t-42.5 -64.5t-45.5 -64t-42 -58h225v-205h-440l-31 197q79 104 122 167.5t85 142.5t59 153t17 159q0 160 -91 264.5t-241 104.5t-241 -104.5 t-91 -264.5q0 -85 17 -159t59 -153t85 -142.5t122 -167.5l-31 -197h-440v205h225q-11 15 -42 58t-45.5 64t-42.5 64.5t-42.5 73t-34.5 75.5t-30 86t-17.5 90.5t-7.5 102.5z" />
<glyph unicode="&#x3c0;" horiz-adv-x="1191" d="M43 883v225h1106v-225h-143v-883h-226v883h-368v-883h-226v883h-143z" />
<glyph unicode="&#x1e80;" horiz-adv-x="1998" d="M27 1364h424l163 -805l215 805h338l215 -809l166 809h430l-376 -1364h-416l-191 748l-192 -748h-416zM678 1720l293 49q36 -96 166 -290l-138 -60q-93 44 -188.5 129t-132.5 172z" />
<glyph unicode="&#x1e81;" horiz-adv-x="1740" d="M27 1108h411l117 -631l168 631h299l166 -631l119 631h409l-311 -1108h-371l-164 631l-168 -631h-370zM553 1462l293 49q36 -96 166 -290l-138 -60q-93 44 -188.5 129t-132.5 172z" />
<glyph unicode="&#x1e82;" horiz-adv-x="1998" d="M27 1364h424l163 -805l215 805h338l215 -809l166 809h430l-376 -1364h-416l-191 748l-192 -748h-416zM858 1479q130 194 166 290l293 -49q-37 -87 -133 -171.5t-189 -129.5z" />
<glyph unicode="&#x1e83;" horiz-adv-x="1740" d="M27 1108h411l117 -631l168 631h299l166 -631l119 631h409l-311 -1108h-371l-164 631l-168 -631h-370zM733 1221q130 194 166 290l293 -49q-37 -87 -133 -171.5t-189 -129.5z" />
<glyph unicode="&#x1e84;" horiz-adv-x="1998" d="M27 1364h424l163 -805l215 805h338l215 -809l166 809h430l-376 -1364h-416l-191 748l-192 -748h-416zM631 1454v266h262v-266h-262zM1110 1454v266h262v-266h-262z" />
<glyph unicode="&#x1e85;" horiz-adv-x="1740" d="M27 1108h411l117 -631l168 631h299l166 -631l119 631h409l-311 -1108h-371l-164 631l-168 -631h-370zM500 1196v266h262v-266h-262zM979 1196v266h262v-266h-262z" />
<glyph unicode="&#x1ef2;" horiz-adv-x="1421" d="M-12 1364h452l271 -504l272 504h451l-531 -852v-512h-385v508zM416 1720l293 49q37 -99 165 -290l-137 -60q-93 44 -188.5 129t-132.5 172z" />
<glyph unicode="&#x1ef3;" horiz-adv-x="1212" d="M-10 1108h426l209 -621l192 621h402l-431 -1135q-69 -183 -169 -266.5t-265 -83.5q-179 0 -325 98l137 244q65 -43 125 -43q74 0 117 78l24 45zM297 1462l293 49q36 -96 166 -290l-138 -60q-93 44 -188.5 129t-132.5 172z" />
<glyph unicode="&#x2000;" horiz-adv-x="1022" />
<glyph unicode="&#x2001;" horiz-adv-x="2044" />
<glyph unicode="&#x2002;" horiz-adv-x="1022" />
<glyph unicode="&#x2003;" horiz-adv-x="2044" />
<glyph unicode="&#x2004;" horiz-adv-x="681" />
<glyph unicode="&#x2005;" horiz-adv-x="511" />
<glyph unicode="&#x2006;" horiz-adv-x="340" />
<glyph unicode="&#x2007;" horiz-adv-x="340" />
<glyph unicode="&#x2008;" horiz-adv-x="255" />
<glyph unicode="&#x2009;" horiz-adv-x="408" />
<glyph unicode="&#x200a;" horiz-adv-x="113" />
<glyph unicode="&#x2010;" horiz-adv-x="868" d="M98 410v331h672v-331h-672z" />
<glyph unicode="&#x2011;" horiz-adv-x="868" d="M98 410v331h672v-331h-672z" />
<glyph unicode="&#x2012;" horiz-adv-x="868" d="M98 410v331h672v-331h-672z" />
<glyph unicode="&#x2013;" d="M72 469v307h1102v-307h-1102z" />
<glyph unicode="&#x2014;" horiz-adv-x="1849" d="M98 469v307h1653v-307h-1653z" />
<glyph unicode="&#x2018;" horiz-adv-x="577" d="M92 618v267q0 158 64 274.5t215 229.5l114 -150q-77 -44 -123.5 -108.5t-46.5 -143.5v-24h170v-345h-393z" />
<glyph unicode="&#x2019;" horiz-adv-x="530" d="M80 743q77 44 123.5 108.5t46.5 143.5v25h-170v344h393v-266q0 -158 -63.5 -274.5t-214.5 -229.5z" />
<glyph unicode="&#x201a;" horiz-adv-x="604" d="M104 37v346h394v-266q0 -158 -64 -274.5t-215 -229.5l-115 149q77 44 123.5 108.5t46.5 143.5v23h-170z" />
<glyph unicode="&#x201c;" horiz-adv-x="1126" d="M92 618v267q0 158 64 274.5t215 229.5l114 -150q-77 -44 -123.5 -108.5t-46.5 -143.5v-24h170v-345h-393zM641 618v265q0 158 64 275.5t215 230.5l114 -150q-77 -44 -123.5 -108.5t-46.5 -143.5v-24h170v-345h-393z" />
<glyph unicode="&#x201d;" horiz-adv-x="1079" d="M80 743q77 44 123.5 108.5t46.5 143.5v25h-170v344h393v-266q0 -158 -63.5 -274.5t-214.5 -229.5zM629 743q77 44 123.5 108.5t46.5 143.5v25h-170v344h393v-266q0 -158 -64 -274.5t-215 -229.5z" />
<glyph unicode="&#x201e;" horiz-adv-x="1153" d="M104 37v346h394v-266q0 -158 -64 -274.5t-215 -229.5l-115 149q77 44 123.5 108.5t46.5 143.5v23h-170zM653 37v346h394v-266q0 -158 -64 -274.5t-215 -229.5l-115 149q77 44 123.5 108.5t46.5 143.5v23h-170z" />
<glyph unicode="&#x2020;" horiz-adv-x="1130" d="M72 801v307h319v256h350v-256h318v-307h-318v-801h-350v801h-319z" />
<glyph unicode="&#x2021;" horiz-adv-x="1167" d="M90 256v307h320v238h-320v307h320v256h350v-256h317v-307h-317v-238h317v-307h-317v-256h-350v256h-320z" />
<glyph unicode="&#x2022;" horiz-adv-x="901" d="M78 682q0 154 109.5 263.5t261.5 109.5q154 0 263 -109.5t109 -263.5q0 -152 -109.5 -261.5t-262.5 -109.5q-152 0 -261.5 109.5t-109.5 261.5z" />
<glyph unicode="&#x2025;" horiz-adv-x="1210" d="M109 0v383h393v-383h-393zM709 0v383h393v-383h-393z" />
<glyph unicode="&#x2026;" horiz-adv-x="1808" d="M109 0v383h393v-383h-393zM709 0v383h393v-383h-393zM1307 0v383h393v-383h-393z" />
<glyph unicode="&#x202f;" horiz-adv-x="408" />
<glyph unicode="&#x2030;" horiz-adv-x="2455" d="M68 1014q0 154 108 261t262 107q153 0 261 -107.5t108 -260.5q0 -152 -108.5 -259.5t-260.5 -107.5q-154 0 -262 107.5t-108 259.5zM307 1014q0 -54 37.5 -90.5t93.5 -36.5q54 0 91.5 36.5t37.5 90.5t-37.5 91.5t-91.5 37.5q-55 0 -93 -37.5t-38 -91.5zM336 0l737 1364 h279l-738 -1364h-278zM883 350q0 152 108 259.5t260 107.5q154 0 262.5 -107.5t108.5 -259.5q0 -153 -108.5 -260.5t-262.5 -107.5q-153 0 -260.5 107.5t-107.5 260.5zM1122 350q0 -54 37.5 -91.5t91.5 -37.5t92.5 37.5t38.5 91.5t-38.5 90.5t-92.5 36.5t-91.5 -36.5 t-37.5 -90.5zM1653 350q0 152 107.5 259.5t260.5 107.5q152 0 260.5 -107.5t108.5 -259.5q0 -153 -108 -260.5t-261 -107.5q-154 0 -261 107t-107 261zM1892 350q0 -54 37.5 -91.5t91.5 -37.5t91.5 37.5t37.5 91.5t-37.5 90.5t-91.5 36.5t-91.5 -36.5t-37.5 -90.5z" />
<glyph unicode="&#x2039;" horiz-adv-x="608" d="M29 481v140l348 428l172 -127l-219 -371l219 -371l-172 -127z" />
<glyph unicode="&#x203a;" horiz-adv-x="608" d="M59 180l220 371l-220 371l172 127l349 -428v-140l-349 -428z" />
<glyph unicode="&#x2044;" horiz-adv-x="573" d="M-295 0l891 1364h274l-890 -1364h-275z" />
<glyph unicode="&#x205f;" horiz-adv-x="511" />
<glyph unicode="&#x2070;" horiz-adv-x="864" d="M51 1114q0 457 379 457q385 0 385 -457q0 -463 -385 -463q-379 0 -379 463zM332 1114q0 -43 1.5 -73.5t7.5 -63.5t16.5 -53.5t28.5 -33.5t44 -13q32 0 53 18.5t31 54t14 73.5t4 91q0 52 -4 90t-14 73t-31 53t-53 18t-52.5 -18t-30 -53.5t-12.5 -72t-3 -90.5z" />
<glyph unicode="&#x2074;" horiz-adv-x="854" d="M29 829v191q68 125 108.5 273t40.5 261h273q0 -220 -146 -499h150v282h262v-282h108v-226h-108v-161h-268v161h-420z" />
<glyph unicode="&#x2075;" horiz-adv-x="839" d="M29 821l188 137q72 -69 182 -69q44 0 77.5 25t33.5 65t-32 65t-89 25q-84 0 -145 -70l-164 60l33 495h632v-247h-409q-6 -51 -21 -95q60 43 154 43q143 0 234.5 -74t91.5 -218q0 -56 -24 -109.5t-69.5 -99.5t-122 -74.5t-171.5 -28.5q-226 0 -379 170z" />
<glyph unicode="&#x2076;" horiz-adv-x="837" d="M45 1010q0 288 279 544h389q-130 -84 -195 -139.5t-108 -128.5q40 23 98 23q134 0 218.5 -84.5t84.5 -227.5q0 -155 -105.5 -250.5t-275.5 -95.5q-180 0 -282.5 93.5t-102.5 265.5zM330 993q0 -54 25 -85t75 -31q46 0 71 31.5t25 86.5t-24.5 86t-71.5 31q-49 0 -74.5 -33 t-25.5 -86z" />
<glyph unicode="&#x2077;" horiz-adv-x="770" d="M25 1307v247h743v-180q-153 -181 -236.5 -355t-72.5 -351h-314q0 100 25.5 196.5t71 179.5t87 141.5t95.5 121.5h-399z" />
<glyph unicode="&#x2078;" horiz-adv-x="864" d="M47 928q0 62 28 117t89 88q-90 67 -90 176q0 127 93.5 194.5t264.5 67.5q173 0 264.5 -67t91.5 -195q0 -109 -90 -176q119 -61 119 -205q0 -131 -102 -204t-283 -73t-283 73t-102 204zM324 940q0 -46 31.5 -70t76.5 -24t77 24t32 70q0 48 -31.5 72t-77.5 24 q-45 0 -76.5 -24t-31.5 -72zM350 1298q0 -41 23 -61t57 -20q36 0 60 20t24 61q0 39 -24 58.5t-58 19.5q-35 0 -58.5 -19.5t-23.5 -58.5z" />
<glyph unicode="&#x2079;" horiz-adv-x="837" d="M27 1225q0 155 105.5 250.5t275.5 95.5q180 0 282.5 -93.5t102.5 -265.5q0 -288 -279 -544h-389q130 84 195 139.5t108 128.5q-40 -23 -98 -23q-134 0 -218.5 84.5t-84.5 227.5zM311 1227q0 -55 25 -86t72 -31q49 0 74.5 33t25.5 86q0 54 -25 85.5t-75 31.5 q-46 0 -71.5 -32t-25.5 -87z" />
<glyph unicode="&#x2080;" horiz-adv-x="864" d="M51 256q0 457 379 457q385 0 385 -457q0 -463 -385 -463q-379 0 -379 463zM332 256q0 -54 3 -91t12.5 -73.5t30 -55t52.5 -18.5t53 18.5t31 54.5t14 74t4 91q0 52 -4 90t-14 72.5t-31 52.5t-53 18q-26 0 -44 -13t-28.5 -32.5t-16.5 -52t-7.5 -62.5t-1.5 -73z" />
<glyph unicode="&#x2081;" horiz-adv-x="739" d="M41 588q213 33 307 108h207v-653h164v-233h-643v233h200v367q-98 -21 -200 -33z" />
<glyph unicode="&#x2082;" horiz-adv-x="854" d="M27 475q66 109 163.5 173.5t223.5 64.5q161 0 259.5 -80.5t98.5 -220.5q0 -197 -260 -357h291v-245h-742v196q242 162 328 242.5t86 148.5q0 34 -24 55t-62 21q-40 0 -77 -28.5t-62 -84.5z" />
<glyph unicode="&#x2083;" horiz-adv-x="856" d="M25 63l229 66q44 -98 180 -98q42 0 66 15.5t24 43.5q0 25 -27 39t-67 14h-117v224h113q30 0 55 14.5t25 38.5q0 27 -24.5 41t-57.5 14q-120 0 -170 -94l-215 88q68 126 165.5 185t231.5 59q145 0 245.5 -69t100.5 -200q0 -112 -88 -172q57 -27 87 -78.5t30 -111.5 q0 -123 -102.5 -206t-278.5 -83q-303 0 -405 270z" />
<glyph unicode="&#x2084;" horiz-adv-x="854" d="M29 -29v191q68 125 108.5 273t40.5 261h273q0 -220 -146 -499h150v282h262v-282h108v-226h-108v-161h-268v161h-420z" />
<glyph unicode="&#x2085;" horiz-adv-x="837" d="M27 -37l188 137q72 -69 182 -69q44 0 77.5 25t33.5 65t-32 65t-89 25q-84 0 -145 -70l-164 60l33 495h632v-247h-409q-6 -51 -21 -95q60 43 154 43q143 0 234.5 -74.5t91.5 -218.5q0 -56 -24 -109.5t-69.5 -99.5t-122 -74t-171.5 -28q-226 0 -379 170z" />
<glyph unicode="&#x2086;" horiz-adv-x="839" d="M45 152q0 288 279 544h389q-130 -84 -195 -139.5t-108 -128.5q40 23 98 23q134 0 218.5 -84.5t84.5 -227.5q0 -155 -105.5 -250.5t-275.5 -95.5q-180 0 -282.5 93.5t-102.5 265.5zM330 135q0 -54 25 -85.5t75 -31.5q46 0 71 32t25 87t-24.5 86t-71.5 31q-49 0 -74.5 -33 t-25.5 -86z" />
<glyph unicode="&#x2087;" horiz-adv-x="774" d="M27 449v247h743v-180q-153 -181 -236.5 -355t-72.5 -351h-314q0 100 25.5 196.5t71 179.5t87 141.5t95.5 121.5h-399z" />
<glyph unicode="&#x2088;" horiz-adv-x="864" d="M47 70q0 62 28 116.5t89 87.5q-90 67 -90 177q0 127 93.5 194.5t264.5 67.5q173 0 264.5 -67t91.5 -195q0 -110 -90 -177q119 -61 119 -204q0 -131 -102 -204t-283 -73t-283 73t-102 204zM324 82q0 -46 31.5 -70t76.5 -24t77 24t32 70q0 48 -31.5 72t-77.5 24 q-45 0 -76.5 -24t-31.5 -72zM350 440q0 -41 23 -61.5t57 -20.5q36 0 60 20.5t24 61.5q0 39 -24 58.5t-58 19.5q-35 0 -58.5 -19.5t-23.5 -58.5z" />
<glyph unicode="&#x2089;" horiz-adv-x="837" d="M27 367q0 155 105.5 250.5t275.5 95.5q180 0 282.5 -93.5t102.5 -265.5q0 -288 -279 -544h-389q130 84 195 139.5t108 128.5q-40 -23 -98 -23q-134 0 -218.5 84.5t-84.5 227.5zM311 369q0 -55 25 -86t72 -31q49 0 74.5 33t25.5 86q0 54 -25 85t-75 31q-47 0 -72 -31.5 t-25 -86.5z" />
<glyph unicode="&#x20ac;" horiz-adv-x="1579" d="M78 479v150h125q-2 18 -2 57v43h-123v148h143q54 238 231.5 375t430.5 137q124 0 232.5 -35t210 -119.5t173.5 -214.5l-317 -164q-101 203 -289 203q-92 0 -160 -48.5t-106 -133.5h334v-148h-369q-2 -14 -2 -43q0 -39 2 -57h369v-150h-330q31 -79 101.5 -125.5 t160.5 -46.5q98 0 165.5 49.5t115.5 151.5l333 -129q-200 -404 -624 -404q-249 0 -426 135t-234 369h-145z" />
<glyph unicode="&#x2113;" horiz-adv-x="1212" d="M66 549q132 43 237 86v319q0 129 39.5 224.5t127.5 153t218 57.5q177 0 275 -99t98 -262q0 -70 -21 -134t-69.5 -132t-139.5 -136t-221 -132v-121q0 -113 117 -113t215 125l197 -197q-170 -213 -447 -213q-190 0 -289.5 96.5t-99.5 284.5v6q-16 -5 -47 -15.5t-58 -19.5 t-51 -16zM610 801q158 105 158 235q0 48 -20.5 73.5t-55.5 25.5q-82 0 -82 -127v-207z" />
<glyph unicode="&#x2116;" horiz-adv-x="2590" d="M49 70l137 172q29 -29 70 -29q22 0 39.5 7t30 24t21.5 34.5t14.5 49.5t8.5 57.5t4.5 70t2 75t0.5 83.5v750h293l420 -821q-21 250 -21 366q0 228 76 336q103 144 287 144q149 0 237 -95l-137 -172q-29 29 -70 29q-22 0 -39.5 -7t-30 -24t-21.5 -34.5t-14.5 -49.5 t-8.5 -57.5t-4.5 -70t-2 -75t-0.5 -83.5v-750h-292l-420 821q20 -238 20 -366q0 -228 -76 -336q-103 -144 -286 -144q-150 0 -238 95zM1548 686q0 134 62.5 240.5t168.5 164.5t234 58q197 0 332 -130.5t135 -332.5t-135 -331.5t-332 -129.5t-331 129.5t-134 331.5zM1573 0 v154h883v-154h-883zM1821 686q0 -100 52 -163.5t140 -63.5t139.5 63.5t51.5 163.5t-51.5 163.5t-139.5 63.5t-140 -63.5t-52 -163.5z" />
<glyph unicode="&#x2117;" horiz-adv-x="1585" d="M74 682q0 117 36.5 227t103 198t155 154.5t198 103t226.5 36.5q146 0 278.5 -57t229 -153t153.5 -229.5t57 -279.5q0 -145 -57 -278.5t-153.5 -230t-229.5 -153.5t-278 -57q-116 0 -226 36.5t-198.5 103t-155 155t-103 198.5t-36.5 226zM238 682q0 -112 44 -215 t118.5 -177.5t177.5 -118.5t215 -44t215 44t177.5 118.5t118.5 177.5t44 215q0 113 -44 216t-118.5 177t-177.5 118t-215 44t-215 -44t-177.5 -118t-118.5 -177t-44 -216zM479 283v804h393q86 0 151.5 -23.5t103.5 -65t56.5 -93t18.5 -112.5q0 -127 -83.5 -208t-254.5 -81 h-102v-221h-283zM762 700h72q86 0 86 91q0 41 -21.5 67.5t-64.5 26.5h-72v-185z" />
<glyph unicode="&#x2122;" horiz-adv-x="1583" d="M88 1186v178h574v-178h-197v-457h-184v457h-193zM741 729v635h242l123 -403l123 403h241v-635h-176v412l-131 -412h-114l-131 412v-412h-177z" />
<glyph unicode="&#x212e;" horiz-adv-x="1247" d="M84 559q0 122 39 229.5t108.5 186t172.5 123.5t225 45q243 0 394 -163t153 -421h-854v-383q128 -125 307 -125q133 0 231.5 60.5t175.5 193.5l74 -45q-98 -153 -207.5 -219t-273.5 -66q-162 0 -287.5 78t-191.5 210.5t-66 295.5zM322 635h616v307q-136 127 -311 127 t-305 -127v-307z" />
<glyph unicode="&#x2139;" horiz-adv-x="1880" d="M82 682q0 174 68 333t183 274t274 183t333 68t333 -68t274 -183t183 -274t68 -333t-68 -333t-183 -274t-274 -183t-333 -68t-333 68t-274 183t-183 274t-68 333zM678 303q0 -111 72.5 -172t197.5 -61q151 0 289 77l-39 84q-69 -38 -139 -38q-66 0 -106 34.5t-40 104.5 q0 59 33 172l107 356h-250l-70 -270q-55 -211 -55 -287zM836 985h194q69 0 117.5 49t48.5 121q0 71 -47 117.5t-123 46.5q-145 0 -168 -184q-13 -106 -22 -150z" />
<glyph unicode="&#x2153;" horiz-adv-x="2187" d="M86 1255q212 32 307 109h207v-653h164v-234h-643v234h201v366q-97 -21 -201 -33zM508 0l891 1364h274l-891 -1364h-274zM1323 254l229 65q44 -98 181 -98q41 0 65.5 16t24.5 44q0 25 -27 39t-67 14h-117v223h112q30 0 55 14.5t25 38.5q0 27 -24.5 41.5t-57.5 14.5 q-120 0 -170 -95l-215 88q68 126 166 185t232 59q145 0 245.5 -68.5t100.5 -199.5q0 -112 -88 -172q57 -26 86.5 -78t29.5 -113q0 -123 -102 -205.5t-278 -82.5q-304 0 -406 270z" />
<glyph unicode="&#x2154;" horiz-adv-x="2187" d="M55 1143q65 109 163 173t224 64q161 0 260 -80.5t99 -220.5q0 -196 -260 -356h290v-246h-741v197q242 162 328 242.5t86 148.5q0 34 -24 55t-62 21q-40 0 -77 -28.5t-62 -84.5zM535 0l890 1364h275l-891 -1364h-274zM1350 254l229 65q44 -98 180 -98q41 0 65.5 16 t24.5 44q0 25 -27 39t-67 14h-117v223h113q30 0 55 14.5t25 38.5q0 27 -24.5 41.5t-57.5 14.5q-120 0 -170 -95l-215 88q68 126 165.5 185t231.5 59q145 0 245.5 -68.5t100.5 -199.5q0 -112 -88 -172q57 -27 87 -79t30 -112q0 -123 -102.5 -205.5t-278.5 -82.5 q-303 0 -405 270z" />
<glyph unicode="&#x2155;" horiz-adv-x="2187" d="M82 1255q212 32 307 109h207v-653h164v-234h-643v234h200v366q-98 -21 -200 -33zM504 0l891 1364h274l-891 -1364h-274zM1341 154l189 137q73 -70 182 -70q44 0 77.5 25t33.5 65t-32 65t-89 25q-86 0 -146 -69l-163 59l32 496h633v-248h-409q-5 -49 -21 -94q60 43 154 43 q143 0 234 -74.5t91 -218.5q0 -56 -24 -109.5t-69.5 -99.5t-122 -74t-171.5 -28q-226 0 -379 170z" />
<glyph unicode="&#x2156;" horiz-adv-x="2187" d="M51 1143q65 109 163 173t224 64q161 0 260 -80.5t99 -220.5q0 -196 -260 -356h290v-246h-741v197q242 162 328 242.5t86 148.5q0 34 -24 55t-62 21q-40 0 -77.5 -28.5t-62.5 -84.5zM530 0l891 1364h275l-891 -1364h-275zM1368 154l188 137q73 -70 183 -70q43 0 76.5 25 t33.5 65t-31.5 65t-88.5 25q-86 0 -146 -69l-164 59l33 496h633v-248h-410q-6 -54 -20 -94q60 43 153 43q143 0 234.5 -74.5t91.5 -218.5q0 -56 -24 -109.5t-69.5 -99.5t-122 -74t-171.5 -28q-226 0 -379 170z" />
<glyph unicode="&#x2157;" horiz-adv-x="2187" d="M51 731l230 66q45 -99 180 -99q41 0 65.5 16t24.5 44q0 25 -27 39t-67 14h-117v223h113q29 0 54 14.5t25 38.5q0 27 -24 41.5t-57 14.5q-120 0 -170 -94l-215 88q68 126 165.5 184.5t231.5 58.5q145 0 245.5 -68.5t100.5 -199.5q0 -112 -88 -172q57 -27 87 -78.5 t30 -111.5q0 -123 -102.5 -206t-278.5 -83q-304 0 -406 270zM526 0l891 1364h275l-891 -1364h-275zM1364 154l188 137q73 -70 183 -70q43 0 76.5 25t33.5 65t-32 65t-89 25q-85 0 -145 -69l-164 59l33 496h633v-248h-410q-6 -54 -20 -94q60 43 153 43q143 0 234.5 -74.5 t91.5 -218.5q0 -56 -24 -109.5t-69.5 -99.5t-122 -74t-171.5 -28q-226 0 -379 170z" />
<glyph unicode="&#x2158;" horiz-adv-x="2187" d="M47 639v190q68 125 109 274t41 261h272q0 -223 -145 -500h149v283h262v-283h109v-225h-109v-162h-268v162h-420zM528 0l891 1364h275l-891 -1364h-275zM1366 154l188 137q73 -70 183 -70q43 0 76.5 25t33.5 65t-32 65t-89 25q-85 0 -145 -69l-164 59l33 496h633v-248 h-410q-6 -54 -20 -94q60 43 153 43q143 0 234.5 -74.5t91.5 -218.5q0 -56 -24 -109.5t-69.5 -99.5t-122 -74t-171.5 -28q-226 0 -379 170z" />
<glyph unicode="&#x2159;" horiz-adv-x="2187" d="M100 1255q213 33 308 109h206v-653h164v-234h-643v234h201v366q-97 -21 -201 -33zM522 0l891 1364h275l-891 -1364h-275zM1329 342q0 289 279 545h389q-129 -83 -194.5 -139.5t-108.5 -129.5q40 23 98 23q134 0 218.5 -84t84.5 -227q0 -155 -105.5 -250.5t-275.5 -95.5 q-180 0 -282.5 93t-102.5 265zM1614 326q0 -54 25 -85.5t75 -31.5q46 0 71 32t25 87t-24.5 85.5t-71.5 30.5q-49 0 -74.5 -32.5t-25.5 -85.5z" />
<glyph unicode="&#x215a;" horiz-adv-x="2187" d="M68 631l188 137q73 -70 182 -70q44 0 77.5 25t33.5 65t-32 65.5t-89 25.5q-84 0 -145 -70l-164 59l33 496h632v-248h-409q-5 -49 -21 -94q60 43 154 43q143 0 234.5 -74.5t91.5 -218.5q0 -56 -24 -109.5t-69.5 -99.5t-122.5 -74t-172 -28q-225 0 -378 170zM543 0 l891 1364h274l-891 -1364h-274zM1350 342q0 290 278 545h389q-129 -83 -194.5 -139.5t-108.5 -129.5q40 23 98 23q134 0 219 -84.5t85 -226.5q0 -155 -105.5 -250.5t-275.5 -95.5q-180 0 -282.5 93t-102.5 265zM1634 326q0 -54 25.5 -85.5t75.5 -31.5q46 0 71 32t25 87 t-24.5 85.5t-71.5 30.5q-49 0 -75 -32.5t-26 -85.5z" />
<glyph unicode="&#x215b;" horiz-adv-x="2187" d="M88 1255q212 32 307 109h207v-653h164v-234h-643v234h201v366q-97 -21 -201 -33zM510 0l891 1364h274l-891 -1364h-274zM1333 260q0 62 28 117t89 88q-90 67 -90 176q0 127 93.5 194.5t264.5 67.5q173 0 265 -67.5t92 -194.5q0 -109 -90 -176q118 -60 118 -205 q0 -130 -101.5 -203t-283.5 -73t-283.5 73t-101.5 203zM1610 272q0 -46 31.5 -70t76.5 -24t77 24t32 70q0 48 -32 72.5t-77 24.5t-76.5 -24.5t-31.5 -72.5zM1636 631q0 -41 23 -61.5t57 -20.5q36 0 60 20.5t24 61.5q0 39 -24 58.5t-58 19.5q-35 0 -58.5 -19.5t-23.5 -58.5z " />
<glyph unicode="&#x215c;" horiz-adv-x="2187" d="M57 731l230 66q45 -99 180 -99q41 0 65.5 16t24.5 44q0 25 -27 39t-67 14h-117v223h113q30 0 55 14.5t25 38.5q0 27 -24.5 41.5t-57.5 14.5q-120 0 -170 -94l-215 88q68 126 165.5 184.5t231.5 58.5q145 0 245.5 -68.5t100.5 -199.5q0 -112 -88 -172q57 -27 87 -78.5 t30 -111.5q0 -123 -102.5 -206t-278.5 -83q-304 0 -406 270zM532 0l891 1364h275l-891 -1364h-275zM1356 260q0 62 28 117t89 88q-91 68 -91 176q0 127 94 194.5t265 67.5q173 0 264.5 -67t91.5 -195q0 -109 -90 -176q119 -61 119 -205q0 -130 -101.5 -203t-283.5 -73 t-283.5 73t-101.5 203zM1632 272q0 -46 32 -70t77 -24t76.5 24t31.5 70q0 48 -31.5 72.5t-76.5 24.5t-77 -24.5t-32 -72.5zM1659 631q0 -41 23 -61.5t57 -20.5q36 0 60 20.5t24 61.5q0 39 -24 58.5t-58 19.5q-35 0 -58.5 -19.5t-23.5 -58.5z" />
<glyph unicode="&#x215d;" horiz-adv-x="2187" d="M61 631l189 137q73 -70 182 -70q44 0 77.5 25t33.5 65t-32 65.5t-89 25.5q-85 0 -146 -70l-163 59l32 496h633v-248h-409q-5 -49 -21 -94q60 43 154 43q143 0 234 -74.5t91 -218.5q0 -56 -24 -109.5t-69.5 -99.5t-122 -74t-171.5 -28q-226 0 -379 170zM522 0l891 1364 h275l-891 -1364h-275zM1346 260q0 143 116 205q-90 67 -90 176q0 127 94 194.5t265 67.5q173 0 264.5 -67t91.5 -195q0 -109 -90 -176q119 -61 119 -205q0 -130 -101.5 -203t-283.5 -73t-283.5 73t-101.5 203zM1622 272q0 -46 32 -70t77 -24t76.5 24t31.5 70 q0 48 -31.5 72.5t-76.5 24.5t-77 -24.5t-32 -72.5zM1649 631q0 -41 23 -61.5t57 -20.5q36 0 59.5 20.5t23.5 61.5q0 39 -23.5 58.5t-57.5 19.5q-35 0 -58.5 -19.5t-23.5 -58.5z" />
<glyph unicode="&#x215e;" horiz-adv-x="2187" d="M98 1116v248h744v-180q-154 -182 -237.5 -356t-72.5 -351h-313q0 100 25.5 196.5t71 179.5t87 141.5t95.5 121.5h-400zM489 0l891 1364h275l-891 -1364h-275zM1313 260q0 62 28 117t89 88q-91 68 -91 176q0 127 94 194.5t265 67.5q173 0 264.5 -67t91.5 -195 q0 -109 -90 -176q119 -61 119 -205q0 -130 -101.5 -203t-283.5 -73t-283.5 73t-101.5 203zM1589 272q0 -46 32 -70t77 -24t76.5 24t31.5 70q0 48 -31.5 72.5t-76.5 24.5t-77 -24.5t-32 -72.5zM1616 631q0 -41 23 -61.5t57 -20.5q36 0 60 20.5t24 61.5q0 39 -24 58.5 t-58 19.5q-35 0 -58.5 -19.5t-23.5 -58.5z" />
<glyph unicode="&#x2190;" horiz-adv-x="1880" d="M180 682l711 715l207 -205l-359 -358h934v-304h-934l359 -358l-207 -205z" />
<glyph unicode="&#x2191;" horiz-adv-x="1880" d="M225 782l715 711l715 -711l-205 -207l-358 357v-932h-304v932l-358 -357z" />
<glyph unicode="&#x2192;" horiz-adv-x="1880" d="M207 530v304h932l-357 358l207 205l711 -715l-711 -715l-207 205l357 358h-932z" />
<glyph unicode="&#x2193;" horiz-adv-x="1880" d="M225 680l205 207l358 -359v934h304v-934l358 359l205 -207l-715 -711z" />
<glyph unicode="&#x2196;" horiz-adv-x="1880" d="M387 225v1010h1010v-289h-506l659 -659l-215 -215l-659 659v-506h-289z" />
<glyph unicode="&#x2197;" horiz-adv-x="1880" d="M330 287l659 659h-506v289h1010v-1010h-289v506l-659 -659z" />
<glyph unicode="&#x2198;" horiz-adv-x="1880" d="M330 1077l215 215l659 -659v506h289v-1010h-1010v289h506z" />
<glyph unicode="&#x2199;" horiz-adv-x="1880" d="M387 129v1010h289v-506l659 659l215 -215l-659 -659h506v-289h-1010z" />
<glyph unicode="&#x2202;" horiz-adv-x="1349" d="M70 516q0 139 59.5 256t175.5 189.5t266 72.5q124 0 226 -57q-39 61 -92.5 114t-119 95t-118 70t-123.5 61l326 170q275 -128 433.5 -360.5t158.5 -512.5q0 -191 -65.5 -333t-203 -224t-334.5 -82q-171 0 -302.5 61.5t-209 185t-77.5 294.5zM465 504q0 -102 54 -163.5 t153 -61.5q101 0 158 62.5t57 162.5q0 99 -58 164t-157 65q-98 0 -152.5 -63.5t-54.5 -165.5z" />
<glyph unicode="&#x220f;" horiz-adv-x="1257" d="M76 1139v225h1106v-225h-144v-1139h-225v1139h-369v-1139h-225v1139h-143z" />
<glyph unicode="&#x2211;" horiz-adv-x="1216" d="M68 0v49l553 633l-553 633v49h1050v-225h-598l400 -457l-400 -457h598v-225h-1050z" />
<glyph unicode="&#x2212;" d="M72 469v307h1102v-307h-1102z" />
<glyph unicode="&#x2217;" horiz-adv-x="1171" d="M63 449q0 60 56 92q22 13 53 22t77.5 19t74.5 18q91 25 202 82q-106 56 -202 82q-28 8 -74 18t-77.5 19t-53.5 22q-56 30 -56 92q0 29 17 60q36 55 94 55q30 0 55 -14q20 -11 41 -30.5t56 -57.5t57 -60q74 -74 172 -135q-3 109 -29 217q-7 26 -21 71.5t-22 77t-8 56.5 q0 50 31.5 80.5t79.5 30.5t79 -30.5t31 -80.5q0 -25 -8 -56.5t-22 -77t-21 -71.5q-25 -99 -31 -217q98 59 174 135q18 18 53 56t57.5 59t43.5 33q25 14 55 14q59 0 95 -55q16 -29 16 -60q0 -62 -55 -92q-22 -13 -54 -22.5t-80 -20t-71 -16.5q-94 -25 -205 -82 q119 -61 205 -82q34 -9 83 -20t75.5 -19t46.5 -20q55 -31 55 -92q0 -31 -16 -60q-36 -55 -95 -55q-30 0 -55 14q-20 11 -41 30.5t-56 57.5t-57 60q-68 68 -174 135q6 -112 31 -217q8 -30 23 -77.5t21.5 -74.5t6.5 -51q0 -52 -31 -82.5t-79 -30.5t-79.5 31t-31.5 82 q0 24 6.5 51t21.5 74.5t23 77.5q26 103 29 217q-109 -72 -172 -135q-18 -18 -53 -56t-58 -59.5t-43 -32.5q-25 -14 -55 -14q-58 0 -94 55q-17 31 -17 60z" />
<glyph unicode="&#x221a;" horiz-adv-x="1155" d="M2 635l201 104l196 -379l580 1156l201 -101l-766 -1526h-25z" />
<glyph unicode="&#x221e;" horiz-adv-x="1654" d="M92 563q0 155 108.5 263t262.5 108q78 0 139.5 -24t118.5 -81l106 -106l107 106q105 105 258 105q154 0 262.5 -108t108.5 -263t-108.5 -262.5t-262.5 -107.5t-258 104l-107 106l-106 -106q-57 -57 -118.5 -80.5t-139.5 -23.5q-154 0 -262.5 107.5t-108.5 262.5zM322 563 q0 -59 41 -100t100 -41q61 0 104 43v2q24 23 50 49.5t49 48.5l-99 97q-43 43 -104 43q-58 0 -99.5 -41.5t-41.5 -100.5zM991 563l96 -96q45 -45 105 -45q58 0 99.5 41t41.5 100t-41.5 100.5t-99.5 41.5q-62 0 -105 -43v-3q-23 -22 -47.5 -47.5t-48.5 -48.5z" />
<glyph unicode="&#x222b;" horiz-adv-x="690" d="M25 -176l102 141q31 -28 70 -28q82 0 82 90q0 66 -56 583q-51 475 -51 625q0 119 69.5 184.5t192.5 65.5q139 0 234 -80l-103 -141q-31 28 -69 28q-82 0 -82 -90q0 -76 55 -584q51 -475 51 -624q0 -119 -69.5 -184.5t-192.5 -65.5q-138 0 -233 80z" />
<glyph unicode="&#x2248;" d="M72 403q155 207 323 207q40 0 82.5 -10t68 -20t95.5 -39q148 -64 209 -64q114 0 231 90l93 -121q-156 -208 -324 -208q-40 0 -81.5 10t-70 21t-94.5 40q-143 62 -209 62q-113 0 -231 -90zM72 805q155 207 323 207q12 0 25 -1t22.5 -2t23.5 -4.5t21.5 -4.5t23.5 -7 t22 -7.5t25.5 -9.5t24.5 -10t28.5 -12t29.5 -12q145 -63 209 -63q114 0 231 90l93 -121q-157 -209 -324 -209q-40 0 -82.5 10.5t-68 21t-95.5 40.5q-141 61 -209 61q-113 0 -231 -90z" />
<glyph unicode="&#x2260;" d="M78 248v246h407l47 143h-454v248h538l91 270h225l-90 -270h323v-248h-405l-49 -143h454v-246h-536l-88 -268h-228l90 268h-325z" />
<glyph unicode="&#x2264;" d="M70 0v279h1101v-279h-1101zM76 872l938 539l133 -276l-526 -263l526 -262l-133 -276z" />
<glyph unicode="&#x2265;" d="M74 0v279h1102v-279h-1102zM98 610l527 262l-527 263l133 276l938 -539l-938 -538z" />
<glyph unicode="&#x229b;" horiz-adv-x="1880" d="M82 682q0 174 68 333t183 274t274 183t333 68t333 -68t274 -183t183 -274t68 -333t-68 -333t-183 -274t-274 -183t-333 -68t-333 68t-274 183t-183 274t-68 333zM184 682q0 -153 60 -293t161.5 -241.5t241.5 -161.5t293 -60t293 60t241.5 161.5t161.5 241.5t60 293 t-60 293t-161.5 241.5t-241.5 161.5t-293 60t-293 -60t-241.5 -161.5t-161.5 -241.5t-60 -293zM418 449q0 61 55 92q22 13 53 22t77.5 19t74.5 18q93 25 203 82q-105 55 -203 82q-28 8 -74 18t-77.5 19t-53.5 22q-55 30 -55 92q0 31 16 60q36 55 94 55q31 0 56 -14 q20 -11 41 -31t55.5 -57.5t56.5 -59.5q74 -74 172 -135q-3 114 -28 217q-7 27 -21.5 72t-22.5 77t-8 56q0 50 31.5 80.5t79.5 30.5t79.5 -30.5t31.5 -80.5q0 -24 -8 -56t-22.5 -77t-21.5 -72q-24 -94 -30 -217q98 59 174 135q19 19 53 56t56.5 58.5t43.5 33.5q25 14 56 14 q58 0 94 -55q16 -29 16 -60q0 -62 -55 -92q-22 -13 -54 -22.5t-80 -20t-71 -16.5q-94 -25 -205 -82q119 -61 205 -82q34 -9 83 -20t75.5 -19t46.5 -20q55 -31 55 -92q0 -31 -16 -60q-36 -55 -94 -55q-31 0 -56 14q-20 11 -41 31t-55.5 57.5t-56.5 59.5q-68 68 -174 135 q6 -117 30 -217q8 -31 23 -77.5t22 -74t7 -51.5q0 -51 -31.5 -82t-79.5 -31t-79.5 31t-31.5 82q0 24 7 51.5t22 74t23 77.5q25 99 28 217q-109 -72 -172 -135q-18 -18 -52.5 -55.5t-57.5 -59.5t-43 -33q-25 -14 -56 -14q-58 0 -94 55q-16 29 -16 60z" />
<glyph unicode="&#x25a0;" horiz-adv-x="1568" d="M102 0v1364h1364v-1364h-1364z" />
<glyph unicode="&#x25a1;" horiz-adv-x="1568" d="M102 0v1364h1364v-1364h-1364zM205 102h1159v1160h-1159v-1160z" />
<glyph unicode="&#x25b2;" horiz-adv-x="1089" d="M66 0l479 1475l479 -1475h-958z" />
<glyph unicode="&#x25b6;" horiz-adv-x="960" d="M143 -41v1446l723 -723z" />
<glyph unicode="&#x25b7;" horiz-adv-x="960" d="M143 -41v1446l723 -723zM233 176l506 506l-506 506v-1012z" />
<glyph unicode="&#x25ba;" horiz-adv-x="1699" d="M143 203v958l1475 -479z" />
<glyph unicode="&#x25bb;" horiz-adv-x="1699" d="M143 203v958l1475 -479zM225 315l1131 367l-1131 367v-734z" />
<glyph unicode="&#x25bc;" horiz-adv-x="1089" d="M66 1364h958l-479 -1475z" />
<glyph unicode="&#x25c0;" horiz-adv-x="960" d="M94 682l723 723v-1446z" />
<glyph unicode="&#x25c1;" horiz-adv-x="960" d="M94 682l723 723v-1446zM221 682l506 -506v1012z" />
<glyph unicode="&#x25c4;" horiz-adv-x="1699" d="M82 682l1474 479v-958z" />
<glyph unicode="&#x25c5;" horiz-adv-x="1699" d="M82 682l1474 479v-958zM344 682l1131 -367v734z" />
<glyph unicode="&#x25ca;" horiz-adv-x="1228" d="M47 682l555 780h25l555 -780l-555 -780h-25zM324 682l290 -408l291 408l-291 408z" />
<glyph unicode="&#x25cb;" horiz-adv-x="1568" d="M61 682q0 196 97 362.5t263.5 263.5t362.5 97t362.5 -97t263.5 -263.5t97 -362.5t-97 -362.5t-263.5 -263.5t-362.5 -97t-362.5 97t-263.5 263.5t-97 362.5zM164 682q0 -168 83 -311t226 -226.5t311 -83.5t311 83.5t226.5 226.5t83.5 311t-83.5 311t-226.5 226.5 t-311 83.5t-311 -83.5t-226 -226.5t-83 -311z" />
<glyph unicode="&#x25cf;" horiz-adv-x="1568" d="M61 682q0 196 97 362.5t263.5 263.5t362.5 97t362.5 -97t263.5 -263.5t97 -362.5t-97 -362.5t-263.5 -263.5t-362.5 -97t-362.5 97t-263.5 263.5t-97 362.5z" />
<glyph unicode="&#x25fc;" horiz-adv-x="1105" d="M0 0v1106h1106v-1106h-1106z" />
<glyph unicode="&#x2605;" horiz-adv-x="1732" d="M66 889h610l190 581l191 -581h610l-493 -359l188 -583l-496 358l-495 -358l188 583z" />
<glyph unicode="&#x2606;" horiz-adv-x="1732" d="M66 889h610l190 581l191 -581h610l-493 -359l188 -583l-496 358l-495 -358l188 583zM866 346l434 -315l-165 512l432 313h-533l-168 514v-1024z" />
<glyph unicode="&#x271a;" horiz-adv-x="1568" d="M102 455v454h455v455h455v-455h454v-454h-454v-455h-455v455h-455z" />
<glyph unicode="&#x2765;" horiz-adv-x="1130" d="M0 672v20q116 0 276 316q6 13 23 45.5t22.5 44t19.5 37.5t20.5 37t18.5 30.5t21 31t20 25t23 25.5q105 105 250 105q146 0 250.5 -104.5t104.5 -250.5t-104 -248t-251 -102v-4q147 0 251 -102t104 -248t-104.5 -250.5t-250.5 -104.5q-145 0 -250 105q-12 12 -23 25.5 t-20 25t-21 31t-18.5 30.5t-20.5 37t-19.5 37.5t-22.5 44t-23 45.5q-160 316 -276 316z" />
<glyph unicode="&#x3008;" horiz-adv-x="694" d="M0 674v16l389 776l275 -137l-326 -647l326 -647l-275 -137z" />
<glyph unicode="&#x3009;" horiz-adv-x="694" d="M31 35l325 647l-325 647l274 137l389 -776v-16l-389 -776z" />
<glyph unicode="&#x300a;" horiz-adv-x="1210" d="M0 674v16l389 776l275 -137l-326 -647l326 -647l-275 -137zM516 674v16l389 776l275 -137l-326 -647l326 -647l-275 -137z" />
<glyph unicode="&#x300b;" horiz-adv-x="1210" d="M31 35l325 647l-325 647l274 137l389 -776v-16l-389 -776zM547 35l325 647l-325 647l274 137l389 -776v-16l-389 -776z" />
<glyph unicode="&#xf6c3;" horiz-adv-x="552" d="M2 -350q1 1 16.5 24.5t18.5 27.5t17.5 26t18.5 29.5t17 27.5t18 30t15.5 28t16 30.5t12.5 27.5t12 29l297 -28q-34 -90 -131 -178.5t-191 -133.5z" />
<glyph unicode="&#xfb06;" horiz-adv-x="2119" d="M23 260l260 146q54 -86 148 -127t194 -41q70 0 114.5 20t44.5 59q0 20 -12.5 34.5t-43 24t-57 15t-78.5 14.5q-28 5 -42 7q-55 9 -95.5 17.5t-92 23.5t-87.5 32t-73.5 44t-60.5 59.5t-37.5 78t-14.5 99.5q0 91 38.5 162t106 114.5t155 65.5t190.5 22q120 0 229 -32 q22 185 160 286t366 101q94 0 166 -13.5t130.5 -44t89 -85t30.5 -132.5v-102h297v-279h-297v-448q0 -82 90 -82q72 0 133 51l135 -266q-142 -109 -335 -109q-227 0 -328 140q-70 99 -70 268v446h-168v279h168v49q0 103 -119 103q-100 0 -154 -67t-54 -159q0 -110 55 -209 l-275 -61q-32 49 -99.5 77.5t-145.5 28.5q-67 0 -106.5 -17.5t-39.5 -51.5q0 -10 3.5 -18.5t11.5 -15t17 -12t24 -10t27.5 -7.5t33.5 -7t35 -6t39 -6t41 -6q116 -19 198 -44.5t146.5 -65.5t96.5 -100.5t32 -142.5q0 -178 -143.5 -281.5t-389.5 -103.5q-195 0 -348 70.5 t-239 214.5z" />
<glyph unicode="&#x1f4d5;" horiz-adv-x="1794" d="M123 1108q0 158 78.5 292.5t213 213t292.5 78.5v-82q-136 0 -251.5 -67.5t-183 -183t-67.5 -251.5h-82zM287 1108q0 173 123.5 296.5t296.5 123.5v-82q-139 0 -238.5 -99t-99.5 -239h-82zM451 74v1034q0 106 75 181t181 75h927v-1462h-1011q-71 0 -121.5 51t-50.5 121z M532 74q0 -37 27 -63.5t64 -26.5h938q-25 42 -25 90t25 90h-938q-37 0 -64 -26.5t-27 -63.5zM686 762q0 -159 97.5 -259t271.5 -100q189 0 331 129l-129 117q-86 -80 -188 -80q-74 0 -121 39.5t-51 108.5h498q2 14 2 49q0 164 -92.5 260t-260.5 96q-163 0 -260.5 -101 t-97.5 -259zM899 840q4 64 45.5 99.5t106.5 35.5t105 -34.5t46 -100.5h-303z" />
<glyph unicode="&#x1f4d6;" horiz-adv-x="1880" d="M160 164v1036q0 109 76.5 185.5t185.5 76.5h1036q109 0 185.5 -76.5t76.5 -185.5v-1036q0 -109 -76.5 -185.5t-185.5 -76.5h-1036q-109 0 -185.5 76.5t-76.5 185.5zM422 426q95 0 176.5 -20t135.5 -51t92.5 -68t55.5 -70.5t17 -60.5h21v700q0 34 -30.5 78t-88 88t-158 74 t-221.5 30v-700zM961 156h20q0 27 17 60.5t55.5 70.5t92.5 68t135.5 51t176.5 20v700q-98 0 -183 -20t-141 -51t-96.5 -68t-58.5 -70.5t-18 -60.5v-700z" />
<glyph unicode="&#x1f50c;" horiz-adv-x="1880" d="M82 682q0 174 68 333t183 274t274 183t333 68q211 0 395.5 -96.5t304 -264t148.5 -372.5h-252q-43 212 -209.5 350.5t-386.5 138.5q-62 0 -117 -12v-237h-346v-240h346v-250h-346v-240h346v-239q62 -10 117 -10q221 0 387 138t209 351h252q-29 -205 -148.5 -372.5 t-304 -264t-395.5 -96.5q-174 0 -333 68t-274 183t-183 274t-68 333z" />
<glyph unicode="&#x1f697;" horiz-adv-x="2605" d="M102 528q0 176 51 329.5t143 267.5t216 195.5t273 123t311 41.5q311 0 528 -152t301 -432q132 -15 240 -52t188.5 -95t125 -141.5t44.5 -184.5q0 -120 -57.5 -194t-153.5 -74h-31q-27 -86 -98 -139.5t-162 -53.5q-90 0 -162 54t-98 139h-897q-27 -86 -98 -139.5 t-162 -53.5q-90 0 -162 54t-98 139q-128 0 -185 95t-57 273zM469 950q0 -63 83.5 -84.5t274.5 -21.5h537q191 0 274.5 21.5t83.5 84.5q0 36 -20 72q-76 147 -244 233t-362 86t-362.5 -86t-244.5 -233q-20 -36 -20 -72z" />
<glyph unicode="&#x1f698;" horiz-adv-x="1970" d="M119 578q0 215 65 388t181 286t274.5 173t345.5 60t345.5 -60t274.5 -173t181 -286t65 -388q0 -89 -12 -161t-34.5 -121.5t-41 -78t-43.5 -57.5v-64q0 -69 -40.5 -95t-131.5 -26t-132.5 26t-41.5 95v64h-778v-64q0 -69 -41.5 -95t-132.5 -26t-131.5 26t-40.5 95v64 q-25 29 -43.5 57.5t-41 78t-34.5 121.5t-12 161zM315 541q0 -61 43.5 -104.5t104.5 -43.5t104 43t43 105q0 61 -43 104t-104 43q-62 0 -105 -43t-43 -104zM358 950q0 -63 84 -84.5t275 -21.5h536q191 0 275 21.5t84 84.5q0 34 -21 72q-76 147 -244 233t-362 86t-362 -86 t-244 -233q-21 -38 -21 -72zM1360 541q0 -62 43 -105t104 -43t104.5 43.5t43.5 104.5t-43 104t-105 43q-61 0 -104 -43t-43 -104z" />
<glyph horiz-adv-x="1185" d="M6 307l334 144q23 -68 69 -103t107 -35q78 0 120 43t42 129v535h-338v344h725v-868q0 -255 -141.5 -388t-384.5 -133q-189 0 -326.5 83t-206.5 249z" />
<glyph horiz-adv-x="1536" d="M55 682q0 146 48.5 274.5t138 225t225 152t299.5 55.5t300.5 -55.5t226 -152t139 -225t49.5 -274.5q0 -279 -168 -475l155 -160l-272 -225l-160 196q-127 -43 -270 -43q-164 0 -299.5 55t-225 151t-138 224.5t-48.5 276.5zM457 682q0 -151 80.5 -252.5t228.5 -101.5 q150 0 231.5 101.5t81.5 252.5q0 149 -82 251.5t-231 102.5q-99 0 -171 -50.5t-105 -129t-33 -174.5z" />
<glyph horiz-adv-x="1409" d="M55 553q0 253 137 415t365 162q185 0 315 -124v102h375v-823q0 -45 43 -45q36 0 53 14l37 -227q-32 -21 -86 -32t-102 -11q-207 0 -287 139q-114 -148 -342 -148q-157 0 -273.5 77t-175.5 207t-59 294zM451 551q0 -111 52.5 -183.5t153.5 -72.5q104 0 159.5 72t55.5 184 t-56 187t-159 75q-100 0 -153 -75t-53 -187z" />
<glyph horiz-adv-x="714" d="M119 356v1106h375v-1116q0 -46 19.5 -62t53.5 -16q53 0 99 23l55 -262q-94 -49 -246 -49q-215 0 -301 120q-32 45 -43.5 101.5t-11.5 154.5z" />
<glyph horiz-adv-x="1269" d="M90 -264l125 272q135 -78 315 -78q123 0 188.5 46t65.5 130v93q-63 -59 -145 -92t-166 -33q-93 0 -165 31.5t-115 86t-65 123t-22 148.5v645h373v-559q0 -146 142 -146q70 0 116.5 41.5t46.5 122.5v541h373v-905q0 -293 -147 -430q-164 -150 -469 -150 q-123 0 -242.5 29.5t-208.5 83.5z" />
<glyph horiz-adv-x="1271" d="M0 0l418 1120h436l418 -1120h-395l-54 180h-385l-55 -180h-383zM518 446h225l-112 375z" />
<glyph horiz-adv-x="1255" d="M119 0v1120h622q197 0 305.5 -80.5t108.5 -220.5q0 -71 -35.5 -134.5t-101.5 -100.5q174 -80 174 -258q0 -155 -111.5 -240.5t-308.5 -85.5h-653zM494 268h235q42 0 64 27.5t22 66.5q0 40 -22 68.5t-64 28.5h-235v-191zM494 684h200q36 0 59 23t23 59q0 37 -22.5 59.5 t-59.5 22.5h-200v-164z" />
<glyph horiz-adv-x="1230" d="M53 565q0 262 166 423t432 161q364 0 535 -320l-293 -155q-32 90 -93.5 134t-137.5 44q-106 0 -167 -82.5t-61 -204.5q0 -125 61 -209t167 -84q159 0 229 177l307 -130q-65 -163 -207.5 -253.5t-339.5 -90.5q-266 0 -432 162.5t-166 427.5z" />
<glyph horiz-adv-x="1312" d="M119 0v1120h528q291 0 449.5 -151.5t158.5 -403.5q0 -257 -158.5 -411t-449.5 -154h-528zM492 307h155q109 0 167 68t58 190q0 118 -58 182t-167 64h-155v-504z" />
<glyph horiz-adv-x="1161" d="M119 0v1120h954v-289h-579v-120h507v-267h-507v-157h600v-287h-975z" />
<glyph horiz-adv-x="1132" d="M119 0v1120h966v-299h-591v-174h507v-264h-507v-383h-375z" />
<glyph horiz-adv-x="1306" d="M55 565q0 266 170.5 425t448.5 159q182 0 323 -81.5t224 -229.5l-306 -133q-40 83 -100 115t-141 32q-114 0 -175 -81.5t-61 -213.5q0 -142 63 -220.5t189 -78.5q87 0 146.5 33.5t76.5 91.5h-254v264h594q13 -43 13 -104q0 -124 -39 -227.5t-112.5 -179.5t-187 -118.5 t-255.5 -42.5q-287 0 -452 161t-165 429z" />
<glyph horiz-adv-x="1341" d="M119 0v1120h375v-385h354v385h375v-1120h-375v430h-354v-430h-375z" />
<glyph horiz-adv-x="612" d="M119 0v1120h375v-1120h-375z" />
<glyph horiz-adv-x="1069" d="M6 262l311 137q45 -131 152 -131q121 0 121 129v723h371v-714q0 -214 -121 -322.5t-353 -108.5q-182 0 -300.5 69.5t-180.5 217.5z" />
<glyph horiz-adv-x="1075" d="M12 262l312 137q45 -131 151 -131q121 0 121 129v414h-272v309h643v-714q0 -214 -120.5 -322.5t-352.5 -108.5q-182 0 -301 69.5t-181 217.5z" />
<glyph horiz-adv-x="1298" d="M119 0v1120h373v-436l333 436h445l-400 -446l424 -674h-432l-246 424l-124 -150v-274h-373z" />
<glyph horiz-adv-x="1071" d="M119 0v1120h375v-813h548v-307h-923z" />
<glyph horiz-adv-x="1662" d="M119 0v1120h493l222 -676l225 676h485v-1120h-350v688l-240 -688h-249l-234 676v-676h-352z" />
<glyph horiz-adv-x="1372" d="M119 0v1120h456l330 -626v626h348v-1120h-440l-344 639v-639h-350z" />
<glyph horiz-adv-x="1331" d="M53 565q0 119 41 224.5t117 185.5t193 127t260 47t261 -47t194 -127t117.5 -185.5t41.5 -224.5q0 -121 -41.5 -228t-117.5 -187.5t-193.5 -127.5t-261.5 -47q-143 0 -260 47t-193 127.5t-117 187.5t-41 228zM436 565q0 -117 58.5 -196.5t169.5 -79.5q113 0 172 79t59 197 q0 114 -59 192.5t-172 78.5q-110 0 -169 -79t-59 -192z" />
<glyph horiz-adv-x="1200" d="M119 0v1120h588q210 0 335 -113t125 -302q0 -188 -125 -300t-335 -112h-213v-293h-375zM494 598h215q39 0 66.5 27.5t27.5 79.5q0 53 -27.5 80.5t-66.5 27.5h-215v-215z" />
<glyph horiz-adv-x="1329" d="M53 563q0 119 41 224t117 185t193 126.5t260 46.5t261 -46.5t194 -126.5t117.5 -185t41.5 -224q0 -240 -150 -403l121 -129l-217 -185l-139 164q-103 -35 -229 -35q-190 0 -330.5 80.5t-210.5 212.5t-70 295zM436 555q0 -121 58.5 -202t169.5 -81h8l-107 127l189 160 l120 -131q21 58 21 127q0 116 -59 196t-172 80q-111 0 -169.5 -80t-58.5 -196z" />
<glyph horiz-adv-x="1349" d="M53 563q0 119 41 224t117 185t193 126.5t260 46.5t261 -46.5t194 -126.5t117.5 -185t41.5 -224q0 -227 -135 -387l125 -129l-236 -201l-139 164q-103 -35 -229 -35q-190 0 -330.5 80.5t-210.5 212.5t-70 295zM436 563q0 -117 58.5 -195.5t169.5 -78.5q114 0 172.5 78.5 t58.5 195.5q0 113 -59 190.5t-172 77.5q-75 0 -128 -38.5t-76.5 -98t-23.5 -131.5z" />
<glyph horiz-adv-x="1275" d="M119 0v1120h629q222 0 339 -107t117 -278q0 -112 -45.5 -199.5t-159.5 -148.5q130 -221 224 -387h-414l-172 332h-143v-332h-375zM494 606h225q48 0 78 28t30 85q0 56 -29.5 83t-78.5 27h-225v-223z" />
<glyph horiz-adv-x="1206" d="M23 274l264 142q55 -90 145 -128t189 -38q78 0 118.5 21t40.5 57q0 23 -16.5 38.5t-57 27t-75.5 17.5t-105 15q-79 11 -141.5 28t-117.5 45t-91.5 65.5t-57 90.5t-20.5 119q0 121 67 206.5t176.5 125t250.5 39.5q353 0 545 -254l-246 -152q-49 66 -128 99.5t-161 33.5 q-61 0 -100 -18.5t-39 -54.5q0 -20 13 -34t45 -23.5t61.5 -15t87.5 -13.5q61 -9 107.5 -17.5t99 -23t90.5 -31.5t74.5 -42.5t59.5 -57t36.5 -74t13.5 -94.5q0 -176 -143 -287t-400 -111q-406 0 -585 299z" />
<glyph horiz-adv-x="1157" d="M53 811v309h1051v-309h-340v-811h-375v811h-336z" />
<glyph horiz-adv-x="1294" d="M109 440v680h374v-680q0 -79 40 -116t126 -37q83 0 123.5 37t40.5 116v680h373v-680q0 -225 -144 -345t-393 -120q-252 0 -396 120t-144 345z" />
<glyph horiz-adv-x="1247" d="M-2 1120h401l226 -704l215 704h409l-432 -1120h-387z" />
<glyph horiz-adv-x="1748" d="M27 1120h409l119 -643l172 643h291l174 -653l121 653h413l-323 -1120h-379l-156 596l-153 -596h-375z" />
<glyph horiz-adv-x="1323" d="M-4 0l426 592l-385 528h444l183 -305l178 305h442l-385 -528l428 -592h-453l-215 342l-215 -342h-448z" />
<glyph horiz-adv-x="1267" d="M-8 1120h432l211 -364l211 364h430l-455 -686v-434h-375v430z" />
<glyph horiz-adv-x="1191" d="M72 0v250l506 561h-486v309h1010v-237l-520 -576h536v-307h-1046z" />
<glyph horiz-adv-x="1409" d="M55 553q0 253 137 415t365 162q185 0 315 -124v102h375v-823q0 -45 43 -45q36 0 53 14l37 -227q-32 -21 -86 -32t-102 -11q-207 0 -287 139q-114 -148 -342 -148q-157 0 -273.5 77t-175.5 207t-59 294zM451 551q0 -111 52.5 -183.5t153.5 -72.5q104 0 159.5 72t55.5 184 t-56 187t-159 75q-100 0 -153 -75t-53 -187zM563 1221q130 194 166 290l293 -49q-37 -87 -133 -171.5t-189 -129.5z" />
<glyph horiz-adv-x="1271" d="M0 0l418 1120h436l418 -1120h-395l-54 180h-385l-55 -180h-383zM489 1221q130 194 166 290l293 -49q-37 -87 -132.5 -172t-188.5 -129zM518 446h225l-112 375z" />
<glyph horiz-adv-x="1409" d="M55 553q0 253 137 415t365 162q185 0 315 -124v102h375v-823q0 -45 43 -45q36 0 53 14l37 -227q-32 -21 -86 -32t-102 -11q-207 0 -287 139q-114 -148 -342 -148q-157 0 -273.5 77t-175.5 207t-59 294zM276 1436l168 49q29 -57 81 -83t137 -28q84 0 136 27t81 84l168 -49 q-26 -116 -124.5 -189t-260.5 -73t-261 73t-125 189zM451 551q0 -111 52.5 -183.5t153.5 -72.5q104 0 159.5 72t55.5 184t-56 187t-159 75q-100 0 -153 -75t-53 -187z" />
<glyph horiz-adv-x="1271" d="M0 0l418 1120h436l418 -1120h-395l-54 180h-385l-55 -180h-383zM250 1436l168 49q29 -57 80.5 -83t136.5 -28q84 0 136 27t81 84l168 -49q-26 -116 -124.5 -189t-260.5 -73t-260.5 73t-124.5 189zM518 446h225l-112 375z" />
<glyph horiz-adv-x="1409" d="M55 553q0 253 137 415t365 162q185 0 315 -124v102h375v-823q0 -45 43 -45q36 0 53 14l37 -227q-32 -21 -86 -32t-102 -11q-207 0 -287 139q-114 -148 -342 -148q-157 0 -273.5 77t-175.5 207t-59 294zM264 1290q174 111 268 195h259q94 -84 268 -195l-80 -129 q-83 13 -168.5 48t-148.5 79q-63 -43 -149 -78.5t-169 -48.5zM451 551q0 -111 52.5 -183.5t153.5 -72.5q104 0 159.5 72t55.5 184t-56 187t-159 75q-100 0 -153 -75t-53 -187z" />
<glyph horiz-adv-x="1271" d="M0 0l418 1120h436l418 -1120h-395l-54 180h-385l-55 -180h-383zM238 1290q174 111 268 195h258q94 -84 268 -195l-80 -129q-83 13 -168.5 48t-148.5 79q-63 -43 -149 -78.5t-169 -48.5zM518 446h225l-112 375z" />
<glyph horiz-adv-x="1409" d="M55 553q0 253 137 415t365 162q185 0 315 -124v102h375v-823q0 -45 43 -45q36 0 53 14l37 -227q-32 -21 -86 -32t-102 -11q-207 0 -287 139q-114 -148 -342 -148q-157 0 -273.5 77t-175.5 207t-59 294zM291 1196v266h262v-266h-262zM451 551q0 -111 52.5 -183.5 t153.5 -72.5q104 0 159.5 72t55.5 184t-56 187t-159 75q-100 0 -153 -75t-53 -187zM770 1196v266h262v-266h-262z" />
<glyph horiz-adv-x="1271" d="M0 0l418 1120h436l418 -1120h-395l-54 180h-385l-55 -180h-383zM264 1196v266h262v-266h-262zM518 446h225l-112 375zM743 1196v266h263v-266h-263z" />
<glyph horiz-adv-x="2080" d="M-20 0l684 1364h1321v-344h-623v-164h532v-303h-532v-209h643v-344h-1028v541q-157 -28 -295 -126t-217 -276l-62 -139h-423zM745 766q115 53 232 76v256h-80z" />
<glyph horiz-adv-x="2072" d="M53 553q0 253 137 415t365 162q185 0 315 -124v102h375v-70q126 92 285 92q224 0 354.5 -157t130.5 -422q0 -36 -4 -90h-766q6 -87 70 -132.5t168 -45.5q176 0 289 123l243 -213q-222 -218 -555 -218q-276 0 -430 148q-158 -148 -401 -148q-270 0 -423 157.5t-153 420.5z M449 551q0 -111 52.5 -183.5t153.5 -72.5q104 0 159.5 72t55.5 184t-56 187t-159 75q-100 0 -153 -75t-53 -187zM1245 686h404q-6 86 -60 131t-141 45t-141.5 -44.5t-61.5 -131.5z" />
<glyph horiz-adv-x="1826" d="M-10 0l592 1120h1157v-289h-525v-120h451v-267h-451v-157h545v-287h-917v203h-346l-97 -203h-409zM627 469h215v387h-41z" />
<glyph horiz-adv-x="1888" d="M-10 0l592 1120h1218v-289h-524v-120h450v-267h-450v-157h545v-287h-918v430q-143 -32 -269 -115t-190 -219l-45 -96h-409zM682 602q113 71 221 94v160h-102z" />
<glyph horiz-adv-x="2080" d="M-20 0l684 1364h1321v-344h-623v-164h532v-303h-532v-209h643v-344h-1028v541q-157 -28 -295 -126t-217 -276l-62 -139h-423zM745 766q115 53 232 76v256h-80zM870 1479q130 194 166 290l293 -49q-37 -87 -132.5 -172t-188.5 -129z" />
<glyph horiz-adv-x="2072" d="M53 553q0 253 137 415t365 162q185 0 315 -124v102h375v-70q126 92 285 92q224 0 354.5 -157t130.5 -422q0 -36 -4 -90h-766q6 -87 70 -132.5t168 -45.5q176 0 289 123l243 -213q-222 -218 -555 -218q-276 0 -430 148q-158 -148 -401 -148q-270 0 -423 157.5t-153 420.5z M449 551q0 -111 52.5 -183.5t153.5 -72.5q104 0 159.5 72t55.5 184t-56 187t-159 75q-100 0 -153 -75t-53 -187zM893 1221q130 194 166 290l293 -49q-37 -87 -133 -171.5t-189 -129.5zM1245 686h404q-6 86 -60 131t-141 45t-141.5 -44.5t-61.5 -131.5z" />
<glyph horiz-adv-x="1826" d="M-10 0l592 1120h1157v-289h-525v-120h451v-267h-451v-157h545v-287h-917v203h-346l-97 -203h-409zM627 469h215v387h-41zM797 1221q130 194 166 290l292 -49q-37 -87 -132.5 -172t-188.5 -129z" />
<glyph horiz-adv-x="1888" d="M-10 0l592 1120h1218v-289h-524v-120h450v-267h-450v-157h545v-287h-918v430q-143 -32 -269 -115t-190 -219l-45 -96h-409zM682 602q113 71 221 94v160h-102zM793 1221q128 191 165 290l293 -49q-37 -87 -132.5 -172t-188.5 -129z" />
<glyph horiz-adv-x="1409" d="M55 553q0 253 137 415t365 162q185 0 315 -124v102h375v-823q0 -45 43 -45q36 0 53 14l37 -227q-32 -21 -86 -32t-102 -11q-207 0 -287 139q-114 -148 -342 -148q-157 0 -273.5 77t-175.5 207t-59 294zM395 1462l293 49q36 -96 166 -290l-137 -60q-93 45 -189 129.5 t-133 171.5zM451 551q0 -111 52.5 -183.5t153.5 -72.5q104 0 159.5 72t55.5 184t-56 187t-159 75q-100 0 -153 -75t-53 -187z" />
<glyph horiz-adv-x="1271" d="M0 0l418 1120h436l418 -1120h-395l-54 180h-385l-55 -180h-383zM319 1462l293 49q36 -96 166 -290l-137 -60q-93 45 -189 129.5t-133 171.5zM518 446h225l-112 375z" />
<glyph horiz-adv-x="1409" d="M55 553q0 253 137 415t365 162q185 0 315 -124v102h375v-823q0 -45 43 -45q36 0 53 14l37 -227q-32 -21 -86 -32t-102 -11q-207 0 -287 139q-114 -148 -342 -148q-157 0 -273.5 77t-175.5 207t-59 294zM309 1200v191h711v-191h-711zM451 551q0 -111 52.5 -183.5 t153.5 -72.5q104 0 159.5 72t55.5 184t-56 187t-159 75q-100 0 -153 -75t-53 -187z" />
<glyph horiz-adv-x="1271" d="M0 0l418 1120h436l418 -1120h-395l-54 180h-385l-55 -180h-383zM281 1200v191h710v-191h-710zM518 446h225l-112 375z" />
<glyph horiz-adv-x="1411" d="M55 553q0 253 137 415t365 162q185 0 315 -124v102h375v-823q0 -45 43 -45q36 0 53 14l37 -227q-53 -35 -163 -43q-70 -29 -70 -78q0 -33 31.5 -51.5t83.5 -18.5q37 0 73 10.5t54 24.5v-205q-53 -33 -154 -33q-135 0 -216 58t-81 151q0 56 36 96.5t89 61.5 q-106 30 -158 123q-114 -148 -342 -148q-157 0 -273.5 77t-175.5 207t-59 294zM451 551q0 -111 52.5 -183.5t153.5 -72.5q104 0 159.5 72t55.5 184t-56 187t-159 75q-100 0 -153 -75t-53 -187z" />
<glyph horiz-adv-x="1269" d="M0 0l418 1120h436l418 -1120q-142 0 -211.5 -23t-69.5 -73q0 -37 32.5 -57.5t88.5 -20.5q106 0 170 55v-205q-27 -22 -83 -37.5t-124 -15.5q-132 0 -213.5 60t-81.5 147q0 93 97 170l-60 203h-373l-61 -203h-383zM524 469h213l-106 352z" />
<glyph horiz-adv-x="1409" d="M55 553q0 253 137 415t365 162q185 0 315 -124v102h375v-823q0 -45 43 -45q36 0 53 14l37 -227q-32 -21 -86 -32t-102 -11q-207 0 -287 139q-114 -148 -342 -148q-157 0 -273.5 77t-175.5 207t-59 294zM389 1376q0 94 75.5 160t194.5 66t195 -66t76 -160 q0 -95 -75.5 -159t-195.5 -64t-195 64t-75 159zM451 551q0 -111 52.5 -183.5t153.5 -72.5q104 0 159.5 72t55.5 184t-56 187t-159 75q-100 0 -153 -75t-53 -187zM561 1374q0 -40 29 -69t69 -29t69.5 29t29.5 69t-29.5 69.5t-69.5 29.5t-69 -29.5t-29 -69.5z" />
<glyph horiz-adv-x="1271" d="M0 0l408 1096q-41 53 -41 125q0 94 75.5 159.5t194.5 65.5t194.5 -65.5t75.5 -159.5q0 -63 -45 -125l410 -1096h-395l-60 203h-373l-61 -203h-383zM524 469h213l-106 352zM539 1219q0 -40 29 -69.5t69 -29.5t69 29.5t29 69.5t-29 69t-69 29t-69 -29t-29 -69z" />
<glyph horiz-adv-x="1409" d="M55 553q0 253 137 415t365 162q185 0 315 -124v102h375v-823q0 -45 43 -45q36 0 53 14l37 -227q-32 -21 -86 -32t-102 -11q-207 0 -287 139q-114 -148 -342 -148q-157 0 -273.5 77t-175.5 207t-59 294zM389 1376q0 94 75.5 160t194.5 66t195 -66t76 -160 q0 -95 -75.5 -159t-195.5 -64t-195 64t-75 159zM451 551q0 -111 52.5 -183.5t153.5 -72.5q104 0 159.5 72t55.5 184t-56 187t-159 75q-100 0 -153 -75t-53 -187zM481 1690q130 194 166 290l293 -49q-37 -87 -133 -171.5t-189 -129.5zM561 1374q0 -40 29 -69t69 -29t69.5 29 t29.5 69t-29.5 69.5t-69.5 29.5t-69 -29.5t-29 -69.5z" />
<glyph horiz-adv-x="1271" d="M0 0l408 1096q-41 53 -41 125q0 94 75.5 159.5t194.5 65.5t194.5 -65.5t75.5 -159.5q0 -63 -45 -125l410 -1096h-395l-60 203h-373l-61 -203h-383zM444 1530q130 193 166 291l293 -49q-37 -87 -132.5 -172.5t-188.5 -129.5zM524 469h213l-106 352zM539 1219 q0 -40 29 -69.5t69 -29.5t69 29.5t29 69.5t-29 69t-69 29t-69 -29t-29 -69z" />
<glyph horiz-adv-x="1409" d="M55 553q0 253 137 415t365 162q185 0 315 -124v102h375v-823q0 -45 43 -45q36 0 53 14l37 -227q-32 -21 -86 -32t-102 -11q-207 0 -287 139q-114 -148 -342 -148q-157 0 -273.5 77t-175.5 207t-59 294zM238 1268q40 93 114.5 155t169.5 62q51 0 102.5 -20.5t95.5 -41 t79 -20.5q42 0 85.5 25t73.5 67l127 -90q-40 -93 -114.5 -155t-169.5 -62q-51 0 -102.5 20.5t-95.5 41t-79 20.5q-42 0 -85.5 -25t-73.5 -67zM451 551q0 -111 52.5 -183.5t153.5 -72.5q104 0 159.5 72t55.5 184t-56 187t-159 75q-100 0 -153 -75t-53 -187z" />
<glyph horiz-adv-x="1271" d="M0 0l418 1120h436l418 -1120h-395l-54 180h-385l-55 -180h-383zM211 1268q40 93 115 155t170 62q51 0 102 -20.5t95 -41t79 -20.5q42 0 86 25t74 67l127 -90q-40 -93 -115 -155t-170 -62q-51 0 -102 20.5t-95 41t-79 20.5q-42 0 -86 -25t-74 -67zM518 446h225l-112 375z " />
<glyph horiz-adv-x="1230" d="M53 565q0 262 166 423t432 161q364 0 535 -320l-293 -155q-32 90 -93.5 134t-137.5 44q-106 0 -167 -82.5t-61 -204.5q0 -125 61 -209t167 -84q159 0 229 177l307 -130q-65 -163 -207.5 -253.5t-339.5 -90.5q-266 0 -432 162.5t-166 427.5zM508 1221q130 194 166 290 l293 -49q-37 -87 -133 -171.5t-189 -129.5z" />
<glyph horiz-adv-x="1230" d="M53 565q0 262 166 423t432 161q364 0 535 -320l-293 -155q-32 90 -93.5 134t-137.5 44q-106 0 -167 -82.5t-61 -204.5q0 -125 61 -209t167 -84q159 0 229 177l307 -130q-65 -163 -207.5 -253.5t-339.5 -90.5q-266 0 -432 162.5t-166 427.5zM254 1378l80 129 q83 -13 168.5 -48t148.5 -79q63 43 149 78.5t169 48.5l80 -129q-181 -115 -269 -194h-258q-91 81 -268 194z" />
<glyph horiz-adv-x="1232" d="M55 565q0 262 166 423t432 161q364 0 535 -320l-293 -155q-32 90 -93.5 134t-137.5 44q-106 0 -167 -82.5t-61 -204.5q0 -125 61 -209t167 -84q159 0 229 177l307 -130q-54 -135 -163 -221t-261 -112q72 -72 72 -154q0 -88 -81.5 -148.5t-209.5 -60.5q-70 0 -126 18 t-85 42v219q80 -76 178 -76q53 0 84 20t31 60q0 32 -31 71q-249 14 -401 174t-152 414z" />
<glyph horiz-adv-x="1230" d="M53 565q0 262 166 423t432 161q364 0 535 -320l-293 -155q-32 90 -93.5 134t-137.5 44q-106 0 -167 -82.5t-61 -204.5q0 -125 61 -209t167 -84q159 0 229 177l307 -130q-65 -163 -207.5 -253.5t-339.5 -90.5q-266 0 -432 162.5t-166 427.5zM506 1206v256h282v-256h-282z " />
<glyph horiz-adv-x="1230" d="M53 565q0 262 166 423t432 161q364 0 535 -320l-293 -155q-32 90 -93.5 134t-137.5 44q-106 0 -167 -82.5t-61 -204.5q0 -125 61 -209t167 -84q159 0 229 177l307 -130q-65 -163 -207.5 -253.5t-339.5 -90.5q-266 0 -432 162.5t-166 427.5zM256 1290q174 111 268 195h258 q92 -82 269 -195l-80 -129q-83 13 -169 48.5t-149 78.5q-63 -44 -148.5 -79t-168.5 -48z" />
<glyph horiz-adv-x="1312" d="M119 0v1120h528q291 0 449.5 -151.5t158.5 -403.5q0 -257 -158.5 -411t-449.5 -154h-528zM236 1378l79 129q83 -13 169 -48.5t149 -78.5q63 44 148.5 79t168.5 48l80 -129q-177 -113 -268 -194h-258q-91 81 -268 194zM492 307h155q109 0 167 68t58 190q0 118 -58 182 t-167 64h-155v-504z" />
<glyph horiz-adv-x="1312" d="M10 465v188h109v467h528q291 0 449.5 -151.5t158.5 -403.5q0 -257 -158.5 -411t-449.5 -154h-528v465h-109zM492 307h155q109 0 167 68t58 190q0 118 -58 182t-167 64h-155v-158h229v-188h-229v-158z" />
<glyph horiz-adv-x="1161" d="M119 0v1120h954v-289h-579v-120h507v-267h-507v-157h600v-287h-975zM428 1221q130 194 166 290l293 -49q-37 -87 -133 -171.5t-189 -129.5z" />
<glyph horiz-adv-x="1161" d="M119 0v1120h954v-289h-579v-120h507v-267h-507v-157h600v-287h-975zM233 1436l168 49q29 -57 80.5 -83t136.5 -28q84 0 136.5 27t81.5 84l168 -49q-26 -116 -125 -189t-261 -73t-260.5 73t-124.5 189z" />
<glyph horiz-adv-x="1161" d="M119 0v1120h954v-289h-579v-120h507v-267h-507v-157h600v-287h-975zM195 1378l79 129q83 -13 169 -48.5t149 -78.5q63 44 148.5 79t168.5 48l80 -129q-177 -113 -268 -194h-258q-91 81 -268 194z" />
<glyph horiz-adv-x="1161" d="M119 0v1120h954v-289h-579v-120h507v-267h-507v-157h600v-287h-975zM217 1290q174 111 268 195h258q92 -82 269 -195l-80 -129q-83 13 -169 48.5t-149 78.5q-63 -44 -148.5 -79t-168.5 -48z" />
<glyph horiz-adv-x="1161" d="M119 0v1120h954v-289h-579v-120h507v-267h-507v-157h600v-287h-975zM238 1196v266h262v-266h-262zM717 1196v266h262v-266h-262z" />
<glyph horiz-adv-x="1161" d="M119 0v1120h954v-289h-579v-120h507v-267h-507v-157h600v-287h-975zM473 1206v256h283v-256h-283z" />
<glyph horiz-adv-x="1161" d="M119 0v1120h954v-289h-579v-120h507v-267h-507v-157h600v-287h-975zM326 1462l292 49q36 -96 166 -290l-137 -60q-93 44 -188.5 129t-132.5 172z" />
<glyph horiz-adv-x="1161" d="M119 0v1120h954v-289h-579v-120h507v-267h-507v-157h600v-287h-975zM260 1200v191h711v-191h-711z" />
<glyph horiz-adv-x="1161" d="M119 0v1120h954v-289h-579v-120h507v-267h-507v-157h600v-287h-252q-41 -44 -41 -88q0 -38 33 -61t86 -23q51 0 99 20t75 43v-198q-29 -24 -85 -42t-126 -18q-128 0 -209.5 60.5t-81.5 148.5q0 87 74 158h-547z" />
<glyph horiz-adv-x="1312" d="M10 465v188h109v467h528q291 0 449.5 -151.5t158.5 -403.5q0 -257 -158.5 -411t-449.5 -154h-528v465h-109zM492 307h155q109 0 167 68t58 190q0 118 -58 182t-167 64h-155v-158h229v-188h-229v-158z" />
<glyph horiz-adv-x="1306" d="M55 565q0 266 170.5 425t448.5 159q182 0 323 -81.5t224 -229.5l-306 -133q-40 83 -100 115t-141 32q-114 0 -175 -81.5t-61 -213.5q0 -142 63 -220.5t189 -78.5q87 0 146.5 33.5t76.5 91.5h-254v264h594q13 -43 13 -104q0 -124 -39 -227.5t-112.5 -179.5t-187 -118.5 t-255.5 -42.5q-287 0 -452 161t-165 429zM283 1436l168 49q29 -57 80.5 -83t136.5 -28q84 0 136 27t81 84l168 -49q-26 -116 -124.5 -189t-260.5 -73t-260.5 73t-124.5 189z" />
<glyph horiz-adv-x="1306" d="M55 565q0 266 170.5 425t448.5 159q182 0 323 -81.5t224 -229.5l-306 -133q-40 83 -100 115t-141 32q-114 0 -175 -81.5t-61 -213.5q0 -142 63 -220.5t189 -78.5q87 0 146.5 33.5t76.5 91.5h-254v264h594q13 -43 13 -104q0 -124 -39 -227.5t-112.5 -179.5t-187 -118.5 t-255.5 -42.5q-287 0 -452 161t-165 429zM401 -350q1 1 16.5 24.5t18.5 27.5t17.5 26t18.5 29.5t17 27.5t18 30t15.5 28t16 30.5t12.5 27.5t12 29l297 -28q-34 -90 -131 -178.5t-190 -133.5z" />
<glyph horiz-adv-x="1306" d="M55 565q0 266 170.5 425t448.5 159q182 0 323 -81.5t224 -229.5l-306 -133q-40 83 -100 115t-141 32q-114 0 -175 -81.5t-61 -213.5q0 -142 63 -220.5t189 -78.5q87 0 146.5 33.5t76.5 91.5h-254v264h594q13 -43 13 -104q0 -124 -39 -227.5t-112.5 -179.5t-187 -118.5 t-255.5 -42.5q-287 0 -452 161t-165 429zM524 1206v256h283v-256h-283z" />
<glyph horiz-adv-x="1306" d="M55 565q0 266 170.5 425t448.5 159q182 0 323 -81.5t224 -229.5l-306 -133q-40 83 -100 115t-141 32q-114 0 -175 -81.5t-61 -213.5q0 -142 63 -220.5t189 -78.5q87 0 146.5 33.5t76.5 91.5h-254v264h594q13 -43 13 -104q0 -124 -39 -227.5t-112.5 -179.5t-187 -118.5 t-255.5 -42.5q-287 0 -452 161t-165 429zM264 1290q174 111 268 195h259q94 -84 268 -195l-80 -129q-83 13 -168.5 48t-148.5 79q-63 -43 -149 -78.5t-169 -48.5z" />
<glyph horiz-adv-x="1341" d="M10 840v190h109v90h375v-90h354v90h375v-90h108v-190h-108v-840h-375v430h-354v-430h-375v840h-109zM494 735h354v105h-354v-105z" />
<glyph horiz-adv-x="1341" d="M119 0v1120h375v-385h354v385h375v-1120h-375v430h-354v-430h-375zM272 1290q177 113 269 195h258q94 -84 268 -195l-80 -129q-83 13 -168.5 48t-148.5 79q-63 -43 -149 -78.5t-169 -48.5z" />
<glyph horiz-adv-x="612" d="M119 0v1120h375v-1120h-375zM119 1221q130 194 166 290l293 -49q-37 -87 -133 -171.5t-189 -129.5z" />
<glyph horiz-adv-x="612" d="M-82 1436l168 49q29 -57 80.5 -83t136.5 -28q84 0 136 27t81 84l168 -49q-26 -116 -124.5 -189t-260.5 -73t-260.5 73t-124.5 189zM119 0v1120h375v-1120h-375z" />
<glyph horiz-adv-x="612" d="M-94 1290q174 111 268 195h258q94 -84 268 -195l-79 -129q-83 13 -169 48.5t-149 78.5q-63 -44 -148.5 -79t-168.5 -48zM119 0v1120h375v-1120h-375z" />
<glyph horiz-adv-x="612" d="M-45 1196v266h262v-266h-262zM119 0v1120h375v-1120h-375zM391 1196v266h262v-266h-262z" />
<glyph horiz-adv-x="612" d="M119 0v1120h375v-1120h-375zM162 1206v256h282v-256h-282z" />
<glyph horiz-adv-x="612" d="M35 1462l293 49q36 -96 166 -290l-138 -60q-93 44 -188.5 129t-132.5 172zM119 0v1120h375v-1120h-375z" />
<glyph horiz-adv-x="612" d="M2 1200v191h604v-191h-604zM119 0v1120h375v-1120h-375z" />
<glyph horiz-adv-x="606" d="M39 -158q0 36 16 68t39 59t25 31v1120h370v-1120h-129q-112 -34 -112 -94q0 -33 31 -51.5t83 -18.5q37 0 73 10.5t54 24.5v-205q-53 -33 -153 -33q-135 0 -216 58t-81 151z" />
<glyph horiz-adv-x="612" d="M-121 1268q40 93 115 155t170 62q51 0 102 -20.5t95 -41t79 -20.5q42 0 86 25t74 67l127 -90q-40 -93 -115 -155t-170 -62q-51 0 -102 20.5t-95 41t-79 20.5q-42 0 -86 -25t-74 -67zM119 0v1120h375v-1120h-375z" />
<glyph horiz-adv-x="1185" d="M6 307l334 144q23 -68 69 -103t107 -35q78 0 120 43t42 129v535h-338v344h725v-868q0 -255 -141.5 -388t-384.5 -133q-189 0 -326.5 83t-206.5 249zM332 1548q174 111 268 195h258q94 -84 268 -195l-79 -129q-83 13 -169 48.5t-149 78.5q-63 -44 -148.5 -79t-168.5 -48z " />
<glyph horiz-adv-x="1069" d="M6 262l311 137q45 -131 152 -131q121 0 121 129v723h371v-714q0 -214 -121 -322.5t-353 -108.5q-182 0 -300.5 69.5t-180.5 217.5zM346 1290q174 111 268 195h258q92 -82 269 -195l-80 -129q-83 13 -169 48.5t-149 78.5q-63 -44 -148.5 -79t-168.5 -48z" />
<glyph horiz-adv-x="1075" d="M12 262l312 137q45 -131 151 -131q121 0 121 129v414h-272v309h643v-714q0 -214 -120.5 -322.5t-352.5 -108.5q-182 0 -301 69.5t-181 217.5zM248 1290q174 111 268 195h258q94 -84 268 -195l-79 -129q-83 13 -169 48.5t-149 78.5q-63 -44 -148.5 -79t-168.5 -48z" />
<glyph horiz-adv-x="1294" d="M119 0v1120h373v-436l333 436h445l-400 -446l424 -674h-432l-246 424l-124 -150v-274h-373zM420 -350q1 1 16.5 24.5t18.5 27.5t17.5 26t18.5 29.5t17 27.5t18 30t15.5 28t16 30.5t12.5 27.5t12 29l297 -28q-34 -90 -131 -178.5t-191 -133.5z" />
<glyph horiz-adv-x="714" d="M119 356v1106h375v-1116q0 -46 19.5 -62t53.5 -16q53 0 99 23l55 -262q-94 -49 -246 -49q-215 0 -301 120q-32 45 -43.5 101.5t-11.5 154.5zM119 1548q130 193 166 291l293 -49q-37 -87 -133 -171.5t-189 -129.5z" />
<glyph horiz-adv-x="1071" d="M119 0v1120h375v-813h548v-307h-923zM119 1221q130 194 166 290l293 -49q-37 -87 -133 -171.5t-189 -129.5z" />
<glyph horiz-adv-x="899" d="M119 356v1106h375v-1116q0 -46 19.5 -62t53.5 -16q53 0 99 23l55 -262q-94 -49 -246 -49q-215 0 -301 120q-32 45 -43.5 101.5t-11.5 154.5zM629 911q64 52 99.5 106t35.5 124q0 41 -18.5 79t-37 84t-18.5 105v53h326v-186q0 -158 -64 -274.5t-215 -229.5z" />
<glyph horiz-adv-x="1077" d="M119 0v1120h375v-813h548v-307h-923zM604 659q115 89 115 193q0 38 -31 100t-31 125v43h273v-155q0 -132 -54 -230t-180 -192z" />
<glyph horiz-adv-x="714" d="M119 356v1106h375v-1116q0 -46 19.5 -62t53.5 -16q53 0 99 23l55 -262q-94 -49 -246 -49q-215 0 -301 120q-32 45 -43.5 101.5t-11.5 154.5zM133 -350q1 1 16.5 24.5t18.5 27.5t17.5 26t18.5 29.5t17 27.5t18 30t15.5 28t16 30.5t12.5 27.5t12 29l297 -28 q-34 -90 -131 -178.5t-191 -133.5z" />
<glyph horiz-adv-x="1073" d="M119 0v1120h375v-813h548v-307h-923zM334 -350q1 1 16.5 24.5t18.5 27.5t17.5 26t18.5 29.5t17 27.5t18 30t15.5 28t16 30.5t12.5 27.5t12 29l297 -28q-34 -90 -131 -178.5t-191 -133.5z" />
<glyph horiz-adv-x="1142" d="M119 356v1106h375v-1116q0 -46 19.5 -62t53.5 -16q53 0 99 23l55 -262q-94 -49 -246 -49q-215 0 -301 120q-32 45 -43.5 101.5t-11.5 154.5zM680 623q0 92 66 157.5t157 65.5q92 0 157.5 -65.5t65.5 -157.5q0 -91 -65.5 -157.5t-157.5 -66.5q-91 0 -157 66.5t-66 157.5z " />
<glyph horiz-adv-x="1071" d="M119 0v1120h375v-813h548v-307h-923zM592 623q0 92 66 157.5t157 65.5q92 0 157.5 -65.5t65.5 -157.5q0 -91 -65.5 -157.5t-157.5 -66.5q-91 0 -157 66.5t-66 157.5z" />
<glyph horiz-adv-x="790" d="M-10 565v293l186 62v542h375v-418l186 64v-293l-186 -61v-408q0 -46 20 -62t54 -16q52 0 98 23l55 -262q-94 -49 -246 -49q-215 0 -301 120q-32 45 -43.5 101.5t-11.5 154.5v273z" />
<glyph horiz-adv-x="1132" d="M12 342v266l168 54v458h371v-332l321 111v-266l-321 -109v-217h553v-307h-924v397z" />
<glyph horiz-adv-x="1372" d="M119 0v1120h456l330 -626v626h348v-1120h-440l-344 639v-639h-350zM545 1221q130 194 166 290l293 -49q-37 -87 -133 -171.5t-189 -129.5z" />
<glyph horiz-adv-x="1372" d="M119 0v1120h456l330 -626v626h348v-1120h-440l-344 639v-639h-350zM289 1378l80 129q83 -13 168.5 -48t148.5 -79q63 43 149 78.5t169 48.5l79 -129q-177 -113 -268 -194h-258q-91 81 -268 194z" />
<glyph horiz-adv-x="1372" d="M119 0v1120h456l330 -626v626h348v-1120h-440l-344 639v-639h-350zM422 -350q1 1 16.5 24.5t18.5 27.5t17.5 26t18.5 29.5t17 27.5t18 30t15.5 28t16 30.5t12.5 27.5t12 29l297 -28q-34 -90 -131 -178.5t-191 -133.5z" />
<glyph horiz-adv-x="1372" d="M119 0v1120h456l330 -626v626h348v-1120h-440l-344 639v-639h-350zM268 1268q40 93 115 155t170 62q51 0 102 -20.5t95 -41t79 -20.5q42 0 86 25t74 67l127 -90q-40 -93 -115 -155t-170 -62q-51 0 -102 20.5t-95 41t-79 20.5q-42 0 -86 -25t-74 -67z" />
<glyph horiz-adv-x="1372" d="M119 0v1120h456l330 -499v499h348v-1032q0 -465 -432 -465q-81 0 -160 20t-118 50l125 264q50 -37 104 -37q95 0 115 86l-418 633v-639h-350z" />
<glyph horiz-adv-x="1331" d="M53 565q0 119 41 224.5t117 185.5t193 127t260 47t261 -47t194 -127t117.5 -185.5t41.5 -224.5q0 -121 -41.5 -228t-117.5 -187.5t-193.5 -127.5t-261.5 -47q-143 0 -260 47t-193 127.5t-117 187.5t-41 228zM436 565q0 -117 58.5 -196.5t169.5 -79.5q113 0 172 79t59 197 q0 114 -59 192.5t-172 78.5q-110 0 -169 -79t-59 -192zM516 1221q130 194 166 290l293 -49q-37 -87 -133 -171.5t-189 -129.5z" />
<glyph horiz-adv-x="1331" d="M53 565q0 119 41 224.5t117 185.5t193 127t260 47t261 -47t194 -127t117.5 -185.5t41.5 -224.5q0 -121 -41.5 -228t-117.5 -187.5t-193.5 -127.5t-261.5 -47q-143 0 -260 47t-193 127.5t-117 187.5t-41 228zM279 1436l167 49q29 -57 81 -83t137 -28q84 0 136 27t81 84 l168 -49q-26 -116 -124.5 -189t-260.5 -73t-260.5 73t-124.5 189zM436 565q0 -117 58.5 -196.5t169.5 -79.5q113 0 172 79t59 197q0 114 -59 192.5t-172 78.5q-110 0 -169 -79t-59 -192z" />
<glyph horiz-adv-x="1331" d="M53 565q0 119 41 224.5t117 185.5t193 127t260 47t261 -47t194 -127t117.5 -185.5t41.5 -224.5q0 -121 -41.5 -228t-117.5 -187.5t-193.5 -127.5t-261.5 -47q-143 0 -260 47t-193 127.5t-117 187.5t-41 228zM268 1290q177 113 269 195h258q94 -84 268 -195l-80 -129 q-83 13 -168.5 48t-148.5 79q-63 -43 -149 -78.5t-169 -48.5zM436 565q0 -117 58.5 -196.5t169.5 -79.5q113 0 172 79t59 197q0 114 -59 192.5t-172 78.5q-110 0 -169 -79t-59 -192z" />
<glyph horiz-adv-x="1331" d="M53 565q0 119 41 224.5t117 185.5t193 127t260 47t261 -47t194 -127t117.5 -185.5t41.5 -224.5q0 -121 -41.5 -228t-117.5 -187.5t-193.5 -127.5t-261.5 -47q-143 0 -260 47t-193 127.5t-117 187.5t-41 228zM295 1196v266h262v-266h-262zM436 565q0 -117 58.5 -196.5 t169.5 -79.5q113 0 172 79t59 197q0 114 -59 192.5t-172 78.5q-110 0 -169 -79t-59 -192zM774 1196v266h262v-266h-262z" />
<glyph horiz-adv-x="2144" d="M55 680q0 147 49 276t138 225t223 152t295 56q98 0 207 -25h1081v-344h-649q39 -80 57 -164h502v-303h-492q-18 -116 -67 -209h669v-344h-1097q-98 -25 -205 -25q-164 0 -299.5 55t-225 151t-138 224t-48.5 275zM457 682q0 -151 80.5 -252.5t228.5 -101.5q149 0 231 102 t82 252q0 149 -82 251.5t-231 102.5q-148 0 -228.5 -102t-80.5 -252z" />
<glyph horiz-adv-x="1861" d="M57 555q0 257 159 411t450 154h1108v-289h-580v-120h508v-267h-508v-157h600v-287h-1128q-291 0 -450 151.5t-159 403.5zM440 555q0 -120 64.5 -194t179.5 -74h137v544h-137q-114 0 -179 -76.5t-65 -199.5z" />
<glyph horiz-adv-x="1857" d="M53 563q0 120 41 225.5t117 186t193 127.5t260 47q104 0 206 -29h899v-289h-555q21 -46 41 -120h443v-267h-438q-13 -85 -50 -157h580v-287h-934q-92 -25 -192 -25q-143 0 -260 47t-193 127.5t-117 187t-41 226.5zM436 563q0 -116 59 -196t171 -80q75 0 128.5 40.5 t77 101t23.5 134.5q0 115 -58.5 194t-170.5 79t-171 -78.5t-59 -194.5z" />
<glyph horiz-adv-x="1331" d="M53 565q0 119 41 224.5t117 185.5t193 127t260 47t261 -47t194 -127t117.5 -185.5t41.5 -224.5q0 -121 -41.5 -228t-117.5 -187.5t-193.5 -127.5t-261.5 -47q-143 0 -260 47t-193 127.5t-117 187.5t-41 228zM358 1462l293 49q36 -96 166 -290l-137 -60q-93 45 -189 129.5 t-133 171.5zM436 565q0 -117 58.5 -196.5t169.5 -79.5q113 0 172 79t59 197q0 114 -59 192.5t-172 78.5q-110 0 -169 -79t-59 -192z" />
<glyph horiz-adv-x="1331" d="M53 565q0 119 41 224.5t117 185.5t193 127t260 47t261 -47t194 -127t117.5 -185.5t41.5 -224.5q0 -121 -41.5 -228t-117.5 -187.5t-193.5 -127.5t-261.5 -47q-143 0 -260 47t-193 127.5t-117 187.5t-41 228zM352 1221q130 194 166 290l268 -49q-37 -87 -132.5 -172 t-188.5 -129zM436 565q0 -117 58.5 -196.5t169.5 -79.5q113 0 172 79t59 197q0 114 -59 192.5t-172 78.5q-110 0 -169 -79t-59 -192zM752 1221q130 194 166 290l268 -49q-37 -87 -133 -171.5t-189 -129.5z" />
<glyph horiz-adv-x="1331" d="M53 565q0 119 41 224.5t117 185.5t193 127t260 47t261 -47t194 -127t117.5 -185.5t41.5 -224.5q0 -121 -41.5 -228t-117.5 -187.5t-193.5 -127.5t-261.5 -47q-143 0 -260 47t-193 127.5t-117 187.5t-41 228zM311 1200v191h711v-191h-711zM436 565q0 -117 58.5 -196.5 t169.5 -79.5q113 0 172 79t59 197q0 114 -59 192.5t-172 78.5q-110 0 -169 -79t-59 -192z" />
<glyph horiz-adv-x="1333" d="M55 563q0 119 41 224t117 185t193 126.5t260 46.5q150 0 278 -53l45 63l129 -88l-41 -57q98 -81 150.5 -197.5t52.5 -249.5q0 -121 -41.5 -227.5t-117.5 -187t-193.5 -127t-261.5 -46.5q-146 0 -277 54l-43 -64l-129 88l39 56q-98 81 -149.5 199t-51.5 255zM438 563 q0 -81 31 -151l283 403q-43 16 -86 16q-75 0 -128 -38.5t-76.5 -98t-23.5 -131.5zM582 303q35 -14 84 -14q114 0 172.5 78.5t58.5 195.5q0 79 -31 146z" />
<glyph horiz-adv-x="1333" d="M55 563q0 119 41 224t117 185t193 126.5t260 46.5q150 0 278 -53l45 63l129 -88l-41 -57q98 -81 150.5 -197.5t52.5 -249.5q0 -121 -41.5 -227.5t-117.5 -187t-193.5 -127t-261.5 -46.5q-146 0 -277 54l-43 -64l-129 88l39 56q-98 81 -149.5 199t-51.5 255zM438 563 q0 -81 31 -151l283 403q-43 16 -86 16q-75 0 -128 -38.5t-76.5 -98t-23.5 -131.5zM514 1221q130 194 166 290l293 -49q-37 -87 -133 -171.5t-189 -129.5zM582 303q35 -14 84 -14q114 0 172.5 78.5t58.5 195.5q0 79 -31 146z" />
<glyph horiz-adv-x="1331" d="M53 565q0 119 41 224.5t117 185.5t193 127t260 47t261 -47t194 -127t117.5 -185.5t41.5 -224.5q0 -121 -41.5 -228t-117.5 -187.5t-193.5 -127.5t-261.5 -47q-143 0 -260 47t-193 127.5t-117 187.5t-41 228zM242 1268q40 93 114.5 155t169.5 62q51 0 102.5 -20.5 t95.5 -41t79 -20.5q42 0 86 25t74 67l127 -90q-40 -93 -115 -155t-170 -62q-51 0 -102.5 20.5t-95.5 41t-79 20.5q-42 0 -85.5 -25t-73.5 -67zM436 565q0 -117 58.5 -196.5t169.5 -79.5q113 0 172 79t59 197q0 114 -59 192.5t-172 78.5q-110 0 -169 -79t-59 -192z" />
<glyph horiz-adv-x="1275" d="M119 0v1120h629q222 0 339 -107t117 -278q0 -112 -45.5 -199.5t-159.5 -148.5q130 -221 224 -387h-414l-172 332h-143v-332h-375zM473 1221q130 194 166 290l293 -49q-37 -87 -133 -171.5t-189 -129.5zM494 606h225q48 0 78 28t30 85q0 56 -29.5 83t-78.5 27h-225v-223z " />
<glyph horiz-adv-x="1275" d="M119 0v1120h629q222 0 339 -107t117 -278q0 -112 -45.5 -199.5t-159.5 -148.5q130 -221 224 -387h-414l-172 332h-143v-332h-375zM223 1378l80 129q83 -13 169 -48.5t149 -78.5q63 44 148.5 79t168.5 48l80 -129q-177 -113 -268 -194h-258q-88 79 -269 194zM494 606h225 q48 0 78 28t30 85q0 56 -29.5 83t-78.5 27h-225v-223z" />
<glyph horiz-adv-x="1275" d="M119 0v1120h629q222 0 339 -107t117 -278q0 -112 -45.5 -199.5t-159.5 -148.5q130 -221 224 -387h-414l-172 332h-143v-332h-375zM356 -350q1 1 16.5 24.5t18.5 27.5t17.5 26t18.5 29.5t17 27.5t18 30t15.5 28t16 30.5t12.5 27.5t12 29l297 -28q-34 -90 -131 -178.5 t-190 -133.5zM494 606h225q48 0 78 28t30 85q0 56 -29.5 83t-78.5 27h-225v-223z" />
<glyph horiz-adv-x="1206" d="M23 274l264 142q55 -90 145 -128t189 -38q78 0 118.5 21t40.5 57q0 23 -16.5 38.5t-57 27t-75.5 17.5t-105 15q-79 11 -141.5 28t-117.5 45t-91.5 65.5t-57 90.5t-20.5 119q0 121 67 206.5t176.5 125t250.5 39.5q353 0 545 -254l-246 -152q-49 66 -128 99.5t-161 33.5 q-61 0 -100 -18.5t-39 -54.5q0 -20 13 -34t45 -23.5t61.5 -15t87.5 -13.5q61 -9 107.5 -17.5t99 -23t90.5 -31.5t74.5 -42.5t59.5 -57t36.5 -74t13.5 -94.5q0 -176 -143 -287t-400 -111q-406 0 -585 299zM190 1290q177 113 269 195h258q94 -84 268 -195l-80 -129 q-83 13 -168.5 48t-148.5 79q-63 -43 -149 -78.5t-169 -48.5z" />
<glyph horiz-adv-x="1206" d="M23 274l264 142q55 -90 145 -128t189 -38q78 0 118.5 21t40.5 57q0 23 -16.5 38.5t-57 27t-75.5 17.5t-105 15q-79 11 -141.5 28t-117.5 45t-91.5 65.5t-57 90.5t-20.5 119q0 121 67 206.5t176.5 125t250.5 39.5q353 0 545 -254l-246 -152q-49 66 -128 99.5t-161 33.5 q-61 0 -100 -18.5t-39 -54.5q0 -20 13 -34t45 -23.5t61.5 -15t87.5 -13.5q61 -9 107.5 -17.5t99 -23t90.5 -31.5t74.5 -42.5t59.5 -57t36.5 -74t13.5 -94.5q0 -176 -143 -287t-400 -111q-406 0 -585 299zM451 1221q128 191 165 290l293 -49q-37 -87 -132.5 -172t-188.5 -129 z" />
<glyph horiz-adv-x="1206" d="M23 274l264 142q55 -90 145 -128t189 -38q78 0 118.5 21t40.5 57q0 23 -16.5 38.5t-57 27t-75.5 17.5t-105 15q-79 11 -141.5 28t-117.5 45t-91.5 65.5t-57 90.5t-20.5 119q0 121 67 206.5t176.5 125t250.5 39.5q353 0 545 -254l-246 -152q-49 66 -128 99.5t-161 33.5 q-61 0 -100 -18.5t-39 -54.5q0 -20 13 -34t45 -23.5t61.5 -15t87.5 -13.5q61 -9 107.5 -17.5t99 -23t90.5 -31.5t74.5 -42.5t59.5 -57t36.5 -74t13.5 -94.5q0 -176 -143 -287t-400 -111q-406 0 -585 299zM195 1378l79 129q83 -13 169 -48.5t149 -78.5q63 44 148.5 79 t168.5 48l80 -129q-177 -113 -268 -194h-258q-91 81 -268 194z" />
<glyph horiz-adv-x="1210" d="M25 274l264 142q55 -90 145 -128t189 -38q78 0 118.5 21t40.5 57q0 23 -16.5 38.5t-57 27t-75.5 17.5t-105 15q-79 11 -141.5 28t-117.5 45t-91.5 65.5t-57 90.5t-20.5 119q0 121 67 206.5t176.5 125t250.5 39.5q353 0 545 -254l-246 -152q-49 66 -128 99.5t-161 33.5 q-61 0 -100 -18.5t-39 -54.5q0 -20 13 -34t45 -23.5t61.5 -15t87.5 -13.5q61 -9 107.5 -17.5t99 -23t90.5 -31.5t74.5 -42.5t59.5 -57t36.5 -74t13.5 -94.5q0 -152 -108.5 -256.5t-305.5 -130.5q70 -73 70 -154q0 -88 -81.5 -148.5t-209.5 -60.5q-70 0 -126 18t-85 42v219 q80 -76 178 -76q53 0 84 20t31 60q0 37 -31 71q-378 14 -544 297z" />
<glyph horiz-adv-x="1206" d="M23 274l264 142q55 -90 145 -128t189 -38q78 0 118.5 21t40.5 57q0 23 -16.5 38.5t-57 27t-75.5 17.5t-105 15q-79 11 -141.5 28t-117.5 45t-91.5 65.5t-57 90.5t-20.5 119q0 121 67 206.5t176.5 125t250.5 39.5q353 0 545 -254l-246 -152q-49 66 -128 99.5t-161 33.5 q-61 0 -100 -18.5t-39 -54.5q0 -20 13 -34t45 -23.5t61.5 -15t87.5 -13.5q61 -9 107.5 -17.5t99 -23t90.5 -31.5t74.5 -42.5t59.5 -57t36.5 -74t13.5 -94.5q0 -176 -143 -287t-400 -111q-406 0 -585 299zM315 -350q1 1 16.5 24.5t18.5 27.5t17.5 26t18.5 29.5t17 27.5t18 30 t15.5 28t16 30.5t12.5 27.5t12 29l297 -28q-34 -90 -131 -178.5t-190 -133.5z" />
<glyph horiz-adv-x="1157" d="M53 811v309h1051v-309h-340v-811h-375v811h-336zM178 1378l80 129q83 -13 168.5 -48t148.5 -79q63 43 149 78.5t169 48.5l80 -129q-177 -113 -268 -194h-259q-91 81 -268 194z" />
<glyph horiz-adv-x="1157" d="M53 811v309h1051v-309h-340v-811h-375v811h-336zM274 -350q1 1 16.5 24.5t18.5 27.5t17.5 26t18.5 29.5t17 27.5t18 30t15.5 28t16 30.5t12.5 27.5t12 29l297 -28q-34 -90 -131 -178.5t-190 -133.5z" />
<glyph horiz-adv-x="1153" d="M51 811v309h1051v-309h-342v-227h172v-191h-172v-393h-371v393h-168v191h168v227h-338z" />
<glyph horiz-adv-x="1226" d="M119 0v1120h377v-116h231q210 0 335.5 -113.5t125.5 -302.5q0 -188 -125 -300t-336 -112h-231v-176h-377zM496 481h233q39 0 66.5 27.5t27.5 79.5q0 53 -27.5 80.5t-66.5 27.5h-233v-215z" />
<glyph horiz-adv-x="1294" d="M109 440v680h374v-680q0 -79 40 -116t126 -37q83 0 123.5 37t40.5 116v680h373v-680q0 -225 -144 -345t-393 -120q-252 0 -396 120t-144 345zM514 1221q130 194 166 290l293 -49q-37 -87 -133 -171.5t-189 -129.5z" />
<glyph horiz-adv-x="1294" d="M109 440v680h374v-680q0 -79 40 -116t126 -37q83 0 123.5 37t40.5 116v680h373v-680q0 -225 -144 -345t-393 -120q-252 0 -396 120t-144 345zM262 1436l168 49q29 -57 80.5 -83t136.5 -28q84 0 136 27t81 84l168 -49q-26 -116 -124.5 -189t-260.5 -73t-260.5 73 t-124.5 189z" />
<glyph horiz-adv-x="1294" d="M109 440v680h374v-680q0 -79 40 -116t126 -37q83 0 123.5 37t40.5 116v680h373v-680q0 -225 -144 -345t-393 -120q-252 0 -396 120t-144 345zM250 1290q174 111 268 195h258q94 -84 268 -195l-79 -129q-83 13 -169 48.5t-149 78.5q-63 -44 -148.5 -79t-168.5 -48z" />
<glyph horiz-adv-x="1294" d="M109 440v680h374v-680q0 -79 40 -116t126 -37q83 0 123.5 37t40.5 116v680h373v-680q0 -225 -144 -345t-393 -120q-252 0 -396 120t-144 345zM276 1196v266h263v-266h-263zM756 1196v266h262v-266h-262z" />
<glyph horiz-adv-x="1294" d="M109 440v680h374v-680q0 -79 40 -116t126 -37q83 0 123.5 37t40.5 116v680h373v-680q0 -225 -144 -345t-393 -120q-252 0 -396 120t-144 345zM340 1462l293 49q36 -96 166 -290l-137 -60q-93 45 -189 129.5t-133 171.5z" />
<glyph horiz-adv-x="1294" d="M109 440v680h374v-680q0 -79 40 -116t126 -37q83 0 123.5 37t40.5 116v680h373v-680q0 -225 -144 -345t-393 -120q-252 0 -396 120t-144 345zM305 1221q130 194 166 290l268 -49q-37 -87 -132.5 -172t-188.5 -129zM705 1221q128 191 165 290l269 -49q-37 -87 -133 -171.5 t-189 -129.5z" />
<glyph horiz-adv-x="1294" d="M109 440v680h374v-680q0 -79 40 -116t126 -37q83 0 123.5 37t40.5 116v680h373v-680q0 -225 -144 -345t-393 -120q-252 0 -396 120t-144 345zM291 1200v191h710v-191h-710z" />
<glyph horiz-adv-x="1294" d="M109 440v680h374v-680q0 -79 39.5 -116t124.5 -37q84 0 125 37t41 116v680h373v-680q0 -152 -61.5 -249t-176.5 -156q-1 0 -16.5 -8t-18.5 -9.5t-17 -9.5t-17.5 -11.5t-14 -11.5t-14.5 -14.5t-9.5 -15t-7.5 -18t-2 -19.5q0 -38 32 -60t81 -22q88 0 160 76v-219 q-26 -24 -77.5 -42t-119.5 -18q-124 0 -204 58.5t-80 146.5q0 83 77 139q-16 -2 -51 -2q-252 0 -396 120t-144 345z" />
<glyph horiz-adv-x="1294" d="M109 440v680h374v-680q0 -79 40 -116t126 -37q83 0 123.5 37t40.5 116v680h373v-680q0 -225 -144 -345t-393 -120q-252 0 -396 120t-144 345zM377 1376q0 94 75.5 160t194.5 66t195 -66t76 -160q0 -95 -75.5 -159t-195.5 -64t-195 64t-75 159zM549 1374q0 -40 29 -69 t69 -29t69 29t29 69t-29 69.5t-69 29.5t-69 -29.5t-29 -69.5z" />
<glyph horiz-adv-x="1294" d="M109 440v680h374v-680q0 -79 40 -116t126 -37q83 0 123.5 37t40.5 116v680h373v-680q0 -225 -144 -345t-393 -120q-252 0 -396 120t-144 345zM223 1268q40 93 115 155t170 62q51 0 102 -20.5t95 -41t79 -20.5q42 0 86 25t74 67l127 -90q-40 -93 -115 -155t-170 -62 q-51 0 -102 20.5t-95 41t-79 20.5q-42 0 -86 -25t-74 -67z" />
<glyph horiz-adv-x="1748" d="M27 1120h409l119 -643l172 643h291l174 -653l121 653h413l-323 -1120h-379l-156 596l-153 -596h-375zM729 1221q130 194 166 290l293 -49q-37 -87 -133 -171.5t-189 -129.5z" />
<glyph horiz-adv-x="1748" d="M27 1120h409l119 -643l172 643h291l174 -653l121 653h413l-323 -1120h-379l-156 596l-153 -596h-375zM479 1290q177 113 269 195h258q94 -84 268 -195l-80 -129q-83 13 -168.5 48t-148.5 79q-63 -43 -149 -78.5t-169 -48.5z" />
<glyph horiz-adv-x="1748" d="M27 1120h409l119 -643l172 643h291l174 -653l121 653h413l-323 -1120h-379l-156 596l-153 -596h-375zM506 1196v266h262v-266h-262zM985 1196v266h262v-266h-262z" />
<glyph horiz-adv-x="1748" d="M27 1120h409l119 -643l172 643h291l174 -653l121 653h413l-323 -1120h-379l-156 596l-153 -596h-375zM551 1462l293 49q36 -96 166 -290l-138 -60q-93 44 -188.5 129t-132.5 172z" />
<glyph horiz-adv-x="1269" d="M90 -264l125 272q135 -78 315 -78q123 0 188.5 46t65.5 130v93q-63 -59 -145 -92t-166 -33q-93 0 -165 31.5t-115 86t-65 123t-22 148.5v645h373v-559q0 -146 142 -146q70 0 116.5 41.5t46.5 122.5v541h373v-905q0 -293 -147 -430q-164 -150 -469 -150 q-123 0 -242.5 29.5t-208.5 83.5zM512 1221q130 194 166 290l293 -49q-37 -87 -133 -171.5t-189 -129.5z" />
<glyph horiz-adv-x="1267" d="M-8 1120h432l211 -364l211 364h430l-455 -686v-434h-375v430zM498 1221q130 194 166 290l292 -49q-37 -87 -132.5 -172t-188.5 -129z" />
<glyph horiz-adv-x="1269" d="M90 -264l125 272q135 -78 315 -78q123 0 188.5 46t65.5 130v93q-63 -59 -145 -92t-166 -33q-93 0 -165 31.5t-115 86t-65 123t-22 148.5v645h373v-559q0 -146 142 -146q70 0 116.5 41.5t46.5 122.5v541h373v-905q0 -293 -147 -430q-164 -150 -469 -150 q-123 0 -242.5 29.5t-208.5 83.5zM233 1290q177 113 269 195h258q94 -84 268 -195l-80 -129q-83 13 -168.5 48t-148.5 79q-63 -43 -149 -78.5t-169 -48.5z" />
<glyph horiz-adv-x="1267" d="M-8 1120h432l211 -364l211 364h430l-455 -686v-434h-375v430zM238 1290q174 111 268 195h258q94 -84 268 -195l-80 -129q-83 13 -168.5 48t-148.5 79q-63 -43 -149 -78.5t-169 -48.5z" />
<glyph horiz-adv-x="1269" d="M90 -264l125 272q135 -78 315 -78q123 0 188.5 46t65.5 130v93q-63 -59 -145 -92t-166 -33q-93 0 -165 31.5t-115 86t-65 123t-22 148.5v645h373v-559q0 -146 142 -146q70 0 116.5 41.5t46.5 122.5v541h373v-905q0 -293 -147 -430q-164 -150 -469 -150 q-123 0 -242.5 29.5t-208.5 83.5zM262 1196v266h262v-266h-262zM741 1196v266h263v-266h-263z" />
<glyph horiz-adv-x="1267" d="M-8 1120h432l211 -364l211 364h430l-455 -686v-434h-375v430zM264 1196v266h262v-266h-262zM743 1196v266h263v-266h-263z" />
<glyph horiz-adv-x="1269" d="M90 -264l125 272q135 -78 315 -78q123 0 188.5 46t65.5 130v93q-63 -59 -145 -92t-166 -33q-93 0 -165 31.5t-115 86t-65 123t-22 148.5v645h373v-559q0 -146 142 -146q70 0 116.5 41.5t46.5 122.5v541h373v-905q0 -293 -147 -430q-164 -150 -469 -150 q-123 0 -242.5 29.5t-208.5 83.5zM322 1462l292 49q36 -96 166 -290l-137 -60q-93 44 -188.5 129t-132.5 172z" />
<glyph horiz-adv-x="1267" d="M-8 1120h432l211 -364l211 364h430l-455 -686v-434h-375v430zM330 1462l293 49q37 -99 165 -290l-137 -60q-93 44 -188.5 129t-132.5 172z" />
<glyph horiz-adv-x="1191" d="M72 0v250l506 561h-486v309h1010v-237l-520 -576h536v-307h-1046zM453 1221q128 191 165 290l293 -49q-37 -87 -132.5 -172t-188.5 -129z" />
<glyph horiz-adv-x="1191" d="M72 0v250l506 561h-486v309h1010v-237l-520 -576h536v-307h-1046zM190 1378l80 129q83 -13 169 -48.5t149 -78.5q63 44 148.5 79t168.5 48l80 -129q-177 -113 -268 -194h-258q-88 79 -269 194z" />
<glyph horiz-adv-x="1191" d="M72 0v250l506 561h-486v309h1010v-237l-520 -576h536v-307h-1046zM442 1206v256h283v-256h-283z" />
<glyph horiz-adv-x="1548" d="M39 829v279h166v8q0 160 110 264.5t320 104.5q112 0 207 -23l-35 -280q-63 22 -125 22q-54 0 -79 -18t-25 -60v-18h217v-279h-217v-829h-373v829h-166zM952 356v1106h375v-1116q0 -46 20 -62t54 -16q52 0 98 23l55 -262q-94 -49 -245 -49q-215 0 -301 120 q-33 46 -44.5 102.5t-11.5 153.5z" />
<glyph d="M195 1194q165 27 271 66.5t177 103.5h285v-1364h-381v969q-135 -43 -307 -60z" />
<glyph horiz-adv-x="1286" d="M78 684q0 111 18 210.5t60 191t105.5 158t160 106t217.5 39.5q122 0 219.5 -39.5t162 -106t107.5 -158t61.5 -191t18.5 -210.5q0 -112 -18.5 -212.5t-61.5 -192.5t-107.5 -158.5t-162 -106t-219.5 -39.5q-121 0 -217.5 39.5t-160 106t-105.5 158.5t-60 192.5t-18 212.5z M463 684q0 -88 7 -153.5t24.5 -125.5t54 -92t90.5 -32t91 32t55.5 91.5t26 126t7.5 153.5t-7.5 152.5t-26 124.5t-55.5 90.5t-91 31.5q-44 0 -76 -22t-51 -57t-30 -89t-15 -108t-4 -123z" />
<glyph horiz-adv-x="905" d="M27 1194q165 27 271 66.5t177 103.5h285v-1364h-381v969q-135 -43 -307 -60z" />
<glyph horiz-adv-x="1259" d="M53 1049q198 340 559 340q233 0 377 -121t144 -332q0 -156 -115.5 -308.5t-349.5 -283.5h512v-344h-1080v272q368 261 497.5 392t129.5 249q0 64 -43.5 105t-108.5 41q-66 0 -124 -43t-95 -129z" />
<glyph horiz-adv-x="1280" d="M45 360l315 125q35 -88 106 -138t175 -50q86 0 130 34t44 91q0 60 -48.5 91.5t-139.5 31.5h-127v295h121q85 0 123 32t38 84q0 55 -39.5 83t-111.5 28q-89 0 -159 -42.5t-112 -129.5l-286 145q200 349 590 349q226 0 361.5 -106t135.5 -275q0 -100 -49 -173t-135 -114 q103 -35 165 -116.5t62 -194.5q0 -68 -23.5 -131.5t-71 -118.5t-114 -96.5t-158 -65t-198.5 -23.5q-220 0 -367.5 101.5t-226.5 283.5z" />
<glyph horiz-adv-x="1277" d="M57 256v274q103 203 164.5 432.5t61.5 401.5h370q0 -346 -239 -797h272v453h371v-453h166v-311h-166v-256h-381v256h-619z" />
<glyph horiz-adv-x="1239" d="M47 283l303 161q75 -141 238 -141q76 0 132 47t56 121q0 75 -54 122.5t-147 47.5q-139 0 -225 -109l-225 89l51 743h918v-344h-621l-22 -158q41 29 105 44.5t128 15.5q132 0 239 -50t173.5 -153t66.5 -244q0 -95 -34 -182t-100 -159t-176.5 -115.5t-250.5 -43.5 q-374 0 -555 308z" />
<glyph horiz-adv-x="1236" d="M76 520q0 243 108 450t301 394h537q-318 -226 -442 -434q62 41 172 41q194 0 316 -127t122 -342q0 -236 -153 -381.5t-402 -145.5q-261 0 -410 141t-149 404zM469 496q0 -92 41 -146.5t123 -54.5q79 0 119.5 55t40.5 148t-40 144.5t-120 51.5q-82 0 -123 -52.5 t-41 -145.5z" />
<glyph horiz-adv-x="1159" d="M43 1020v344h1081v-256q-16 -24 -66 -96.5t-74 -109t-71.5 -110t-73 -123t-62.5 -122.5t-57 -133.5t-39.5 -132t-25.5 -142t-2 -139.5h-430q0 94 17 189.5t40 171.5t66 163.5t74.5 143t87.5 135t83 114l81 103.5h-629z" />
<glyph horiz-adv-x="1282" d="M76 395q0 119 60 203t159 121q-174 93 -174 297q0 117 73.5 203.5t190 128t256.5 41.5t256.5 -41.5t190 -128t73.5 -203.5q0 -204 -174 -297q99 -37 159 -121t60 -203q0 -183 -147 -301.5t-418 -118.5t-418 118.5t-147 301.5zM469 416q0 -82 48 -120t124 -38 q77 0 124.5 37.5t47.5 120.5q0 82 -48 120.5t-124 38.5t-124 -38.5t-48 -120.5zM504 973q0 -69 38.5 -102t96.5 -33q60 0 99.5 33t39.5 102q0 65 -40 100t-97 35q-58 0 -97.5 -35t-39.5 -100z" />
<glyph horiz-adv-x="1241" d="M49 862q0 236 153.5 381.5t403.5 145.5q260 0 409.5 -141t149.5 -404q0 -242 -108 -446.5t-301 -397.5h-539q316 222 445 434q-65 -41 -175 -41q-194 0 -316 127t-122 342zM446 866q0 -93 40.5 -144.5t121.5 -51.5q82 0 122 52.5t40 145.5q0 92 -40.5 146.5t-121.5 54.5 q-80 0 -121 -55t-41 -148z" />
<glyph horiz-adv-x="860" d="M94 516v332h672v-332h-672z" />
<glyph d="M72 528v308h1102v-308h-1102z" />
<glyph horiz-adv-x="1845" d="M96 528v308h1653v-308h-1653z" />
<glyph horiz-adv-x="626" d="M57 682q0 404 334 805l203 -123q-132 -197 -180.5 -356t-48.5 -326t48.5 -326t180.5 -356l-203 -123q-334 401 -334 805z" />
<glyph horiz-adv-x="626" d="M33 0q132 197 180.5 356t48.5 326t-48.5 326t-180.5 356l203 123q333 -400 333 -805t-333 -805z" />
<glyph horiz-adv-x="706" d="M119 -98v1560h553v-221h-246v-1118h246v-221h-553z" />
<glyph horiz-adv-x="706" d="M35 -98v221h246v1118h-246v221h553v-1560h-553z" />
<glyph horiz-adv-x="849" d="M25 571v222h114q69 0 96 36t27 99v198q0 160 92.5 248t247.5 88h213v-221h-102q-78 0 -111 -36.5t-33 -106.5v-131q0 -222 -204 -285q105 -31 154.5 -104.5t49.5 -178.5v-133q0 -70 33 -106.5t111 -36.5h102v-221h-213q-155 0 -247.5 88t-92.5 248v198q0 64 -26.5 99.5 t-96.5 35.5h-114z" />
<glyph horiz-adv-x="849" d="M35 -98v221h102q78 0 111 36.5t33 106.5v131q0 222 204 285q-105 31 -154.5 104.5t-49.5 178.5v133q0 70 -33 106.5t-111 36.5h-102v221h213q155 0 247.5 -88t92.5 -248v-198q0 -64 26.5 -99.5t96.5 -35.5h114v-222h-114q-69 0 -96 -36t-27 -99v-198q0 -160 -92.5 -248 t-247.5 -88h-213z" />
<glyph horiz-adv-x="1556" d="M59 682q0 117 36.5 227t103 198t155 154.5t198 103t226.5 36.5t226.5 -36.5t198 -103t155 -154.5t103 -198t36.5 -227q0 -116 -36.5 -226t-103 -198.5t-155 -155t-198.5 -103t-226 -36.5t-226 36.5t-198.5 103t-155 155t-103 198.5t-36.5 226zM223 682q0 -112 44 -215 t118.5 -177.5t177.5 -118.5t215 -44t215 44t177.5 118.5t118.5 177.5t44 215q0 113 -44 216t-118.5 177t-177.5 118t-215 44t-215 -44t-177.5 -118t-118.5 -177t-44 -216zM426 285v805h379q175 0 259.5 -74.5t84.5 -198.5q0 -155 -131 -229l139 -303h-289l-77 241h-82v-241 h-283zM709 723h84q65 0 65 80q0 39 -16.5 61.5t-48.5 22.5h-84v-164z" />
<glyph horiz-adv-x="1320" d="M63 559q0 162 80 300t217.5 218t298.5 80q122 0 232.5 -47.5t190.5 -127.5t127.5 -190.5t47.5 -232.5q0 -161 -80 -298.5t-218 -217.5t-300 -80q-161 0 -298.5 80t-217.5 217.5t-80 298.5zM186 559q0 -128 63.5 -237t172.5 -172.5t237 -63.5q196 0 336 139t140 334 q0 129 -64 238.5t-173.5 173t-238.5 63.5q-195 0 -334 -139.5t-139 -335.5zM295 559q0 155 107 262t260 107q205 0 335 -207l-188 -123q-54 100 -143 100q-57 0 -96.5 -40.5t-39.5 -98.5q0 -56 40 -98.5t96 -42.5q86 0 143 106l190 -125q-61 -104 -148.5 -155t-188.5 -51 q-152 0 -259.5 107t-107.5 259z" />
<glyph horiz-adv-x="1320" d="M63 559q0 162 80 300t217.5 218t298.5 80q122 0 232.5 -47.5t190.5 -127.5t127.5 -190.5t47.5 -232.5q0 -161 -80 -298.5t-218 -217.5t-300 -80q-161 0 -298.5 80t-217.5 217.5t-80 298.5zM186 559q0 -128 63.5 -237t172.5 -172.5t237 -63.5q196 0 336 139t140 334 q0 129 -64 238.5t-173.5 173t-238.5 63.5q-195 0 -334 -139.5t-139 -335.5zM391 229v668h328q139 0 205.5 -70t66.5 -176q0 -105 -69 -172t-211 -67h-84v-183h-236zM627 575h59q72 0 72 74q0 35 -18 57.5t-54 22.5h-59v-154z" />
<glyph horiz-adv-x="757" d="M66 842q0 130 91 221.5t222 91.5q129 0 221 -91.5t92 -221.5t-92 -223t-221 -93q-130 0 -221.5 92.5t-91.5 223.5zM119 842q0 -107 76.5 -183.5t183.5 -76.5t182.5 76.5t75.5 183.5t-75.5 182.5t-182.5 75.5t-183.5 -75.5t-76.5 -182.5zM229 668v350h177q67 0 103 -32 t36 -85q0 -72 -53 -96l55 -137h-123l-33 106h-49v-106h-113zM342 860h51q33 0 33 33q0 17 -9 28t-24 11h-51v-72z" />
<glyph horiz-adv-x="1564" d="M43 678q0 152 52.5 282.5t148.5 225.5t239.5 149t317.5 54q168 0 306.5 -53.5t232 -147.5t145 -225t51.5 -285q0 -181 -92.5 -292.5t-251.5 -111.5q-72 0 -136.5 26.5t-99.5 86.5q-78 -113 -233 -113t-247.5 112.5t-92.5 285.5q0 175 93 287t245 112q97 0 170 -76v62h266 v-529q0 -49 20.5 -81.5t67.5 -32.5q65 0 101 75t36 189q0 265 -148 422t-427 157q-182 0 -316 -80t-200 -209.5t-66 -289.5q0 -120 39 -225t111 -183.5t183.5 -124t248.5 -45.5q187 0 311 93l60 -123q-167 -103 -377 -103q-174 0 -317.5 53.5t-239.5 148t-148.5 225.5 t-52.5 284zM655 672q0 -78 30.5 -131.5t86.5 -53.5q58 0 88.5 52.5t30.5 132.5q0 79 -31 132.5t-88 53.5q-56 0 -86.5 -54t-30.5 -132z" />
<glyph horiz-adv-x="2187" d="M86 1255q212 32 307 109h207v-887h-278v600q-97 -21 -201 -33zM467 0l891 1364h274l-891 -1364h-274zM1298 666q65 109 163.5 173t224.5 64q161 0 259.5 -80.5t98.5 -220.5q0 -196 -260 -356h291v-246h-742v197q242 162 328 242.5t86 148.5q0 34 -24 55t-62 21 q-40 0 -77 -28.5t-62 -84.5z" />
<glyph horiz-adv-x="2187" d="M90 1255q212 32 307 109h207v-887h-278v600q-97 -21 -201 -33zM471 0l891 1364h274l-891 -1364h-274zM1286 254l230 65q44 -98 180 -98q41 0 65.5 16t24.5 44q0 25 -27 39t-67 14h-117v223h113q29 0 54 14.5t25 38.5q0 27 -24 41.5t-57 14.5q-120 0 -170 -95l-216 88 q68 126 166 185t232 59q145 0 245.5 -68.5t100.5 -199.5q0 -112 -88 -172q57 -27 87 -79t30 -112q0 -123 -102.5 -205.5t-278.5 -82.5q-304 0 -406 270z" />
<glyph horiz-adv-x="2187" d="M96 1255q212 32 307 109h207v-887h-278v600q-97 -21 -201 -33zM477 0l891 1364h274l-890 -1364h-275zM1278 162v190q68 125 108.5 273.5t40.5 261.5h273q0 -221 -146 -500h150v283h262v-283h109v-225h-109v-162h-268v162h-420z" />
<glyph horiz-adv-x="2187" d="M88 1255q212 32 307 109h207v-887h-278v600q-97 -21 -201 -33zM469 0l891 1364h274l-891 -1364h-274zM1307 154l188 137q73 -70 182 -70q44 0 77.5 25t33.5 65t-32 65t-89 25q-85 0 -145 -69l-164 59l33 496h632v-248h-409q-5 -49 -21 -94q60 43 154 43 q143 0 234.5 -74.5t91.5 -218.5q0 -56 -24 -109.5t-69.5 -99.5t-122 -74t-171.5 -28q-226 0 -379 170z" />
<glyph horiz-adv-x="2187" d="M106 1255q213 33 308 109h207v-887h-279v600q-97 -21 -201 -33zM487 0l891 1364h275l-891 -1364h-275zM1294 342q0 289 279 545h389q-129 -83 -194.5 -139.5t-108.5 -129.5q40 23 98 23q134 0 218.5 -84t84.5 -227q0 -155 -105.5 -250.5t-275.5 -95.5q-180 0 -282.5 93 t-102.5 265zM1579 326q0 -54 25 -85.5t75 -31.5q46 0 71.5 32t25.5 87t-25 85.5t-72 30.5q-49 0 -74.5 -32.5t-25.5 -85.5z" />
<glyph horiz-adv-x="2187" d="M94 1255q212 32 307 109h207v-887h-278v600q-97 -21 -201 -33zM475 0l891 1364h274l-890 -1364h-275zM1298 260q0 62 28 117t89 88q-90 67 -90 176q0 127 93.5 194.5t264.5 67.5q173 0 265 -67.5t92 -194.5q0 -109 -90 -176q118 -60 118 -205q0 -130 -101.5 -203 t-283.5 -73t-283.5 73t-101.5 203zM1575 272q0 -46 31.5 -70t76.5 -24t77 24t32 70q0 48 -32 72.5t-77 24.5t-76.5 -24.5t-31.5 -72.5zM1602 631q0 -41 22.5 -61.5t56.5 -20.5q36 0 60 20.5t24 61.5q0 39 -24 58.5t-58 19.5q-35 0 -58 -19.5t-23 -58.5z" />
<glyph horiz-adv-x="630" d="M2 1446q213 33 307 108h207v-886h-278v600q-97 -21 -201 -33z" />
<glyph horiz-adv-x="630" d="M2 588q213 33 307 108h207v-886h-278v600q-97 -21 -201 -33z" />
<glyph horiz-adv-x="589" d="M72 682q0 92 66 157.5t157 65.5q92 0 157.5 -65.5t65.5 -157.5q0 -91 -65.5 -157t-157.5 -66q-91 0 -157 66t-66 157z" />
<glyph horiz-adv-x="708" d="M-2 0l410 1364h305l-410 -1364h-305z" />
<glyph horiz-adv-x="524" d="M119 -98v1560h287v-1560h-287z" />
<glyph horiz-adv-x="708" d="M-4 1364h305l410 -1364h-305z" />
<glyph horiz-adv-x="636" d="M121 0v344l100 543h195l100 -543v-344h-395zM121 1020v344h395v-344h-395z" />
<glyph horiz-adv-x="1071" d="M31 426q0 92 33.5 170t92 133.5t124 94t141.5 65.5h381v-316q-62 19 -139 19q-236 0 -236 -154q0 -70 51 -105.5t125 -35.5q174 0 285 119l205 -242q-223 -199 -535 -199q-240 0 -384 119.5t-144 331.5zM408 1020v344h395v-344h-395z" />
<glyph d="M72 528v308h397v397h307v-397h398v-308h-398v-397h-307v397h-397z" />
<glyph d="M72 528v308h1102v-308h-1102z" />
<glyph d="M72 528v308h1102v-308h-1102zM424 256q0 83 58 141t141 58t140.5 -58t57.5 -141t-57.5 -141t-140.5 -58t-141 58t-58 141zM424 1108q0 83 58 142t141 59t140.5 -58.5t57.5 -142.5q0 -82 -57.5 -140.5t-140.5 -58.5t-141 58.5t-58 140.5z" />
<glyph d="M72 303v307h1102v-307h-1102zM72 754v307h1102v-307h-1102z" />
<glyph d="M55 332l348 350l-348 350l215 215l351 -346l350 346l215 -215l-346 -350l346 -350l-215 -215l-350 348l-351 -348z" />
<glyph d="M168 682l649 649l217 -215l-434 -434l434 -432l-217 -217z" />
<glyph d="M213 250l434 432l-434 434l215 215l649 -649l-649 -649z" />
<glyph horiz-adv-x="1325" d="M49 559q0 121 43.5 228t122 186.5t194.5 125.5t253 46t253.5 -46t195 -125.5t122 -186.5t43.5 -228t-43.5 -228t-122 -185.5t-194.5 -124.5t-254 -46t-253.5 46t-194 124.5t-122 185.5t-43.5 228zM406 559q0 -110 68 -183t188 -73t189 73t69 183q0 111 -68.5 184.5 t-189.5 73.5q-120 0 -188 -73t-68 -185z" />
<glyph horiz-adv-x="876" d="M20 946q302 53 447 174h274v-1120h-366v733q-158 -50 -309 -65z" />
<glyph horiz-adv-x="1218" d="M25 864q112 137 242 209t311 72q144 0 257 -44t180.5 -133.5t67.5 -213.5q0 -61 -18 -115.5t-46.5 -96t-71.5 -80.5t-84.5 -67t-94.5 -57h397v-338h-1071v268q71 31 115 50t102.5 46t94.5 46t80 43.5t70 44t53.5 43.5t42 46t23.5 46.5t9 50.5q0 61 -44 99t-112 38 q-75 0 -136 -45t-103 -114z" />
<glyph horiz-adv-x="1210" d="M8 70l289 155q98 -176 301 -176q92 0 140 39t48 100q0 59 -51.5 93t-146.5 34h-119v289h113q85 0 128.5 30.5t43.5 82.5q0 51 -46 78.5t-114 27.5q-174 0 -258 -151l-295 129q188 344 567 344q102 0 192.5 -24t162 -71t113.5 -123.5t42 -172.5q0 -98 -52.5 -167.5 t-139.5 -109.5q105 -35 170 -117.5t65 -193.5q0 -188 -149 -312t-408 -124q-408 0 -596 340z" />
<glyph horiz-adv-x="1247" d="M55 10v271q101 204 164.5 437t63.5 402h356q-1 -169 -63 -378.5t-173 -426.5h285v457h359v-457h165v-305h-165v-256h-369v256h-623z" />
<glyph horiz-adv-x="1175" d="M18 33l293 157q72 -139 244 -139q80 0 139.5 47.5t59.5 124.5t-56.5 125.5t-154.5 48.5q-69 0 -129 -26t-97 -76l-221 80l54 745h907v-340h-625l-24 -178q49 34 115 52t128 18q131 0 237 -49.5t172 -152t66 -243.5q0 -94 -34 -181t-99.5 -158.5t-175 -114.5t-248.5 -43 q-368 0 -551 303z" />
<glyph horiz-adv-x="1173" d="M45 522q0 120 34.5 239.5t105 235.5t189 222t273.5 186l271 -229q-131 -57 -255.5 -147.5t-158.5 -172.5q88 76 233 76q177 0 295.5 -121.5t118.5 -321.5q0 -225 -153.5 -369.5t-407.5 -144.5q-249 0 -397 144.5t-148 402.5zM426 475q0 -86 43 -136t129 -50 q85 0 127.5 50.5t42.5 137.5q0 86 -42.5 134t-127.5 48q-86 0 -129 -49.5t-43 -134.5z" />
<glyph horiz-adv-x="1140" d="M39 780v340h1073v-254q-67 -96 -106.5 -154t-98.5 -152t-94 -160.5t-76 -156t-61 -164t-32 -160t-7 -165.5h-416q0 74 11 149t25.5 137.5t43 133.5t50.5 121t62 117t63 104t68 99t63 85.5t61 79.5h-629z" />
<glyph horiz-adv-x="1224" d="M55 385q0 105 52 193.5t169 138.5q-75 38 -126.5 111.5t-51.5 175.5q0 184 141 284.5t373 100.5q233 0 373.5 -100t140.5 -285q0 -103 -50.5 -175.5t-127.5 -111.5q117 -50 169 -138.5t52 -193.5q0 -194 -151 -302t-406 -108t-406 108t-151 302zM432 414q0 -84 50.5 -123 t129.5 -39q80 0 130.5 38t50.5 124q0 85 -51 124.5t-130 39.5t-129.5 -39.5t-50.5 -124.5zM469 975q0 -72 40 -106.5t101 -34.5q63 0 105.5 34.5t42.5 106.5q0 67 -43 103t-103 36q-61 0 -102 -36t-41 -103z" />
<glyph horiz-adv-x="1165" d="M20 631q0 225 154 369.5t408 144.5q249 0 396.5 -144t147.5 -403q0 -120 -34.5 -239.5t-105 -235.5t-189 -222t-273.5 -186l-270 230q131 58 255.5 147.5t158.5 171.5q-88 -76 -234 -76q-177 0 -295.5 121.5t-118.5 321.5zM403 643q0 -86 42.5 -134t127.5 -48 q86 0 129 49.5t43 134.5q0 86 -43 136t-129 50q-85 0 -127.5 -50.5t-42.5 -137.5z" />
<glyph d="M63 563q0 123 34 227t100 184t174 125.5t247 45.5q140 0 249 -45.5t177 -125.5t103 -184t35 -227q0 -124 -35 -229t-103 -186t-177 -127t-249 -46q-139 0 -247 46t-174 127t-100 186t-34 229zM449 563q0 -68 7.5 -117t26 -87t52 -57t83.5 -19q96 0 135.5 71t39.5 209 q0 137 -39.5 207t-135.5 70t-132.5 -69t-36.5 -208z" />
<glyph d="M123 946q303 53 448 174h275v-805h299v-315h-983v315h317v418q-164 -50 -309 -65z" />
<glyph d="M197 946q301 53 446 174h275v-1120h-367v733q-158 -50 -309 -65z" />
<glyph d="M37 864q112 137 242 209t311 72q144 0 257.5 -44t181 -134t67.5 -213q0 -75 -25.5 -139.5t-73.5 -115t-98.5 -87.5t-118.5 -74h398v-338h-1072v268q71 31 115 50t102.5 46t94.5 46t80 43.5t70 44t53.5 43.5t42 46t23.5 46.5t9 50.5q0 61 -43.5 99t-111.5 38 q-76 0 -137 -45.5t-103 -113.5z" />
<glyph d="M25 70l288 155q98 -176 301 -176q92 0 140.5 39t48.5 100q0 59 -51.5 93t-147.5 34h-119v289h113q85 0 128.5 30.5t43.5 82.5q0 51 -46 78.5t-114 27.5q-174 0 -258 -151l-295 129q188 344 568 344q102 0 192.5 -24t162 -71t113.5 -123.5t42 -172.5q0 -98 -53 -167.5 t-140 -109.5q105 -35 170.5 -117.5t65.5 -193.5q0 -188 -149 -312t-408 -124q-408 0 -596 340z" />
<glyph d="M53 10v271q101 204 164.5 437t63.5 402h356q-1 -169 -63 -378.5t-173 -426.5h285v457h358v-457h166v-305h-166v-256h-368v256h-623z" />
<glyph d="M53 33l293 157q72 -139 244 -139q80 0 139 47.5t59 124.5t-56 125.5t-154 48.5q-69 0 -129 -26t-97 -76l-221 80l53 745h908v-340h-625l-25 -178q49 34 115.5 52t128.5 18q131 0 237 -49.5t172 -152t66 -243.5q0 -94 -34 -181t-99.5 -158.5t-175 -114.5t-248.5 -43 q-368 0 -551 303z" />
<glyph d="M80 522q0 120 34.5 239.5t105 235.5t189 222t273.5 186l270 -229q-130 -57 -254.5 -147.5t-158.5 -172.5q88 76 233 76q177 0 295.5 -121.5t118.5 -321.5q0 -225 -153.5 -369.5t-407.5 -144.5q-249 0 -397 144.5t-148 402.5zM461 475q0 -86 43 -136t129 -50 q85 0 127.5 50.5t42.5 137.5q0 86 -42.5 134t-127.5 48q-86 0 -129 -49.5t-43 -134.5z" />
<glyph d="M90 780v340h1073v-254q-67 -96 -106.5 -154t-98.5 -152t-94 -160.5t-76 -156t-61 -164t-32 -160t-7 -165.5h-416q0 74 11 149t25.5 137.5t43 133.5t50.5 121t62 117t63 104t68 99t63 85.5t61 79.5h-629z" />
<glyph d="M66 385q0 105 52 193.5t169 138.5q-75 38 -126.5 111.5t-51.5 175.5q0 184 141 284.5t373 100.5q233 0 373.5 -100t140.5 -285q0 -102 -50.5 -174.5t-128.5 -112.5q117 -50 169.5 -138.5t52.5 -193.5q0 -194 -151 -302t-406 -108t-406 108t-151 302zM442 414 q0 -84 51 -123t130 -39q80 0 130 38t50 124q0 85 -50.5 124.5t-129.5 39.5t-130 -39.5t-51 -124.5zM479 975q0 -72 40.5 -106.5t101.5 -34.5q63 0 105 34.5t42 106.5q0 67 -42.5 103t-102.5 36q-61 0 -102.5 -36t-41.5 -103z" />
<glyph d="M59 631q0 225 154 369.5t408 144.5q249 0 396.5 -144t147.5 -403q0 -120 -34.5 -239.5t-105 -235.5t-189 -222t-273.5 -186l-270 230q131 58 255.5 147.5t158.5 171.5q-88 -76 -234 -76q-177 0 -295.5 121.5t-118.5 321.5zM442 643q0 -86 42.5 -134t127.5 -48 q86 0 129 49.5t43 134.5q0 86 -43 136t-129 50q-85 0 -127.5 -50.5t-42.5 -137.5z" />
<glyph d="M37 264l278 117q78 -119 258 -137v180q-239 38 -351.5 121t-112.5 243q0 161 128.5 254t335.5 101v117h132v-119q288 -28 450 -242l-272 -139q-63 88 -178 112v-167q119 -17 200 -40.5t145.5 -63t95 -99.5t30.5 -144q0 -150 -124.5 -255.5t-346.5 -122.5v-136h-132v133 q-373 16 -536 287zM461 807q0 -59 112 -84v160q-50 -3 -81 -22.5t-31 -53.5zM705 246q129 15 129 84q0 50 -129 73v-157z" />
<glyph d="M104 440v195h109q-20 68 -20 131q0 175 126 275t330 100q331 0 492 -297l-285 -127q-32 60 -70 93.5t-102 33.5q-58 0 -91.5 -29.5t-33.5 -87.5q0 -43 19 -92h268v-195h-223q-6 -39 -20.5 -69.5t-55.5 -63.5q49 21 96 21q34 0 92 -17.5t84 -17.5q30 0 52.5 17.5 t43.5 62.5l261 -156q-55 -119 -139.5 -178t-186.5 -59q-70 0 -176 40.5t-164 40.5q-59 0 -138.5 -23.5t-142.5 -64.5l-116 258q89 31 133.5 74t44.5 92q0 15 -4 43h-183z" />
<glyph d="M27 393v121h65q-2 16 -2 49v35h-63v121h79q46 196 201 311t377 115q158 0 297 -80t231 -238l-278 -147q-32 89 -96 131.5t-144 42.5q-71 0 -123.5 -36t-83.5 -99h234v-121h-264v-35q0 -33 2 -49h262v-121h-227q64 -127 200 -127q81 0 136 44.5t90 138.5l305 -134 q-67 -160 -208 -250t-333 -90q-219 0 -371 112t-202 306h-84z" />
<glyph d="M66 1120h403l156 -356l153 356h402l-283 -510h195v-135h-273l-18 -33v-55h291v-135h-291v-252h-357v252h-294v135h294v51l-18 37h-276v135h198z" />
<glyph d="M88 535q0 231 134 386t370 175v161h127v-161q155 -15 268.5 -100.5t165.5 -221.5l-309 -106q-15 46 -47.5 79t-77.5 46v-510q94 26 125 129l311 -103q-48 -138 -162 -225.5t-274 -106.5v-163h-127v163q-237 20 -370.5 173.5t-133.5 384.5zM444 537q0 -94 37 -162.5 t111 -89.5v508q-49 -11 -83 -50t-49.5 -91.5t-15.5 -114.5z" />
<glyph horiz-adv-x="1331" d="M43 315q0 206 244 303q-50 58 -74.5 109.5t-24.5 114.5q0 146 112.5 224.5t295.5 78.5q78 0 146 -15t125.5 -46.5t90.5 -88t33 -131.5q0 -60 -20 -109t-57.5 -84t-76 -58.5t-89.5 -45.5l137 -131q45 65 76 154l266 -90q-47 -140 -148 -252l256 -248h-448l-49 49 q-161 -74 -334 -74q-127 0 -229.5 37.5t-167 116t-64.5 186.5zM373 358q0 -54 47 -93.5t121 -39.5q61 0 108 19l-211 213q-65 -40 -65 -99zM498 852q0 -33 22 -62.5t66 -68.5q127 55 127 129q0 36 -27 59t-80 23q-47 0 -77.5 -20.5t-30.5 -59.5z" />
<glyph horiz-adv-x="1427" d="M18 825q0 132 94 225t226 93q131 0 224 -93t93 -225q0 -130 -93 -222.5t-224 -92.5q-132 0 -226 92.5t-94 222.5zM215 0l739 1120h258l-739 -1120h-258zM225 825q0 -46 33 -77t80 -31q46 0 78.5 31.5t32.5 76.5q0 46 -32.5 78.5t-78.5 32.5q-47 0 -80 -32.5t-33 -78.5z M776 297q0 132 94 224.5t226 92.5q131 0 224 -92.5t93 -224.5q0 -130 -93 -222.5t-224 -92.5q-132 0 -226 92.5t-94 222.5zM983 297q0 -46 33 -77.5t80 -31.5q46 0 78 31.5t32 77.5t-32 78.5t-78 32.5q-47 0 -80 -32.5t-33 -78.5z" />
<glyph horiz-adv-x="2097" d="M18 825q0 132 94 225t226 93q131 0 224 -93t93 -225q0 -130 -93 -222.5t-224 -92.5q-132 0 -226 92.5t-94 222.5zM215 0l739 1120h258l-739 -1120h-258zM225 825q0 -46 33 -77t80 -31q46 0 78.5 31.5t32.5 76.5q0 46 -32.5 78.5t-78.5 32.5q-47 0 -80 -32.5t-33 -78.5z M776 297q0 132 94 224.5t226 92.5q131 0 224 -92.5t93 -224.5q0 -130 -93 -222.5t-224 -92.5q-132 0 -226 92.5t-94 222.5zM983 297q0 -46 33 -77.5t80 -31.5q46 0 78 31.5t32 77.5t-32 78.5t-78 32.5q-47 0 -80 -32.5t-33 -78.5zM1442 297q0 132 93.5 224.5t225.5 92.5 q131 0 224.5 -92.5t93.5 -224.5q0 -130 -93.5 -222.5t-224.5 -92.5q-132 0 -225.5 92.5t-93.5 222.5zM1649 297q0 -46 32.5 -77.5t79.5 -31.5q46 0 78.5 31.5t32.5 77.5t-32.5 78.5t-78.5 32.5q-47 0 -79.5 -32.5t-32.5 -78.5z" />
<glyph horiz-adv-x="643" d="M137 0v295h369v-295h-369zM137 881v239h369v-239l-96 -480h-177z" />
<glyph horiz-adv-x="651" d="M141 0v240l97 479h176l96 -479v-240h-369zM141 825v295h369v-295h-369z" />
<glyph horiz-adv-x="1064" d="M47 973q202 172 477 172q214 0 341.5 -100.5t127.5 -278.5q0 -76 -29.5 -140.5t-81 -110t-110 -77.5t-127.5 -53h-342v264q67 -18 141 -18q80 0 132.5 30t52.5 91q0 54 -46.5 85t-113.5 31q-124 0 -231 -102zM303 0v295h363v-295h-363z" />
<glyph horiz-adv-x="1071" d="M78 354q0 76 29.5 140.5t81 110t110 77.5t127.5 53h342v-264q-68 18 -141 18q-80 0 -132.5 -29.5t-52.5 -90.5q0 -55 46.5 -86t113.5 -31q125 0 232 102l190 -207q-202 -172 -477 -172q-214 0 -341.5 100.5t-127.5 278.5zM406 825v295h362v-295h-362z" />
<glyph horiz-adv-x="604" d="M115 0v1108h374v-1108h-374zM160 1169v195h282v-195h-282z" />
<glyph horiz-adv-x="894" d="M66 446q0 457 378 457q385 0 385 -457q0 -462 -385 -462q-85 0 -150.5 23t-108 63.5t-70 100t-38.5 126.5t-11 149zM346 446q0 -43 1.5 -73.5t7.5 -63.5t16.5 -53.5t28.5 -33.5t44 -13q32 0 53 18.5t31.5 54t14.5 74t4 90.5t-4 90t-14.5 73t-31.5 53t-53 18t-52.5 -18 t-30 -53.5t-12.5 -72t-3 -90.5z" />
<glyph horiz-adv-x="768" d="M55 778q212 32 307 109h207v-654h164v-233h-643v233h201v367q-97 -21 -201 -33z" />
<glyph horiz-adv-x="684" d="M16 778q213 33 308 109h206v-887h-278v600q-97 -21 -201 -33z" />
<glyph horiz-adv-x="884" d="M41 666q65 109 163 173t224 64q161 0 259.5 -80.5t98.5 -220.5q0 -196 -260 -356h291v-246h-741v197q241 161 327 242t86 149q0 34 -24 55t-62 21q-40 0 -77 -28.5t-62 -84.5z" />
<glyph horiz-adv-x="886" d="M39 254l229 65q44 -98 181 -98q41 0 65.5 16t24.5 44q0 25 -27.5 39t-67.5 14h-116v223h112q30 0 55 14.5t25 38.5q0 27 -24.5 41.5t-57.5 14.5q-120 0 -170 -95l-215 88q68 126 166 185t232 59q145 0 245.5 -68.5t100.5 -199.5q0 -112 -88 -172q57 -26 86.5 -78 t29.5 -113q0 -123 -102.5 -205.5t-278.5 -82.5q-303 0 -405 270z" />
<glyph horiz-adv-x="882" d="M43 162v190q68 125 109 274t41 261h272q0 -221 -146 -500h150v283h262v-283h109v-225h-109v-162h-268v162h-420z" />
<glyph horiz-adv-x="868" d="M43 154l188 137q73 -70 183 -70q43 0 76.5 25t33.5 65t-32 65t-89 25q-85 0 -145 -69l-164 59l33 496h633v-248h-410q-6 -54 -20 -94q60 43 153 43q143 0 234.5 -74.5t91.5 -218.5q0 -56 -24 -109.5t-69.5 -99.5t-122 -74t-171.5 -28q-226 0 -379 170z" />
<glyph horiz-adv-x="868" d="M59 342q0 289 279 545h389q-129 -83 -194.5 -139.5t-108.5 -129.5q40 23 98 23q134 0 218.5 -84t84.5 -227q0 -155 -105.5 -250.5t-275.5 -95.5q-180 0 -282.5 93t-102.5 265zM344 326q0 -54 25 -85.5t75 -31.5q46 0 71.5 32t25.5 87t-25 85.5t-72 30.5 q-49 0 -74.5 -32.5t-25.5 -85.5z" />
<glyph horiz-adv-x="802" d="M41 639v248h743v-180q-153 -181 -236.5 -355.5t-72.5 -351.5h-313q0 81 18 162t45 144.5t66.5 129.5t73 110t75.5 93h-399z" />
<glyph horiz-adv-x="894" d="M63 260q0 62 28 117t89 88q-90 67 -90 176q0 127 94 194.5t265 67.5q173 0 264.5 -67t91.5 -195q0 -109 -90 -176q119 -61 119 -205q0 -130 -101.5 -203t-283.5 -73t-284 73t-102 203zM340 272q0 -46 32 -70t77 -24t76.5 24t31.5 70q0 48 -31.5 72.5t-76.5 24.5 t-77 -24.5t-32 -72.5zM367 631q0 -41 22.5 -61.5t56.5 -20.5q36 0 60 20.5t24 61.5q0 39 -23.5 58.5t-57.5 19.5q-35 0 -58.5 -19.5t-23.5 -58.5z" />
<glyph horiz-adv-x="866" d="M41 557q0 155 105.5 250.5t275.5 95.5q180 0 282.5 -93t102.5 -265q0 -289 -279 -545h-389q130 84 195 139.5t108 128.5q-38 -22 -98 -22q-134 0 -218.5 84t-84.5 227zM326 559q0 -55 24.5 -86t71.5 -31q49 0 74.5 33t25.5 86q0 54 -25 85.5t-75 31.5q-46 0 -71 -32 t-25 -87z" />
</font>
</defs>
</svg>
