<?xml version="1.0" standalone="no"?>
<!DOCTYPE svg PUBLIC "-//W3C//DTD SVG 1.1//EN" "http://www.w3.org/Graphics/SVG/1.1/DTD/svg11.dtd" >
<svg xmlns="http://www.w3.org/2000/svg">
<metadata></metadata>
<defs>
<font id="ars_maquette_prolight" horiz-adv-x="1173" >
<font-face units-per-em="2048" ascent="1638" descent="-410" />
<missing-glyph horiz-adv-x="552" />
<glyph unicode="ff" horiz-adv-x="1284" d="M57 934v121h187v153q0 143 78 210t213 67q100 0 151 -23l-20 -114q-79 18 -127 18q-84 0 -124 -36t-40 -120v-155h463v153q0 143 77.5 210t212.5 67q101 0 152 -23l-20 -114q-79 18 -127 18q-84 0 -124 -36t-40 -120v-155h258v-121h-258v-934h-131v934h-463v-934h-131 v934h-187z" />
<glyph unicode="fi" horiz-adv-x="1126" d="M57 934v121h187v153q0 143 78 210t213 67q100 0 151 -23l-20 -114q-79 18 -131 18q-81 0 -120.5 -36t-39.5 -120v-155h258v-121h-258v-934h-131v934h-187zM825 0v1055h131v-1055h-131zM825 1298v164h131v-164h-131z" />
<glyph unicode="fl" horiz-adv-x="1144" d="M57 934v121h187v153q0 143 78 210t213 67q100 0 151 -23l-20 -114q-79 18 -131 18q-81 0 -120.5 -36t-39.5 -120v-155h258v-121h-258v-934h-131v934h-187zM838 0v1462h131v-1462h-131z" />
<glyph unicode="fj" horiz-adv-x="1146" d="M57 934v121h187v153q0 143 78 210t213 67q100 0 151 -23l-20 -114q-79 18 -131 18q-81 0 -120.5 -36t-39.5 -120v-155h258v-121h-258v-934h-131v934h-187zM489 -350l35 119q51 -21 113 -21q209 0 209 236v1071h131v-1067q0 -177 -94.5 -269t-247.5 -92q-83 0 -146 23z M846 1298v164h131v-164h-131z" />
<glyph unicode=" "  horiz-adv-x="552" />
<glyph unicode="&#x09;" horiz-adv-x="552" />
<glyph unicode="&#xa0;" horiz-adv-x="552" />
<glyph unicode="!" horiz-adv-x="530" d="M186 0v199h158v-199h-158zM186 1069v295h158v-295l-43 -672h-72z" />
<glyph unicode="&#x22;" horiz-adv-x="731" d="M111 1307v57h159v-57l-51 -416h-55zM461 1307v57h157v-57l-51 -416h-55z" />
<glyph unicode="#" horiz-adv-x="1284" d="M80 393v90h254l69 398h-239v90h254l69 393h97l-70 -393h354l70 393h96l-69 -393h239v-90h-254l-69 -398h239v-90h-254l-69 -393h-97l70 393h-354l-70 -393h-96l69 393h-239zM430 483h354l70 398h-354z" />
<glyph unicode="$" d="M66 229l114 86q61 -92 157.5 -146.5t207.5 -66.5v547q-74 17 -127.5 33.5t-113.5 46.5t-97.5 67t-62.5 94.5t-25 129.5q0 166 118.5 263.5t307.5 105.5v153h106v-153q127 -13 234 -71.5t182 -152.5l-104 -80q-123 149 -312 175v-494q80 -20 136 -38t118.5 -50 t100.5 -70.5t63 -97t25 -131.5q0 -169 -121 -278t-322 -124v-178h-106v178q-161 9 -283.5 76t-195.5 176zM260 1036q0 -46 15 -81.5t37 -58.5t63 -43t76.5 -32t93.5 -28v473q-124 -5 -204.5 -61.5t-80.5 -168.5zM651 102q136 9 217.5 80.5t81.5 190.5q0 46 -15 82.5 t-38.5 61.5t-64 45.5t-81 34t-100.5 28.5v-523z" />
<glyph unicode="%" horiz-adv-x="1531" d="M74 1059q0 139 86 231t223 92q139 0 225 -92t86 -231q0 -144 -86 -238t-225 -94q-138 0 -223.5 94t-85.5 238zM172 1059q0 -101 57.5 -167.5t153.5 -66.5t153.5 66.5t57.5 167.5q0 97 -58 161t-153 64q-96 0 -153.5 -63.5t-57.5 -161.5zM360 0l703 1364h108l-702 -1364 h-109zM838 311q0 140 86.5 233t224.5 93q139 0 224 -92.5t85 -233.5q0 -143 -85 -236t-224 -93q-138 0 -224.5 93t-86.5 236zM938 311q0 -99 58 -165t153 -66q96 0 153.5 66t57.5 165q0 97 -58 162.5t-153 65.5t-153 -65.5t-58 -162.5z" />
<glyph unicode="&#x26;" horiz-adv-x="1339" d="M76 356q0 255 317 389q-91 96 -129.5 167t-38.5 161q0 150 99 233t254 83q160 0 255 -86.5t95 -219.5q0 -115 -79 -206.5t-245 -167.5l369 -375q92 126 137 282l127 -34q-60 -196 -174 -340l237 -242h-174l-149 150q-190 -175 -438 -175q-200 0 -331.5 103.5 t-131.5 277.5zM219 369q0 -122 93.5 -194.5t242.5 -72.5q189 0 334 136l-416 421q-117 -49 -185.5 -117.5t-68.5 -172.5zM356 1073q0 -70 38.5 -128.5t125.5 -149.5q51 24 82 40t73 43.5t65.5 53.5t41 63.5t17.5 79.5q0 91 -66 141t-158 50t-155.5 -51t-63.5 -142z" />
<glyph unicode="'" horiz-adv-x="380" d="M113 1307v57h157v-57l-53 -416h-53z" />
<glyph unicode="(" horiz-adv-x="571" d="M94 621q0 251 87 476t261 398l90 -84q-157 -152 -234 -356t-77 -434q0 -231 77 -435t234 -356l-90 -84q-174 174 -261 399t-87 476z" />
<glyph unicode=")" horiz-adv-x="571" d="M39 -170q157 152 234 356t77 435q0 230 -77 434t-234 356l90 84q174 -174 261 -398.5t87 -475.5t-87 -476.5t-261 -398.5z" />
<glyph unicode="*" horiz-adv-x="837" d="M94 901q131 77 266 137q-64 28 -111.5 52t-72 38t-82.5 48l43 75q132 -75 252 -161q-14 143 -14 299h88q0 -156 -14 -299q124 89 251 161l43 -75q-58 -34 -82.5 -48t-72 -38t-111.5 -52q135 -60 266 -137l-43 -76q-120 68 -251 162q14 -143 14 -299h-88q0 156 14 299 q-127 -91 -252 -162z" />
<glyph unicode="+" d="M115 563v119h411v414h121v-414h412v-119h-412v-411h-121v411h-411z" />
<glyph unicode="," horiz-adv-x="479" d="M141 -242q101 88 101 191v51h-90v176h176v-184q0 -153 -133 -283z" />
<glyph unicode="-" horiz-adv-x="792" d="M135 516v119h522v-119h-522z" />
<glyph unicode="." horiz-adv-x="479" d="M152 0v176h176v-176h-176z" />
<glyph unicode="/" horiz-adv-x="688" d="M68 -221l450 1683h107l-451 -1683h-106z" />
<glyph unicode="0" d="M104 682q0 110 14 207.5t49 191t88.5 160.5t138.5 107.5t194 40.5q91 0 165.5 -28t126 -78.5t89 -116t59 -147t31.5 -164t10 -173.5q0 -110 -13.5 -207t-48 -190.5t-87.5 -160.5t-138 -108t-194 -41t-194 41t-138.5 108t-88.5 160.5t-49 190.5t-14 207zM256 682 q0 -126 17 -226t54 -181.5t103 -126t158 -44.5q330 0 330 578q0 575 -330 575q-92 0 -158 -44t-103 -125t-54 -181t-17 -225z" />
<glyph unicode="1" d="M193 1186q286 59 405 178h113v-1245h329v-119h-825v119h348v1059q-51 -32 -153 -65t-199 -44z" />
<glyph unicode="2" d="M106 1141q80 116 197 182t264 66q187 0 310.5 -112.5t123.5 -297.5q0 -78 -25 -152t-71 -145.5t-131 -159t-184 -175.5t-250 -212h717v-135h-926v117q207 176 331.5 291t217.5 221t130.5 186.5t37.5 159.5q0 136 -80 206t-211 70q-112 0 -196.5 -53t-139.5 -137z" />
<glyph unicode="3" d="M88 225l129 80q53 -99 146.5 -145.5t211.5 -46.5q149 0 232.5 75t83.5 203q0 117 -83.5 184.5t-248.5 67.5h-100v135h108q133 0 209 66.5t76 179.5q0 106 -74.5 166.5t-206.5 60.5q-219 0 -340 -157l-106 86q173 209 446 209q189 0 311 -100t122 -255 q0 -106 -56.5 -184.5t-154.5 -126.5q127 -50 189 -141t62 -199q0 -178 -128.5 -293t-340.5 -115q-341 0 -487 250z" />
<glyph unicode="4" d="M74 336v129q142 239 216.5 478t74.5 421h147q0 -183 -79.5 -431.5t-215.5 -463.5h528v586h146v-586h209v-133h-209v-336h-146v336h-671z" />
<glyph unicode="5" d="M100 225l129 80q53 -99 142 -145.5t198 -46.5q155 0 245.5 84t90.5 233q0 144 -86 225.5t-237 81.5q-200 0 -310 -137l-92 49l45 715h756v-135h-631l-35 -447q126 90 295 90q197 0 323 -122t126 -314q0 -95 -34 -178.5t-95 -146.5t-153.5 -99.5t-203.5 -36.5 q-327 0 -473 250z" />
<glyph unicode="6" d="M109 473q0 122 38.5 242.5t111 233t157 210t196.5 205.5h205q-93 -78 -186.5 -171t-187.5 -216t-134 -223q55 63 149 93t185 30q188 0 314 -123t126 -320q0 -203 -134.5 -331t-354.5 -128t-352.5 132.5t-132.5 365.5zM260 430q0 -143 90 -230t248 -87q157 0 244.5 86.5 t87.5 230.5t-87.5 229.5t-244.5 85.5t-247.5 -86.5t-90.5 -228.5z" />
<glyph unicode="7" d="M102 1229v135h973v-131q-61 -75 -126.5 -166.5t-148 -227t-147.5 -268t-114 -286t-58 -285.5h-157q9 128 56.5 278.5t109 279.5t144 266.5t145 228.5t126.5 176h-803z" />
<glyph unicode="8" d="M100 383q0 114 62.5 210.5t189.5 149.5q-200 91 -200 291q0 155 122.5 255t311.5 100t311.5 -100t122.5 -255q0 -199 -201 -291q127 -53 189.5 -149.5t62.5 -210.5q0 -178 -132.5 -293t-352.5 -115t-353 115t-133 293zM254 391q0 -128 86.5 -203t245.5 -75t245.5 75 t86.5 203q0 126 -83.5 200.5t-248.5 74.5t-248.5 -74.5t-83.5 -200.5zM303 1024q0 -103 75 -163t208 -60t207.5 60t74.5 163q0 106 -75 166.5t-207 60.5t-207.5 -60.5t-75.5 -166.5z" />
<glyph unicode="9" d="M90 930q0 202 135 330.5t355 128.5t352.5 -132.5t132.5 -365.5q0 -122 -38.5 -242.5t-111.5 -233t-157 -210t-197 -205.5h-205q93 78 186.5 171t187.5 216t134 223q-55 -63 -149 -93t-185 -30q-188 0 -314 123t-126 320zM244 934q0 -144 87 -230t244 -86t247.5 87 t90.5 229q0 143 -90 230t-248 87q-157 0 -244 -86.5t-87 -230.5z" />
<glyph unicode=":" horiz-adv-x="598" d="M211 0v176h176v-176h-176zM211 879v176h176v-176h-176z" />
<glyph unicode=";" horiz-adv-x="598" d="M201 -242q100 87 100 191v51h-90v176h176v-184q0 -153 -133 -283zM211 879v176h176v-176h-176z" />
<glyph unicode="&#x3c;" d="M238 625l555 555l81 -82l-471 -473l471 -471l-81 -82z" />
<glyph unicode="=" d="M115 369v120h944v-120h-944zM115 758v119h944v-119h-944z" />
<glyph unicode="&#x3e;" d="M297 154l473 471l-473 473l80 82l557 -555l-557 -553z" />
<glyph unicode="?" horiz-adv-x="1005" d="M63 1225q192 164 410 164q123 0 222 -47t158.5 -139t59.5 -214q0 -176 -119.5 -286t-316.5 -128v-178h-121v295q23 -4 58 -4q156 0 254 80t98 215q0 118 -77.5 194t-221.5 76q-171 0 -322 -131zM334 0v199h158v-199h-158z" />
<glyph unicode="@" horiz-adv-x="1714" d="M90 614q0 158 58 300.5t159 247t246 166t311 61.5t312 -61.5t246.5 -164.5t158 -240t57.5 -286q0 -188 -86.5 -299t-228.5 -111q-72 0 -132 33t-91 107q-50 -72 -123 -109t-158 -37q-154 0 -249 111t-95 280q0 168 95.5 278.5t254.5 110.5q155 0 252 -116v100h121v-528 q0 -129 123 -129q98 0 148.5 77.5t50.5 212.5q0 180 -83 330t-234 239t-337 89q-188 0 -339 -91t-233.5 -242t-82.5 -329q0 -179 83 -329t233.5 -239t336.5 -89q176 0 322 82l55 -98q-186 -97 -383 -97q-217 0 -393.5 103t-275.5 279t-99 388zM604 612q0 -122 60 -199 t174 -77t176.5 78t62.5 198t-63 197.5t-178 77.5q-112 0 -172 -77t-60 -198z" />
<glyph unicode="A" horiz-adv-x="1351" d="M29 0l565 1364h164l565 -1364h-162l-166 410h-649l-166 -410h-151zM401 545h541l-266 674z" />
<glyph unicode="B" horiz-adv-x="1339" d="M195 0v1364h542q206 0 319 -82.5t113 -234.5q0 -101 -48.5 -176.5t-129.5 -120.5q117 -49 177.5 -142.5t60.5 -218.5q0 -81 -27 -150t-80.5 -123t-140 -85t-197.5 -31h-589zM338 135h446q141 0 217 68t76 190q0 120 -70.5 192t-211.5 72h-457v-522zM338 791h414 q130 0 201 63.5t71 171.5q0 104 -71 153.5t-216 49.5h-399v-438z" />
<glyph unicode="C" horiz-adv-x="1359" d="M106 682q0 150 47 280.5t131.5 224.5t207.5 148t268 54q326 0 514 -252l-113 -88q-139 202 -399 202q-228 0 -365 -154t-137 -413q0 -260 137 -415.5t361 -155.5q129 0 233.5 53.5t169.5 150.5l119 -88q-88 -121 -221 -187.5t-297 -66.5q-195 0 -345 92.5t-230.5 253 t-80.5 361.5z" />
<glyph unicode="D" horiz-adv-x="1468" d="M195 0v1364h514q202 0 350.5 -89.5t223.5 -242.5t75 -350q0 -146 -43.5 -270.5t-125 -216t-205 -143.5t-275.5 -52h-514zM340 135h369q237 0 366 148t129 399q0 252 -129 399.5t-366 147.5h-369v-1094z" />
<glyph unicode="E" horiz-adv-x="1261" d="M195 0v1364h940v-135h-795v-438h692v-134h-692v-522h815v-135h-960z" />
<glyph unicode="F" horiz-adv-x="1218" d="M195 0v1364h958v-135h-813v-438h690v-134h-690v-657h-145z" />
<glyph unicode="G" horiz-adv-x="1472" d="M106 684q0 202 80.5 362t230.5 251.5t345 91.5q163 0 293 -66t219 -186l-115 -86q-66 95 -168.5 147.5t-232.5 52.5q-228 0 -363 -155.5t-135 -411.5t135.5 -413.5t366.5 -157.5q198 0 327.5 118.5t141.5 317.5h-422v135h567q6 -37 6 -86q0 -126 -42 -238.5t-119.5 -198 t-195.5 -136t-261 -50.5q-196 0 -347 93t-231 254t-80 362z" />
<glyph unicode="H" horiz-adv-x="1480" d="M195 0v1364h143v-573h805v573h143v-1364h-143v657h-805v-657h-143z" />
<glyph unicode="I" horiz-adv-x="532" d="M195 0v1364h143v-1364h-143z" />
<glyph unicode="J" horiz-adv-x="980" d="M31 150l114 81q93 -118 250 -118q260 0 260 299v952h146v-952q0 -207 -115 -322t-305 -115q-229 0 -350 175z" />
<glyph unicode="K" horiz-adv-x="1284" d="M195 0v1364h143v-780l713 780h176l-541 -588l594 -776h-182l-508 674l-252 -277v-397h-143z" />
<glyph unicode="L" horiz-adv-x="1148" d="M195 0v1364h143v-1229h780v-135h-923z" />
<glyph unicode="M" horiz-adv-x="1775" d="M195 0v1364h223l473 -1184l475 1184h215v-1364h-141v1214l-486 -1214h-133l-487 1219v-1219h-139z" />
<glyph unicode="N" horiz-adv-x="1480" d="M195 0v1364h184l768 -1163v1163h139v-1364h-168l-786 1192v-1192h-137z" />
<glyph unicode="O" horiz-adv-x="1523" d="M106 682q0 202 80.5 362.5t230.5 252.5t345 92t345 -92t230 -252.5t80 -362.5q0 -150 -47 -280.5t-131 -224.5t-207.5 -148t-269.5 -54q-195 0 -345 92.5t-230.5 253t-80.5 361.5zM260 682q0 -256 135.5 -412.5t366.5 -156.5q230 0 366 156.5t136 412.5q0 257 -136 413 t-366 156q-231 0 -366.5 -156t-135.5 -413z" />
<glyph unicode="P" horiz-adv-x="1280" d="M195 0v1364h550q226 0 347.5 -110.5t121.5 -297.5t-121.5 -297t-347.5 -110h-407v-549h-143zM338 684h410q158 0 236.5 73t78.5 199t-79 199.5t-236 73.5h-410v-545z" />
<glyph unicode="Q" horiz-adv-x="1523" d="M106 682q0 202 80.5 362.5t230.5 252.5t345 92t345 -92t230 -252.5t80 -362.5q0 -171 -60 -314t-169 -239l155 -188l-100 -84l-164 196q-138 -78 -317 -78q-195 0 -345 92.5t-230.5 253t-80.5 361.5zM260 682q0 -256 135.5 -412.5t366.5 -156.5q129 0 227 49l-151 186 l102 84l158 -194q80 75 123 189.5t43 254.5q0 257 -136 413t-366 156q-231 0 -366.5 -156t-135.5 -413z" />
<glyph unicode="R" horiz-adv-x="1337" d="M195 0v1364h581q198 0 318 -104.5t120 -280.5q0 -138 -77.5 -236.5t-210.5 -140.5l325 -602h-164l-309 578h-440v-578h-143zM338 713h440q132 0 208.5 70.5t76.5 185.5q0 118 -79.5 189t-211.5 71h-434v-516z" />
<glyph unicode="S" horiz-adv-x="1210" d="M80 236l125 88q68 -106 178.5 -159.5t239.5 -53.5q152 0 243.5 70t91.5 194q0 43 -11.5 76.5t-38 58.5t-54.5 42.5t-77 33t-89 26t-105 25.5q-12 3 -18 4q-74 17 -127.5 33.5t-114 47t-98.5 67.5t-63 95t-25 130q0 175 129.5 275t329.5 100q151 0 277 -60.5t212 -169.5 l-112 -86q-67 86 -166.5 133t-220.5 47q-60 0 -112 -12t-95.5 -37.5t-68.5 -70t-25 -103.5q0 -30 6 -55t20 -45.5t28 -36t41 -30t46.5 -23.5t57.5 -20.5t60.5 -18t67.5 -17.5q67 -17 108 -28t99.5 -31.5t94.5 -40t77 -50.5t63.5 -65.5t38 -82.5t15.5 -105 q0 -184 -137.5 -295t-362.5 -111q-177 0 -312.5 70.5t-215.5 190.5z" />
<glyph unicode="T" horiz-adv-x="1200" d="M49 1229v135h1102v-135h-479v-1229h-146v1229h-477z" />
<glyph unicode="U" horiz-adv-x="1449" d="M178 508v856h144v-856q0 -178 108 -286.5t293 -108.5q184 0 294.5 108.5t110.5 286.5v856h144v-856q0 -238 -155.5 -385.5t-393.5 -147.5q-239 0 -392 147t-153 386z" />
<glyph unicode="V" horiz-adv-x="1265" d="M31 1364h153l449 -1194l459 1194h143l-528 -1364h-148z" />
<glyph unicode="W" horiz-adv-x="1910" d="M57 1364h150l321 -1196l359 1196h147l357 -1198l317 1198h145l-380 -1364h-168l-349 1190l-350 -1190h-172z" />
<glyph unicode="X" horiz-adv-x="1292" d="M20 0l539 709l-500 655h177l411 -559l416 559h168l-496 -655l537 -709h-176l-451 600l-452 -600h-173z" />
<glyph unicode="Y" horiz-adv-x="1218" d="M16 1364h170l426 -666l428 666h164l-522 -797v-567h-147v567z" />
<glyph unicode="Z" horiz-adv-x="1202" d="M84 0v129l834 1100h-801v135h979v-129l-834 -1100h850v-135h-1028z" />
<glyph unicode="[" horiz-adv-x="589" d="M174 -221v1683h397v-121h-270v-1441h270v-121h-397z" />
<glyph unicode="\" horiz-adv-x="688" d="M63 1462h107l451 -1683h-107z" />
<glyph unicode="]" horiz-adv-x="591" d="M18 -100h273v1441h-273v121h400v-1683h-400v121z" />
<glyph unicode="^" d="M57 897l467 467h125l467 -467l-82 -84l-444 449l-451 -449z" />
<glyph unicode="_" horiz-adv-x="1259" d="M18 -154h1223v-102h-1223v102z" />
<glyph unicode="`" horiz-adv-x="653" d="M143 1462l142 23q30 -53 82 -120.5t102 -117.5l-55 -59q-87 53 -164.5 131t-106.5 143z" />
<glyph unicode="a" horiz-adv-x="1142" d="M86 293q0 51 12.5 93.5t32.5 72t50.5 53.5t60 39t68 26.5t67.5 17.5t65 11q22 3 65 8.5t66.5 8.5t60 10t57 14.5t45.5 20t38 28t22 38t9 50.5q0 61 -41.5 101.5t-97.5 55.5t-123 15q-184 0 -328 -114l-74 98q182 139 406 139q181 0 288 -84t107 -252v-518 q0 -68 21.5 -98.5t72.5 -30.5q40 0 66 13l18 -109q-44 -16 -104 -16q-81 0 -136.5 45t-64.5 135q-130 -189 -373 -189q-163 0 -259.5 85.5t-96.5 232.5zM223 297q0 -102 67.5 -151.5t176.5 -49.5q66 0 125.5 18.5t109.5 55t79.5 99.5t29.5 145v202q-24 -29 -51.5 -49 t-65.5 -31.5t-64.5 -17t-81 -12.5t-81.5 -12q-59 -10 -97 -21t-75 -32.5t-54.5 -57t-17.5 -86.5z" />
<glyph unicode="b" horiz-adv-x="1282" d="M170 0v1462h131v-600q141 217 393 217q222 0 355 -156t133 -395q0 -240 -133.5 -396.5t-354.5 -156.5q-250 0 -393 218v-193h-131zM301 526q0 -185 100 -304.5t277 -119.5q176 0 270 118.5t94 305.5q0 90 -22.5 166.5t-66.5 135t-114.5 91.5t-160.5 33 q-178 0 -277.5 -120.5t-99.5 -305.5z" />
<glyph unicode="c" horiz-adv-x="1087" d="M100 528q0 156 60.5 281t175.5 197.5t264 72.5q128 0 233 -54t175 -151l-105 -79q-109 159 -301 159q-164 0 -263 -120.5t-99 -305.5q0 -186 98 -307t260 -121q195 0 307 164l105 -80q-70 -96 -175 -152.5t-237 -56.5q-148 0 -262.5 73t-175 198.5t-60.5 281.5z" />
<glyph unicode="d" horiz-adv-x="1282" d="M100 526q0 240 133.5 396.5t354.5 156.5q250 0 393 -217v600h131v-1462h-131v193q-142 -218 -393 -218q-222 0 -355 156t-133 395zM240 528q0 -90 22.5 -166.5t66.5 -135t114.5 -91.5t160.5 -33q178 0 277.5 120.5t99.5 305.5t-100 304.5t-277 119.5q-176 0 -270 -118.5 t-94 -305.5z" />
<glyph unicode="e" horiz-adv-x="1181" d="M100 524q0 116 35.5 217t99.5 176t159.5 118.5t209.5 43.5q147 0 260 -70.5t172.5 -188t59.5 -261.5q0 -37 -4 -61h-852q7 -183 112 -288.5t275 -105.5q190 0 319 144l92 -92q-164 -181 -411 -181q-242 0 -384.5 154.5t-142.5 394.5zM244 610h712q-14 164 -113.5 254 t-242.5 90q-151 0 -247.5 -96t-108.5 -248z" />
<glyph unicode="f" horiz-adv-x="690" d="M57 934v121h187v153q0 143 78 210t213 67q100 0 151 -23l-20 -114q-79 18 -131 18q-81 0 -120.5 -36t-39.5 -120v-155h258v-121h-258v-934h-131v934h-187z" />
<glyph unicode="g" horiz-adv-x="1286" d="M104 559q0 228 138 374t350 146q124 0 228.5 -54.5t166.5 -162.5v193h131v-899q0 -242 -110 -369q-140 -164 -428 -164q-252 0 -433 131l80 111q157 -115 359 -115q87 0 158.5 22.5t126.5 67.5t85.5 120.5t30.5 174.5v129q-62 -108 -171 -162.5t-234 -54.5 q-210 0 -344 144.5t-134 367.5zM244 563q0 -168 94.5 -279.5t271.5 -111.5t278 111.5t101 279.5q0 167 -100 277t-279 110q-91 0 -162 -31t-115 -84.5t-66.5 -122.5t-22.5 -149z" />
<glyph unicode="h" horiz-adv-x="1210" d="M170 0v1462h131v-600q141 217 377 217q171 0 273 -105.5t102 -299.5v-674h-131v643q0 309 -260 309q-156 0 -258.5 -104.5t-102.5 -267.5v-580h-131z" />
<glyph unicode="i" horiz-adv-x="471" d="M170 0v1055h131v-1055h-131zM170 1298v164h131v-164h-131z" />
<glyph unicode="j" horiz-adv-x="471" d="M-186 -350l34 119q51 -21 113 -21q209 0 209 236v1071h131v-1067q0 -177 -94.5 -269t-247.5 -92q-82 0 -145 23zM170 1298v164h131v-164h-131z" />
<glyph unicode="k" horiz-adv-x="1126" d="M170 0v1462h131v-991l578 584h174l-441 -439l500 -616h-174l-420 530l-217 -217v-313h-131z" />
<glyph unicode="l" horiz-adv-x="483" d="M176 0v1462h131v-1462h-131z" />
<glyph unicode="m" horiz-adv-x="1880" d="M170 0v1055h131v-189q134 213 356 213q119 0 203.5 -57.5t122.5 -167.5q142 225 381 225q167 0 262.5 -103t95.5 -294v-682h-131v649q0 48 -5.5 88t-21 81.5t-41.5 69.5t-70 46t-103 18q-146 0 -242 -102.5t-96 -261.5v-588h-131v649q0 49 -5.5 89.5t-21.5 81.5t-42.5 69 t-71 45.5t-103.5 17.5q-146 0 -241 -102t-95 -262v-588h-131z" />
<glyph unicode="n" horiz-adv-x="1210" d="M170 0v1055h131v-193q141 217 377 217q171 0 273 -105.5t102 -299.5v-674h-131v643q0 309 -260 309q-156 0 -258.5 -104.5t-102.5 -267.5v-580h-131z" />
<glyph unicode="o" horiz-adv-x="1210" d="M100 526q0 158 60.5 283t176 197.5t267.5 72.5q229 0 367.5 -156t138.5 -397q0 -156 -61 -280.5t-177 -197.5t-268 -73t-267.5 73t-176 197.5t-60.5 280.5zM240 526q0 -183 98 -304.5t266 -121.5t266.5 121.5t98.5 304.5q0 121 -42.5 217.5t-126.5 153.5t-196 57 t-196 -57.5t-126 -153.5t-42 -217z" />
<glyph unicode="p" horiz-adv-x="1282" d="M170 -356v1411h131v-193q141 217 393 217q222 0 355 -156t133 -395q0 -240 -133.5 -396.5t-354.5 -156.5q-250 0 -393 218v-549h-131zM301 526q0 -185 100 -304.5t277 -119.5q176 0 270 118.5t94 305.5q0 90 -22.5 166.5t-66.5 135t-114.5 91.5t-160.5 33 q-178 0 -277.5 -120.5t-99.5 -305.5z" />
<glyph unicode="q" horiz-adv-x="1282" d="M100 526q0 240 133.5 396.5t354.5 156.5q250 0 393 -217v193h131v-1411h-131v549q-142 -218 -393 -218q-222 0 -355 156t-133 395zM240 528q0 -90 22.5 -166.5t66.5 -135t114.5 -91.5t160.5 -33q178 0 277.5 120.5t99.5 305.5t-100 304.5t-277 119.5q-176 0 -270 -118.5 t-94 -305.5z" />
<glyph unicode="r" horiz-adv-x="780" d="M170 0v1055h131v-185q132 205 315 205q84 0 148 -41l-47 -116q-62 30 -123 30q-119 0 -206 -102t-87 -281v-565h-131z" />
<glyph unicode="s" horiz-adv-x="1028" d="M78 188l104 84q125 -174 346 -174q121 0 197 52t76 149q0 20 -4 37t-9.5 30t-20 25t-25 20.5t-35 17.5t-41 14.5t-52 14t-58.5 13t-69 14.5q-65 13 -112 26.5t-96 37t-79 53t-49.5 75t-19.5 103.5q0 101 56 170.5t138.5 99t182.5 29.5q127 0 230.5 -48t170.5 -118 l-94 -96q-115 139 -309 139q-65 0 -118.5 -14.5t-91.5 -53t-38 -95.5q0 -36 15.5 -64t37.5 -45.5t62 -32.5t72 -22.5t85 -18.5q44 -9 66.5 -13.5t63.5 -14.5t63 -18.5t55.5 -23t52.5 -29t41.5 -36.5t34 -46.5t19.5 -56.5t8 -69q0 -147 -110 -237.5t-302 -90.5 q-147 0 -260 56t-184 157z" />
<glyph unicode="t" horiz-adv-x="774" d="M43 934v121h186v309h131v-309h357v-121h-357v-627q0 -209 181 -209q81 0 139 43l61 -102q-84 -64 -206 -64q-190 0 -267 136q-39 68 -39 196v627h-186z" />
<glyph unicode="u" horiz-adv-x="1208" d="M156 381v674h131v-643q0 -46 6 -86t23 -82.5t44.5 -72.5t75.5 -49.5t111 -19.5q156 0 258 105t102 268v580h131v-1055h-131v193q-141 -218 -377 -218q-171 0 -272.5 106t-101.5 300z" />
<glyph unicode="v" horiz-adv-x="1064" d="M37 1055h147l351 -895l350 895h143l-428 -1055h-137z" />
<glyph unicode="w" horiz-adv-x="1574" d="M61 1055h136l239 -908l289 908h133l287 -908l239 908h129l-290 -1055h-154l-281 889l-282 -889h-154z" />
<glyph unicode="x" horiz-adv-x="1060" d="M37 0l418 551l-381 504h162l301 -410l297 410h155l-379 -504l414 -551h-162l-332 451l-333 -451h-160z" />
<glyph unicode="y" horiz-adv-x="1064" d="M35 1055h151l371 -877l328 877h141l-424 -1108q-33 -85 -62 -140t-70 -99.5t-94 -64.5t-124 -20q-112 0 -191 58l62 104q61 -41 129 -41q76 0 124 48t83 134l28 70z" />
<glyph unicode="z" horiz-adv-x="1017" d="M86 0v117l659 817h-632v121h794v-119l-659 -817h680v-119h-842z" />
<glyph unicode="{" horiz-adv-x="710" d="M51 561v119h45q201 0 201 221v223q0 167 95 260t251 93h53v-121h-69q-201 0 -201 -219v-232q0 -217 -166 -284q166 -67 166 -285v-232q0 -219 201 -219h69v-121h-53q-156 0 -251 93t-95 260v223q0 221 -201 221h-45z" />
<glyph unicode="|" horiz-adv-x="448" d="M174 -221v1683h100v-1683h-100z" />
<glyph unicode="}" horiz-adv-x="710" d="M14 -115h70q203 0 203 219v232q0 219 164 285q-164 66 -164 284v232q0 219 -203 219h-70v121h54q157 0 251.5 -93t94.5 -260v-223q0 -221 200 -221h45v-119h-45q-200 0 -200 -221v-223q0 -167 -94.5 -260t-251.5 -93h-54v121z" />
<glyph unicode="~" horiz-adv-x="1245" d="M123 578q61 58 94.5 86.5t77 57.5t83 39.5t87.5 10.5q70 0 151 -53l80 -51q63 -41 111 -41q56 0 108.5 33.5t135.5 115.5l79 -80q-61 -58 -94.5 -86.5t-77 -57.5t-83 -39.5t-87.5 -10.5q-70 0 -151 53l-80 51q-63 41 -111 41q-56 0 -107.5 -33.5t-135.5 -115.5z" />
<glyph unicode="&#xa1;" horiz-adv-x="514" d="M178 -16l43 669h72l43 -669v-295h-158v295zM178 856v199h158v-199h-158z" />
<glyph unicode="&#xa2;" d="M129 528q0 223 120.5 375t323.5 172v170h107v-168q223 -21 356 -203l-104 -79q-94 138 -252 155v-848q160 22 254 162l104 -80q-135 -184 -358 -207v-170h-107v173q-202 19 -323 171.5t-121 376.5zM268 528q0 -169 83 -286.5t222 -137.5v846q-140 -21 -222.5 -138 t-82.5 -284z" />
<glyph unicode="&#xa3;" d="M66 584v110h167q-49 121 -66 178t-17 119q0 182 128 291t324 109q284 0 451 -236l-121 -80q-55 82 -139.5 129t-194.5 47q-132 0 -217.5 -68t-85.5 -192q0 -30 5 -61t16.5 -65t20 -56t25.5 -61.5t23 -53.5h430v-110h-395q29 -77 29 -156q0 -149 -130 -293q61 25 97.5 35 t83.5 10q76 0 189 -34.5t165 -34.5q62 0 98 30t64 101l110 -62q-83 -205 -258 -205q-64 0 -200 42t-209 42q-149 0 -305 -84l-54 99q217 139 217 321q0 93 -41 189h-210z" />
<glyph unicode="&#xa4;" d="M139 262l142 139q-70 99 -70 222q0 120 70 219l-142 143l86 86l142 -143q96 71 221 71q123 0 219 -71l141 143l86 -86l-141 -141q72 -101 72 -221q0 -124 -72 -222l141 -139l-86 -88l-141 141q-98 -69 -219 -69q-123 0 -221 69l-142 -141zM324 623q0 -110 77 -187.5 t187 -77.5t187 77.5t77 187.5t-77 187t-187 77t-187 -77t-77 -187z" />
<glyph unicode="&#xa5;" d="M66 1366h170l356 -680l350 680h166l-367 -657h287v-99h-340l-31 -51v-135h371v-98h-371v-326h-143v326h-373v98h373v135l-33 51h-340v99h289z" />
<glyph unicode="&#xa6;" horiz-adv-x="452" d="M176 -221v639h100v-639h-100zM176 823v639h100v-639h-100z" />
<glyph unicode="&#xa7;" horiz-adv-x="1067" d="M76 848q0 234 147 388.5t389 154.5q190 0 324 -97l-82 -106q-93 80 -246 80q-239 0 -346 -195l205 -131q193 -123 260 -177q72 -57 119 -112q135 -156 135 -370q0 -237 -145 -392t-387 -155q-196 0 -324 96l78 107q99 -80 250 -80q237 0 346 196l-205 129q-6 4 -51 32 t-59 37.5t-54.5 36t-61 43t-52.5 41.5t-56 48.5t-45 48.5q-139 161 -139 377zM213 848q0 -169 104 -295q83 -100 318 -258l201 -135q12 73 12 119q0 163 -109 294q-49 59 -118.5 114t-196.5 144l-197 138q-14 -73 -14 -121z" />
<glyph unicode="&#xa8;" horiz-adv-x="653" d="M53 1229v135h129v-135h-129zM471 1229v135h129v-135h-129z" />
<glyph unicode="&#xa9;" horiz-adv-x="1607" d="M84 682q0 146 57.5 279.5t154 229.5t230 153t279.5 57q117 0 226.5 -36.5t198 -103t155 -154.5t103 -198t36.5 -227q0 -116 -36.5 -226t-103 -198.5t-155 -155t-198.5 -103t-226 -36.5q-146 0 -279.5 57t-230 153.5t-154 230t-57.5 278.5zM180 682q0 -169 83.5 -312.5 t227.5 -227t314 -83.5q169 0 312 83.5t225.5 227t82.5 312.5q0 170 -83 314t-226 227.5t-311 83.5q-169 0 -313 -83.5t-228 -227.5t-84 -314zM401 682q0 167 118.5 285t285.5 118q106 0 196.5 -50.5t143.5 -137.5l-82 -55q-40 67 -108.5 106t-149.5 39q-126 0 -215.5 -89.5 t-89.5 -215.5q0 -125 89.5 -214t215.5 -89q80 0 149 39.5t111 105.5l82 -53q-53 -87 -144 -138.5t-198 -51.5q-167 0 -285.5 117.5t-118.5 283.5z" />
<glyph unicode="&#xaa;" horiz-adv-x="888" d="M104 881q0 47 16 83t39 57t58.5 35.5t62.5 20.5t62 10q4 0 12.5 1.5t12.5 1.5q41 4 64.5 7.5t54 10.5t46.5 16.5t27.5 25t11.5 36.5q0 51 -47.5 73.5t-117.5 22.5q-118 0 -209 -70l-62 72q127 94 268 94q126 0 197.5 -54t71.5 -161v-319q0 -39 12.5 -55.5t42.5 -16.5 q22 0 45 10l16 -86q-28 -12 -73 -12q-119 0 -135 102q-85 -108 -244 -108q-102 0 -167 55.5t-65 147.5zM205 887q0 -57 43 -86t108 -29q90 0 154.5 47t64.5 139v107q-21 -21 -52.5 -34t-53 -17t-86.5 -13l-25 -4q-74 -10 -113.5 -34t-39.5 -76z" />
<glyph unicode="&#xab;" horiz-adv-x="915" d="M72 508v41l280 385l90 -70l-256 -336l256 -335l-90 -70zM434 508v41l281 385l90 -70l-256 -336l256 -335l-90 -70z" />
<glyph unicode="&#xac;" horiz-adv-x="1196" d="M123 563v119h944v-530h-119v411h-825z" />
<glyph unicode="&#xad;" horiz-adv-x="792" d="M135 516v119h522v-119h-522z" />
<glyph unicode="&#xae;" horiz-adv-x="933" d="M88 1010q0 157 111 268t268 111t268 -111t111 -268t-111 -268t-268 -111t-268 111t-111 268zM137 1010q0 -136 96.5 -233t233.5 -97t233.5 97t96.5 233t-96.5 232.5t-233.5 96.5t-233.5 -96.5t-96.5 -232.5zM322 815v393h174q54 0 90.5 -33.5t36.5 -87.5 q0 -39 -22.5 -69.5t-59.5 -42.5l96 -160h-68l-88 152h-102v-152h-57zM379 1020h121q25 0 44 19t19 48t-19 48.5t-44 19.5h-121v-135z" />
<glyph unicode="&#xaf;" horiz-adv-x="653" d="M33 1262v102h592v-102h-592z" />
<glyph unicode="&#xb0;" horiz-adv-x="784" d="M92 1087q0 125 88.5 213.5t212.5 88.5q123 0 211 -89t88 -213q0 -123 -88 -211t-211 -88q-124 0 -212.5 88t-88.5 211zM188 1087q0 -82 61 -142t144 -60t143 60t60 142q0 83 -60 144t-143 61t-144 -61t-61 -144z" />
<glyph unicode="&#xb1;" d="M113 686v119h411v414h121v-414h412v-119h-412v-412h-121v412h-411zM115 0v119h944v-119h-944z" />
<glyph unicode="&#xb2;" horiz-adv-x="761" d="M57 1411q121 160 303 160q131 0 215 -70t84 -192q0 -42 -7 -75.5t-29.5 -72t-47 -69.5t-79 -81.5t-104 -93.5t-142.5 -120h444v-103h-612v88q270 222 367.5 328t97.5 193q0 75 -57 118t-136 43q-66 0 -121.5 -30.5t-89.5 -79.5z" />
<glyph unicode="&#xb3;" horiz-adv-x="776" d="M59 850l107 47q64 -113 221 -113q89 0 141 44.5t52 113.5q0 65 -43.5 101t-122.5 36h-113v105h107q55 0 102 35t47 104t-54.5 105t-135.5 36q-136 0 -209 -98l-84 64q110 141 301 141q127 0 209 -62.5t82 -169.5q0 -133 -109 -192q50 -17 81.5 -54t42.5 -75.5t11 -81.5 q0 -115 -86.5 -186.5t-218.5 -71.5q-233 0 -328 172z" />
<glyph unicode="&#xb4;" horiz-adv-x="653" d="M213 1247q50 50 102 117.5t82 120.5l142 -23q-29 -65 -106.5 -143t-164.5 -131z" />
<glyph unicode="&#x3bc;" d="M143 -356v1411h131v-629q0 -158 66.5 -241t196.5 -83q146 0 241.5 99t95.5 274v580h132v-830q0 -66 18 -97.5t63 -31.5q42 0 58 13l18 -109q-36 -16 -94 -16q-83 0 -137 49t-55 139q-65 -100 -154 -148.5t-186 -48.5q-90 0 -159.5 37t-103.5 97v-465h-131z" />
<glyph unicode="&#xb5;" d="M143 -356v1411h131v-629q0 -158 66.5 -241t196.5 -83q146 0 241.5 99t95.5 274v580h132v-830q0 -66 18 -97.5t63 -31.5q42 0 58 13l18 -109q-36 -16 -94 -16q-83 0 -137 49t-55 139q-65 -100 -154 -148.5t-186 -48.5q-90 0 -159.5 37t-103.5 97v-465h-131z" />
<glyph unicode="&#xb6;" horiz-adv-x="1124" d="M74 956q0 183 117.5 295.5t289.5 112.5h475v-1550h-100v1464h-137v-1464h-103v735h-135q-176 0 -291.5 112t-115.5 295z" />
<glyph unicode="&#xb7;" horiz-adv-x="518" d="M154 623q0 43 31.5 75.5t74.5 32.5q42 0 73.5 -32.5t31.5 -75.5t-31 -74t-74 -31t-74.5 31t-31.5 74z" />
<glyph unicode="&#xb8;" horiz-adv-x="653" d="M123 -188q54 -54 121 -54q41 0 68.5 25t27.5 65t-29 80.5t-86 73.5l43 29q84 -31 135.5 -84.5t51.5 -122.5q0 -74 -55 -117t-134 -43q-93 0 -143 47v101z" />
<glyph unicode="&#xb9;" horiz-adv-x="647" d="M68 1444q195 42 268 110h82v-757h200v-103h-534v103h225v620q-35 -19 -98 -35t-127 -24z" />
<glyph unicode="&#xba;" horiz-adv-x="856" d="M94 1030q0 154 90.5 252t243.5 98q151 0 242.5 -98.5t91.5 -251.5q0 -151 -91.5 -250.5t-242.5 -99.5q-152 0 -243 99.5t-91 250.5zM197 1030q0 -108 62.5 -180t168.5 -72t167.5 72t61.5 180q0 109 -61.5 180.5t-167.5 71.5t-168.5 -71.5t-62.5 -180.5z" />
<glyph unicode="&#xbb;" horiz-adv-x="915" d="M111 193l256 335l-256 336l90 70l280 -385v-41l-280 -385zM473 193l256 335l-256 336l90 70l281 -385v-41l-281 -385z" />
<glyph unicode="&#xbc;" horiz-adv-x="1888" d="M119 1253q193 42 268 111h82v-758h201v-102h-535v102h225v621q-35 -19 -98.5 -35.5t-126.5 -24.5zM375 0l1007 1364h103l-1008 -1364h-102zM1120 207v98q75 129 125.5 278.5t54.5 276.5h107q-4 -127 -51.5 -276t-118.5 -275h319v361h107v-361h135v-102h-135v-207h-107 v207h-436z" />
<glyph unicode="&#xbd;" horiz-adv-x="1888" d="M121 1253q193 42 268 111h82v-758h201v-102h-535v102h225v621q-35 -19 -98.5 -35.5t-126.5 -24.5zM377 0l1007 1364h103l-1008 -1364h-102zM1143 717q121 160 303 160q131 0 215 -70.5t84 -192.5q0 -42 -7 -75.5t-30 -72t-47 -69t-79 -82t-104.5 -93.5t-142.5 -120h445 v-102h-613v88q271 223 368 328t97 192q0 76 -56.5 119t-135.5 43q-66 0 -121.5 -31t-89.5 -80z" />
<glyph unicode="&#xbe;" horiz-adv-x="1888" d="M86 659l107 48q64 -113 221 -113q89 0 140.5 44.5t51.5 113.5q0 65 -43.5 101t-122.5 36h-112v104h106q55 0 102.5 35.5t47.5 104.5t-55 105t-136 36q-136 0 -209 -98l-84 63q110 141 301 141q128 0 209.5 -62.5t81.5 -168.5q0 -135 -108 -193q50 -17 81.5 -54 t42.5 -75.5t11 -81.5q0 -115 -86.5 -186.5t-218.5 -71.5q-233 0 -328 172zM395 0l1008 1364h102l-1007 -1364h-103zM1141 207v98q75 129 125.5 278.5t54.5 276.5h106q-4 -127 -51.5 -276t-118.5 -275h320v361h106v-361h136v-102h-136v-207h-106v207h-436z" />
<glyph unicode="&#xbf;" horiz-adv-x="1007" d="M117 63q0 176 119.5 286t316.5 128v178h121v-295q-29 5 -58 5q-156 0 -254 -80t-98 -215q0 -118 78 -194.5t221 -76.5q171 0 322 131l82 -102q-192 -164 -410 -164q-123 0 -222 47t-158.5 138.5t-59.5 213.5zM537 856v199h157v-199h-157z" />
<glyph unicode="&#xc0;" horiz-adv-x="1351" d="M29 0l565 1364h164l565 -1364h-162l-166 410h-649l-166 -410h-151zM401 545h541l-266 674zM432 1720l141 23q30 -52 82.5 -120t102.5 -118l-56 -59q-87 53 -164 131t-106 143z" />
<glyph unicode="&#xc1;" horiz-adv-x="1351" d="M29 0l565 1364h164l565 -1364h-162l-166 410h-649l-166 -410h-151zM401 545h541l-266 674zM594 1505q50 50 102 117.5t82 120.5l142 -23q-29 -65 -106.5 -143t-164.5 -131z" />
<glyph unicode="&#xc2;" horiz-adv-x="1351" d="M29 0l565 1364h164l565 -1364h-162l-166 410h-649l-166 -410h-151zM360 1534q132 92 258 209h111q126 -117 258 -209l-43 -76q-157 60 -270 168q-113 -107 -271 -168zM401 545h541l-266 674z" />
<glyph unicode="&#xc3;" horiz-adv-x="1351" d="M29 0l565 1364h164l565 -1364h-162l-166 410h-649l-166 -410h-151zM373 1530q28 73 75 115.5t101 42.5q44 0 134 -39t128 -39q67 0 127 73l59 -38q-28 -73 -75 -115.5t-101 -42.5q-44 0 -134 39t-128 39q-66 0 -127 -74zM401 545h541l-266 674z" />
<glyph unicode="&#xc4;" horiz-adv-x="1351" d="M29 0l565 1364h164l565 -1364h-162l-166 410h-649l-166 -410h-151zM401 545h541l-266 674zM401 1487v135h129v-135h-129zM819 1487v135h129v-135h-129z" />
<glyph unicode="&#xc5;" horiz-adv-x="1343" d="M25 0l542 1311q-45 27 -71.5 72.5t-26.5 101.5q0 85 59 145t144 60t145 -60t60 -145q0 -55 -27.5 -101t-73.5 -73l543 -1311h-162l-166 410h-649l-166 -410h-151zM397 545h541l-266 674zM553 1483q0 -51 35 -85t86 -34t85 34t34 85t-34 87t-85 36t-86 -36t-35 -87z" />
<glyph unicode="&#xc6;" horiz-adv-x="1816" d="M0 0l705 1364h989v-135h-664v-438h563v-134h-563v-522h684v-135h-831v410h-516l-211 -410h-156zM436 545h447v684h-95z" />
<glyph unicode="&#xc7;" horiz-adv-x="1363" d="M109 682q0 201 80 361.5t229.5 253t343.5 92.5q326 0 514 -252l-113 -88q-139 202 -399 202q-228 0 -365 -154t-137 -413q0 -260 137 -415.5t361 -155.5q129 0 233.5 53.5t169.5 150.5l119 -88q-85 -116 -210 -182t-281 -70q83 -63 83 -153q0 -74 -54.5 -117t-133.5 -43 q-93 0 -143 47v101q54 -54 121 -54q41 0 68.5 25t27.5 65q0 73 -82 134q-171 19 -301 114.5t-199 247t-69 338.5z" />
<glyph unicode="&#xc8;" horiz-adv-x="1261" d="M195 0v1364h940v-135h-795v-438h692v-134h-692v-522h815v-135h-960zM446 1720l142 23q30 -53 82 -120.5t102 -117.5l-55 -59q-87 53 -164.5 131t-106.5 143z" />
<glyph unicode="&#xc9;" horiz-adv-x="1261" d="M195 0v1364h940v-135h-795v-438h692v-134h-692v-522h815v-135h-960zM584 1505q50 50 102 117.5t82 120.5l141 -23q-29 -65 -106 -143t-164 -131z" />
<glyph unicode="&#xca;" horiz-adv-x="1261" d="M195 0v1364h940v-135h-795v-438h692v-134h-692v-522h815v-135h-960zM375 1534q132 92 258 209h110q126 -117 258 -209l-43 -76q-157 60 -270 168q-113 -108 -270 -168z" />
<glyph unicode="&#xcb;" horiz-adv-x="1261" d="M195 0v1364h940v-135h-795v-438h692v-134h-692v-522h815v-135h-960zM397 1487v135h129v-135h-129zM815 1487v135h129v-135h-129z" />
<glyph unicode="&#xcc;" horiz-adv-x="532" d="M33 1720l141 23q30 -53 82 -120.5t102 -117.5l-55 -59q-87 53 -164 131t-106 143zM195 0v1364h143v-1364h-143z" />
<glyph unicode="&#xcd;" horiz-adv-x="532" d="M176 1505q50 50 102 117.5t82 120.5l142 -23q-29 -65 -106.5 -143t-164.5 -131zM195 0v1364h143v-1364h-143z" />
<glyph unicode="&#xce;" horiz-adv-x="532" d="M-47 1534q132 92 258 209h111q126 -117 258 -209l-43 -76q-158 61 -271 168q-113 -108 -270 -168zM195 0v1364h143v-1364h-143z" />
<glyph unicode="&#xcf;" horiz-adv-x="532" d="M-6 1487v135h129v-135h-129zM195 0v1364h143v-1364h-143zM412 1487v135h129v-135h-129z" />
<glyph unicode="&#xd0;" horiz-adv-x="1470" d="M-37 641v121h232v602h528q202 0 346.5 -87.5t216.5 -240t72 -354.5q0 -150 -42 -275t-121 -215.5t-199.5 -141t-272.5 -50.5h-528v641h-232zM340 135h381q227 0 355 144t128 403q0 260 -128 403.5t-355 143.5h-381v-467h399v-121h-399v-506z" />
<glyph unicode="&#xd1;" horiz-adv-x="1480" d="M195 0v1364h184l768 -1163v1163h139v-1364h-168l-786 1192v-1192h-137zM453 1530q28 73 75 115.5t101 42.5q44 0 134 -39t128 -39q67 0 127 73l59 -38q-28 -73 -75 -115.5t-101 -42.5q-44 0 -134 39t-128 39q-66 0 -127 -74z" />
<glyph unicode="&#xd2;" horiz-adv-x="1523" d="M106 682q0 202 80.5 362.5t230.5 252.5t345 92t345 -92t230 -252.5t80 -362.5q0 -150 -47 -280.5t-131 -224.5t-207.5 -148t-269.5 -54q-195 0 -345 92.5t-230.5 253t-80.5 361.5zM260 682q0 -256 135.5 -412.5t366.5 -156.5q230 0 366 156.5t136 412.5q0 257 -136 413 t-366 156q-231 0 -366.5 -156t-135.5 -413zM561 1720l141 23q30 -52 82.5 -120t102.5 -118l-56 -59q-87 53 -164 131t-106 143z" />
<glyph unicode="&#xd3;" horiz-adv-x="1523" d="M106 682q0 202 80.5 362.5t230.5 252.5t345 92t345 -92t230 -252.5t80 -362.5q0 -150 -47 -280.5t-131 -224.5t-207.5 -148t-269.5 -54q-195 0 -345 92.5t-230.5 253t-80.5 361.5zM260 682q0 -256 135.5 -412.5t366.5 -156.5q230 0 366 156.5t136 412.5q0 257 -136 413 t-366 156q-231 0 -366.5 -156t-135.5 -413zM649 1505q50 50 102.5 118t82.5 120l141 -23q-29 -65 -106 -143t-164 -131z" />
<glyph unicode="&#xd4;" horiz-adv-x="1523" d="M106 682q0 202 80.5 362.5t230.5 252.5t345 92t345 -92t230 -252.5t80 -362.5q0 -150 -47 -280.5t-131 -224.5t-207.5 -148t-269.5 -54q-195 0 -345 92.5t-230.5 253t-80.5 361.5zM260 682q0 -256 135.5 -412.5t366.5 -156.5q230 0 366 156.5t136 412.5q0 257 -136 413 t-366 156q-231 0 -366.5 -156t-135.5 -413zM449 1534q132 92 258 209h110q126 -117 258 -209l-43 -76q-157 60 -270 168q-113 -108 -270 -168z" />
<glyph unicode="&#xd5;" horiz-adv-x="1523" d="M106 682q0 202 80.5 362.5t230.5 252.5t345 92t345 -92t230 -252.5t80 -362.5q0 -150 -47 -280.5t-131 -224.5t-207.5 -148t-269.5 -54q-195 0 -345 92.5t-230.5 253t-80.5 361.5zM260 682q0 -256 135.5 -412.5t366.5 -156.5q230 0 366 156.5t136 412.5q0 257 -136 413 t-366 156q-231 0 -366.5 -156t-135.5 -413zM449 1530q28 73 75 115.5t101 42.5q44 0 134 -39t128 -39q67 0 127 73l59 -38q-28 -73 -75 -115.5t-101 -42.5q-44 0 -134 39t-128 39q-66 0 -127 -74z" />
<glyph unicode="&#xd6;" horiz-adv-x="1523" d="M106 682q0 202 80.5 362.5t230.5 252.5t345 92t345 -92t230 -252.5t80 -362.5q0 -150 -47 -280.5t-131 -224.5t-207.5 -148t-269.5 -54q-195 0 -345 92.5t-230.5 253t-80.5 361.5zM260 682q0 -256 135.5 -412.5t366.5 -156.5q230 0 366 156.5t136 412.5q0 257 -136 413 t-366 156q-231 0 -366.5 -156t-135.5 -413zM487 1487v135h129v-135h-129zM905 1487v135h129v-135h-129z" />
<glyph unicode="&#xd7;" d="M139 262l365 361l-365 362l86 86l363 -364l360 364l86 -86l-362 -362l362 -361l-86 -88l-360 365l-363 -365z" />
<glyph unicode="&#xd8;" horiz-adv-x="1523" d="M106 682q0 202 80.5 362.5t230.5 252.5t345 92q204 0 360 -103l68 96l82 -57l-72 -100q104 -96 160.5 -236.5t56.5 -306.5q0 -150 -47 -280.5t-131 -224.5t-207.5 -148t-269.5 -54q-207 0 -363 103l-67 -96l-82 57l72 100q-103 96 -159.5 236.5t-56.5 306.5zM260 682 q0 -269 143 -424l639 913q-122 80 -280 80q-231 0 -366.5 -156t-135.5 -413zM479 195q121 -82 283 -82q230 0 366 156.5t136 412.5q0 265 -146 424z" />
<glyph unicode="&#xd9;" horiz-adv-x="1449" d="M178 508v856h144v-856q0 -178 108 -286.5t293 -108.5q184 0 294.5 108.5t110.5 286.5v856h144v-856q0 -238 -155.5 -385.5t-393.5 -147.5q-239 0 -392 147t-153 386zM506 1720l141 23q30 -53 82 -120.5t102 -117.5l-55 -59q-87 53 -164 131t-106 143z" />
<glyph unicode="&#xda;" horiz-adv-x="1449" d="M178 508v856h144v-856q0 -178 108 -286.5t293 -108.5q184 0 294.5 108.5t110.5 286.5v856h144v-856q0 -238 -155.5 -385.5t-393.5 -147.5q-239 0 -392 147t-153 386zM637 1505q50 50 102 117.5t82 120.5l142 -23q-29 -65 -106.5 -143t-164.5 -131z" />
<glyph unicode="&#xdb;" horiz-adv-x="1449" d="M178 508v856h144v-856q0 -178 108 -286.5t293 -108.5q184 0 294.5 108.5t110.5 286.5v856h144v-856q0 -238 -155.5 -385.5t-393.5 -147.5q-239 0 -392 147t-153 386zM412 1534q132 92 258 209h110q126 -117 258 -209l-43 -76q-157 60 -270 168q-113 -108 -270 -168z" />
<glyph unicode="&#xdc;" horiz-adv-x="1449" d="M178 508v856h144v-856q0 -178 108 -286.5t293 -108.5q184 0 294.5 108.5t110.5 286.5v856h144v-856q0 -238 -155.5 -385.5t-393.5 -147.5q-239 0 -392 147t-153 386zM451 1487v135h129v-135h-129zM868 1487v135h129v-135h-129z" />
<glyph unicode="&#xdd;" horiz-adv-x="1218" d="M16 1364h170l426 -666l428 666h164l-522 -797v-567h-147v567zM520 1505q50 50 102.5 118t82.5 120l141 -23q-29 -65 -106.5 -143t-164.5 -131z" />
<glyph unicode="&#xde;" horiz-adv-x="1282" d="M195 0v1364h143v-219h407q226 0 347.5 -110.5t121.5 -297.5t-121.5 -297t-347.5 -110h-407v-330h-143zM338 465h410q158 0 236.5 73t78.5 199t-79 199.5t-236 73.5h-410v-545z" />
<glyph unicode="&#xdf;" horiz-adv-x="1234" d="M170 0v1110q0 170 124.5 272.5t309.5 102.5q183 0 307.5 -96.5t124.5 -258.5q0 -105 -46 -179.5t-163 -137.5q156 -52 233 -156.5t77 -244.5q0 -204 -126 -320.5t-347 -116.5q-51 0 -112 11t-101 30l36 121q72 -43 181 -43q160 0 246.5 89.5t86.5 236.5q0 155 -96 232 t-262 77h-119v119h80q127 0 211 68t84 194q0 88 -43.5 147.5t-109 84t-148.5 24.5q-126 0 -213.5 -68t-87.5 -188v-1110h-127z" />
<glyph unicode="&#xe0;" horiz-adv-x="1142" d="M86 293q0 51 12.5 93.5t32.5 72t50.5 53.5t60 39t68 26.5t67.5 17.5t65 11q22 3 65 8.5t66.5 8.5t60 10t57 14.5t45.5 20t38 28t22 38t9 50.5q0 61 -41.5 101.5t-97.5 55.5t-123 15q-184 0 -328 -114l-74 98q182 139 406 139q181 0 288 -84t107 -252v-518 q0 -68 21.5 -98.5t72.5 -30.5q40 0 66 13l18 -109q-44 -16 -104 -16q-81 0 -136.5 45t-64.5 135q-130 -189 -373 -189q-163 0 -259.5 85.5t-96.5 232.5zM223 297q0 -102 67.5 -151.5t176.5 -49.5q66 0 125.5 18.5t109.5 55t79.5 99.5t29.5 145v202q-24 -29 -51.5 -49 t-65.5 -31.5t-64.5 -17t-81 -12.5t-81.5 -12q-59 -10 -97 -21t-75 -32.5t-54.5 -57t-17.5 -86.5zM328 1462l141 23q30 -53 82 -120.5t102 -117.5l-55 -59q-87 53 -164 131t-106 143z" />
<glyph unicode="&#xe1;" horiz-adv-x="1142" d="M86 293q0 51 12.5 93.5t32.5 72t50.5 53.5t60 39t68 26.5t67.5 17.5t65 11q22 3 65 8.5t66.5 8.5t60 10t57 14.5t45.5 20t38 28t22 38t9 50.5q0 61 -41.5 101.5t-97.5 55.5t-123 15q-184 0 -328 -114l-74 98q182 139 406 139q181 0 288 -84t107 -252v-518 q0 -68 21.5 -98.5t72.5 -30.5q40 0 66 13l18 -109q-44 -16 -104 -16q-81 0 -136.5 45t-64.5 135q-130 -189 -373 -189q-163 0 -259.5 85.5t-96.5 232.5zM223 297q0 -102 67.5 -151.5t176.5 -49.5q66 0 125.5 18.5t109.5 55t79.5 99.5t29.5 145v202q-24 -29 -51.5 -49 t-65.5 -31.5t-64.5 -17t-81 -12.5t-81.5 -12q-59 -10 -97 -21t-75 -32.5t-54.5 -57t-17.5 -86.5zM457 1247q50 50 102 117.5t82 120.5l141 -23q-29 -65 -106 -143t-164 -131z" />
<glyph unicode="&#xe2;" horiz-adv-x="1142" d="M86 293q0 51 12.5 93.5t32.5 72t50.5 53.5t60 39t68 26.5t67.5 17.5t65 11q22 3 65 8.5t66.5 8.5t60 10t57 14.5t45.5 20t38 28t22 38t9 50.5q0 61 -41.5 101.5t-97.5 55.5t-123 15q-184 0 -328 -114l-74 98q182 139 406 139q181 0 288 -84t107 -252v-518 q0 -68 21.5 -98.5t72.5 -30.5q40 0 66 13l18 -109q-44 -16 -104 -16q-81 0 -136.5 45t-64.5 135q-130 -189 -373 -189q-163 0 -259.5 85.5t-96.5 232.5zM219 1276q132 92 258 209h111q126 -117 258 -209l-43 -76q-158 61 -271 168q-113 -108 -270 -168zM223 297 q0 -102 67.5 -151.5t176.5 -49.5q66 0 125.5 18.5t109.5 55t79.5 99.5t29.5 145v202q-24 -29 -51.5 -49t-65.5 -31.5t-64.5 -17t-81 -12.5t-81.5 -12q-59 -10 -97 -21t-75 -32.5t-54.5 -57t-17.5 -86.5z" />
<glyph unicode="&#xe3;" horiz-adv-x="1142" d="M86 293q0 51 12.5 93.5t32.5 72t50.5 53.5t60 39t68 26.5t67.5 17.5t65 11q22 3 65 8.5t66.5 8.5t60 10t57 14.5t45.5 20t38 28t22 38t9 50.5q0 61 -41.5 101.5t-97.5 55.5t-123 15q-184 0 -328 -114l-74 98q182 139 406 139q181 0 288 -84t107 -252v-518 q0 -68 21.5 -98.5t72.5 -30.5q40 0 66 13l18 -109q-44 -16 -104 -16q-81 0 -136.5 45t-64.5 135q-130 -189 -373 -189q-163 0 -259.5 85.5t-96.5 232.5zM223 297q0 -102 67.5 -151.5t176.5 -49.5q66 0 125.5 18.5t109.5 55t79.5 99.5t29.5 145v202q-24 -29 -51.5 -49 t-65.5 -31.5t-64.5 -17t-81 -12.5t-81.5 -12q-59 -10 -97 -21t-75 -32.5t-54.5 -57t-17.5 -86.5zM225 1272q28 73 75 115.5t101 42.5q44 0 134.5 -39t128.5 -39q67 0 127 73l59 -39q-28 -73 -75 -115t-101 -42q-44 0 -134 39t-128 39q-66 0 -127 -74z" />
<glyph unicode="&#xe4;" horiz-adv-x="1142" d="M86 293q0 51 12.5 93.5t32.5 72t50.5 53.5t60 39t68 26.5t67.5 17.5t65 11q22 3 65 8.5t66.5 8.5t60 10t57 14.5t45.5 20t38 28t22 38t9 50.5q0 61 -41.5 101.5t-97.5 55.5t-123 15q-184 0 -328 -114l-74 98q182 139 406 139q181 0 288 -84t107 -252v-518 q0 -68 21.5 -98.5t72.5 -30.5q40 0 66 13l18 -109q-44 -16 -104 -16q-81 0 -136.5 45t-64.5 135q-130 -189 -373 -189q-163 0 -259.5 85.5t-96.5 232.5zM223 297q0 -102 67.5 -151.5t176.5 -49.5q66 0 125.5 18.5t109.5 55t79.5 99.5t29.5 145v202q-24 -29 -51.5 -49 t-65.5 -31.5t-64.5 -17t-81 -12.5t-81.5 -12q-59 -10 -97 -21t-75 -32.5t-54.5 -57t-17.5 -86.5zM268 1229v135h129v-135h-129zM686 1229v135h129v-135h-129z" />
<glyph unicode="&#xe5;" horiz-adv-x="1142" d="M86 293q0 51 12.5 93.5t32.5 72t50.5 53.5t60 39t68 26.5t67.5 17.5t65 11q22 3 65 8.5t66.5 8.5t60 10t57 14.5t45.5 20t38 28t22 38t9 50.5q0 61 -41.5 101.5t-97.5 55.5t-123 15q-184 0 -328 -114l-74 98q182 139 406 139q181 0 288 -84t107 -252v-518 q0 -68 21.5 -98.5t72.5 -30.5q40 0 66 13l18 -109q-44 -16 -104 -16q-81 0 -136.5 45t-64.5 135q-130 -189 -373 -189q-163 0 -259.5 85.5t-96.5 232.5zM223 297q0 -102 67.5 -151.5t176.5 -49.5q66 0 125.5 18.5t109.5 55t79.5 99.5t29.5 145v202q-24 -29 -51.5 -49 t-65.5 -31.5t-64.5 -17t-81 -12.5t-81.5 -12q-59 -10 -97 -21t-75 -32.5t-54.5 -57t-17.5 -86.5zM338 1395q0 85 60 146t145 61q84 0 143 -61t59 -146t-59 -145t-143 -60q-85 0 -145 60t-60 145zM422 1395q0 -51 35 -86t86 -35q50 0 84.5 35t34.5 86t-35 87t-84 36 q-51 0 -86 -36t-35 -87z" />
<glyph unicode="&#xe6;" horiz-adv-x="1873" d="M86 297q0 68 24 121t58.5 84.5t85.5 54t93.5 32.5t94.5 17q22 3 65 8.5t66.5 8.5t60 10t57 14.5t45.5 20t38 28t22 38t9 50.5q0 61 -41.5 101.5t-97.5 55.5t-123 15q-184 0 -328 -114l-74 98q179 139 404 139q281 0 370 -196q147 196 381 196q147 0 260 -70.5t172.5 -188 t59.5 -261.5q0 -37 -4 -61h-852q7 -183 112 -288.5t275 -105.5q190 0 319 144l93 -92q-164 -181 -410 -181q-297 0 -436 236q-135 -236 -412 -236q-174 0 -280.5 84.5t-106.5 237.5zM223 297q0 -102 67.5 -151.5t176.5 -49.5q66 0 125.5 18.5t109.5 55t79.5 99.5t29.5 145 v202q-24 -29 -51.5 -49t-65.5 -31.5t-64.5 -17t-81 -12.5t-81.5 -12q-59 -10 -97 -21t-75 -32.5t-54.5 -57t-17.5 -86.5zM936 610h713q-14 164 -114 254t-243 90q-151 0 -247.5 -96t-108.5 -248z" />
<glyph unicode="&#xe7;" horiz-adv-x="1091" d="M102 528q0 156 60.5 281t175.5 197.5t264 72.5q128 0 233 -54t175 -151l-105 -79q-109 159 -301 159q-164 0 -263 -120.5t-99 -305.5q0 -186 98 -307t260 -121q195 0 307 164l105 -80q-65 -89 -160 -144.5t-215 -62.5q84 -64 84 -153q0 -74 -55 -117t-134 -43 q-93 0 -143 47v101q54 -54 121 -54q41 0 68.5 25t27.5 65q0 73 -82 134q-193 26 -307.5 177t-114.5 369z" />
<glyph unicode="&#xe8;" horiz-adv-x="1181" d="M100 524q0 116 35.5 217t99.5 176t159.5 118.5t209.5 43.5q147 0 260 -70.5t172.5 -188t59.5 -261.5q0 -37 -4 -61h-852q7 -183 112 -288.5t275 -105.5q190 0 319 144l92 -92q-164 -181 -411 -181q-242 0 -384.5 154.5t-142.5 394.5zM244 610h712q-14 164 -113.5 254 t-242.5 90q-151 0 -247.5 -96t-108.5 -248zM379 1462l141 23q30 -52 82.5 -120t102.5 -118l-56 -59q-87 53 -164 131t-106 143z" />
<glyph unicode="&#xe9;" horiz-adv-x="1181" d="M100 524q0 116 35.5 217t99.5 176t159.5 118.5t209.5 43.5q147 0 260 -70.5t172.5 -188t59.5 -261.5q0 -37 -4 -61h-852q7 -183 112 -288.5t275 -105.5q190 0 319 144l92 -92q-164 -181 -411 -181q-242 0 -384.5 154.5t-142.5 394.5zM244 610h712q-14 164 -113.5 254 t-242.5 90q-151 0 -247.5 -96t-108.5 -248zM492 1247q50 50 102 117.5t82 120.5l141 -23q-29 -65 -106 -143t-164 -131z" />
<glyph unicode="&#xea;" horiz-adv-x="1181" d="M100 524q0 116 35.5 217t99.5 176t159.5 118.5t209.5 43.5q147 0 260 -70.5t172.5 -188t59.5 -261.5q0 -37 -4 -61h-852q7 -183 112 -288.5t275 -105.5q190 0 319 144l92 -92q-164 -181 -411 -181q-242 0 -384.5 154.5t-142.5 394.5zM244 610h712q-14 164 -113.5 254 t-242.5 90q-151 0 -247.5 -96t-108.5 -248zM283 1276q132 92 258 209h110q126 -117 258 -209l-43 -76q-157 60 -270 168q-113 -108 -270 -168z" />
<glyph unicode="&#xeb;" horiz-adv-x="1181" d="M100 524q0 116 35.5 217t99.5 176t159.5 118.5t209.5 43.5q147 0 260 -70.5t172.5 -188t59.5 -261.5q0 -37 -4 -61h-852q7 -183 112 -288.5t275 -105.5q190 0 319 144l92 -92q-164 -181 -411 -181q-242 0 -384.5 154.5t-142.5 394.5zM244 610h712q-14 164 -113.5 254 t-242.5 90q-151 0 -247.5 -96t-108.5 -248zM326 1229v135h129v-135h-129zM743 1229v135h129v-135h-129z" />
<glyph unicode="&#xec;" horiz-adv-x="471" d="M8 1462l142 23q30 -53 82 -120.5t102 -117.5l-55 -59q-87 53 -164.5 131t-106.5 143zM170 0v1055h131v-1055h-131z" />
<glyph unicode="&#xed;" horiz-adv-x="471" d="M139 1247q50 50 102.5 118t82.5 120l141 -23q-29 -65 -106 -143t-164 -131zM170 0v1055h131v-1055h-131z" />
<glyph unicode="&#xee;" horiz-adv-x="471" d="M-78 1276q132 92 258 209h111q126 -117 258 -209l-43 -76q-157 60 -270 168q-113 -107 -271 -168zM170 0v1055h131v-1055h-131z" />
<glyph unicode="&#xef;" horiz-adv-x="471" d="M4 1229v135h129v-135h-129zM170 0v1055h131v-1055h-131zM338 1229v135h129v-135h-129z" />
<glyph unicode="&#xf0;" horiz-adv-x="1241" d="M102 492q0 227 134 371.5t346 144.5q99 0 191 -36.5t157 -107.5q-79 177 -252 336l-260 -129l-35 74l225 112q-89 70 -182 119l72 109q143 -84 235 -166l244 121l35 -74l-213 -106q149 -145 236 -326t87 -391q0 -267 -135 -410q-149 -158 -377 -158q-152 0 -269 70 t-178 187t-61 260zM242 492q0 -80 22.5 -149t66.5 -123t114.5 -85t160.5 -31q92 0 165.5 30.5t120 84t71 123t24.5 150.5q0 168 -101.5 279.5t-279.5 111.5q-89 0 -160 -31.5t-115 -86t-66.5 -124t-22.5 -149.5z" />
<glyph unicode="&#xf1;" horiz-adv-x="1210" d="M170 0v1055h131v-193q141 217 377 217q171 0 273 -105.5t102 -299.5v-674h-131v643q0 309 -260 309q-156 0 -258.5 -104.5t-102.5 -267.5v-580h-131zM332 1272q28 73 75 115.5t101 42.5q44 0 134 -39t128 -39q67 0 127 73l59 -39q-28 -73 -75 -115t-101 -42 q-44 0 -134 39t-128 39q-66 0 -127 -74z" />
<glyph unicode="&#xf2;" horiz-adv-x="1210" d="M100 526q0 158 60.5 283t176 197.5t267.5 72.5q229 0 367.5 -156t138.5 -397q0 -156 -61 -280.5t-177 -197.5t-268 -73t-267.5 73t-176 197.5t-60.5 280.5zM240 526q0 -183 98 -304.5t266 -121.5t266.5 121.5t98.5 304.5q0 121 -42.5 217.5t-126.5 153.5t-196 57 t-196 -57.5t-126 -153.5t-42 -217zM385 1462l141 23q30 -52 82.5 -120t102.5 -118l-56 -59q-87 53 -164 131t-106 143z" />
<glyph unicode="&#xf3;" horiz-adv-x="1210" d="M100 526q0 158 60.5 283t176 197.5t267.5 72.5q229 0 367.5 -156t138.5 -397q0 -156 -61 -280.5t-177 -197.5t-268 -73t-267.5 73t-176 197.5t-60.5 280.5zM240 526q0 -183 98 -304.5t266 -121.5t266.5 121.5t98.5 304.5q0 121 -42.5 217.5t-126.5 153.5t-196 57 t-196 -57.5t-126 -153.5t-42 -217zM496 1247q50 50 102 117.5t82 120.5l141 -23q-29 -65 -106 -143t-164 -131z" />
<glyph unicode="&#xf4;" horiz-adv-x="1210" d="M100 526q0 158 60.5 283t176 197.5t267.5 72.5q229 0 367.5 -156t138.5 -397q0 -156 -61 -280.5t-177 -197.5t-268 -73t-267.5 73t-176 197.5t-60.5 280.5zM240 526q0 -183 98 -304.5t266 -121.5t266.5 121.5t98.5 304.5q0 121 -42.5 217.5t-126.5 153.5t-196 57 t-196 -57.5t-126 -153.5t-42 -217zM291 1276q132 92 258 209h110q123 -114 259 -209l-44 -76q-157 60 -270 168q-113 -108 -270 -168z" />
<glyph unicode="&#xf5;" horiz-adv-x="1210" d="M100 526q0 158 60.5 283t176 197.5t267.5 72.5q229 0 367.5 -156t138.5 -397q0 -156 -61 -280.5t-177 -197.5t-268 -73t-267.5 73t-176 197.5t-60.5 280.5zM240 526q0 -183 98 -304.5t266 -121.5t266.5 121.5t98.5 304.5q0 121 -42.5 217.5t-126.5 153.5t-196 57 t-196 -57.5t-126 -153.5t-42 -217zM295 1272q28 73 75 115.5t101 42.5q44 0 134 -39t128 -39q67 0 127 73l60 -39q-28 -73 -75.5 -115t-101.5 -42q-44 0 -134 39t-128 39q-66 0 -127 -74z" />
<glyph unicode="&#xf6;" horiz-adv-x="1210" d="M100 526q0 158 60.5 283t176 197.5t267.5 72.5q229 0 367.5 -156t138.5 -397q0 -156 -61 -280.5t-177 -197.5t-268 -73t-267.5 73t-176 197.5t-60.5 280.5zM240 526q0 -183 98 -304.5t266 -121.5t266.5 121.5t98.5 304.5q0 121 -42.5 217.5t-126.5 153.5t-196 57 t-196 -57.5t-126 -153.5t-42 -217zM334 1229v135h129v-135h-129zM752 1229v135h129v-135h-129z" />
<glyph unicode="&#xf7;" d="M115 563v119h944v-119h-944zM477 250q0 45 33 78.5t78 33.5q44 0 76 -33.5t32 -78.5q0 -43 -32 -76t-76 -33q-45 0 -78 33t-33 76zM477 995q0 43 33 76t78 33q44 0 76 -33t32 -76q0 -46 -32 -78t-76 -32q-46 0 -78.5 32t-32.5 78z" />
<glyph unicode="&#xf8;" horiz-adv-x="1210" d="M100 526q0 158 60.5 283t176 197.5t267.5 72.5t273 -75l49 69l84 -57l-54 -76q74 -76 114 -182.5t40 -231.5q0 -156 -61 -280.5t-177 -197.5t-268 -73q-154 0 -272 76l-47 -69l-84 57l53 76q-74 74 -114 180.5t-40 230.5zM240 526q0 -184 92 -299l469 668q-85 59 -197 59 t-196 -57.5t-126 -153.5t-42 -217zM408 158q83 -58 196 -58q168 0 266.5 121.5t98.5 304.5q0 180 -92 299z" />
<glyph unicode="&#xf9;" horiz-adv-x="1210" d="M158 381v674h131v-643q0 -46 6 -86t23 -82.5t44.5 -72.5t75.5 -49.5t111 -19.5q156 0 258 105t102 268v580h131v-1055h-131v193q-141 -218 -377 -218q-171 0 -272.5 106t-101.5 300zM356 1462l142 23q30 -53 82 -120.5t102 -117.5l-55 -59q-87 53 -164.5 131t-106.5 143z " />
<glyph unicode="&#xfa;" horiz-adv-x="1210" d="M158 381v674h131v-643q0 -46 6 -86t23 -82.5t44.5 -72.5t75.5 -49.5t111 -19.5q156 0 258 105t102 268v580h131v-1055h-131v193q-141 -218 -377 -218q-171 0 -272.5 106t-101.5 300zM537 1247q50 50 102 117.5t82 120.5l141 -23q-29 -65 -106 -143t-164 -131z" />
<glyph unicode="&#xfb;" horiz-adv-x="1210" d="M158 381v674h131v-643q0 -46 6 -86t23 -82.5t44.5 -72.5t75.5 -49.5t111 -19.5q156 0 258 105t102 268v580h131v-1055h-131v193q-141 -218 -377 -218q-171 0 -272.5 106t-101.5 300zM283 1276q132 92 258 209h110q126 -117 258 -209l-43 -76q-157 60 -270 168 q-113 -108 -270 -168z" />
<glyph unicode="&#xfc;" horiz-adv-x="1210" d="M158 381v674h131v-643q0 -46 6 -86t23 -82.5t44.5 -72.5t75.5 -49.5t111 -19.5q156 0 258 105t102 268v580h131v-1055h-131v193q-141 -218 -377 -218q-171 0 -272.5 106t-101.5 300zM326 1229v135h129v-135h-129zM743 1229v135h129v-135h-129z" />
<glyph unicode="&#xfd;" horiz-adv-x="1064" d="M35 1055h151l371 -877l328 877h141l-424 -1108q-33 -85 -62 -140t-70 -99.5t-94 -64.5t-124 -20q-112 0 -191 58l62 104q61 -41 129 -41q76 0 124 48t83 134l28 70zM453 1247q50 50 102 117.5t82 120.5l141 -23q-29 -65 -106 -143t-164 -131z" />
<glyph unicode="&#xfe;" horiz-adv-x="1282" d="M170 -356v1818h131v-600q141 217 391 217q149 0 261.5 -73t170.5 -197.5t58 -280.5q0 -157 -58 -282t-170.5 -198t-261.5 -73q-248 0 -391 218v-549h-131zM301 526q0 -185 100 -304.5t279 -119.5q117 0 200.5 57t122.5 151t39 216q0 186 -94 306t-268 120 q-121 0 -208.5 -58t-129 -153t-41.5 -215z" />
<glyph unicode="&#xff;" horiz-adv-x="1064" d="M35 1055h151l371 -877l328 877h141l-424 -1108q-33 -85 -62 -140t-70 -99.5t-94 -64.5t-124 -20q-112 0 -191 58l62 104q61 -41 129 -41q76 0 124 48t83 134l28 70zM266 1229v135h129v-135h-129zM684 1229v135h129v-135h-129z" />
<glyph unicode="&#x100;" horiz-adv-x="1351" d="M29 0l565 1364h164l565 -1364h-162l-166 410h-649l-166 -410h-151zM379 1520v102h592v-102h-592zM401 545h541l-266 674z" />
<glyph unicode="&#x101;" horiz-adv-x="1142" d="M86 293q0 51 12.5 93.5t32.5 72t50.5 53.5t60 39t68 26.5t67.5 17.5t65 11q22 3 65 8.5t66.5 8.5t60 10t57 14.5t45.5 20t38 28t22 38t9 50.5q0 61 -41.5 101.5t-97.5 55.5t-123 15q-184 0 -328 -114l-74 98q182 139 406 139q181 0 288 -84t107 -252v-518 q0 -68 21.5 -98.5t72.5 -30.5q40 0 66 13l18 -109q-44 -16 -104 -16q-81 0 -136.5 45t-64.5 135q-130 -189 -373 -189q-163 0 -259.5 85.5t-96.5 232.5zM223 297q0 -102 67.5 -151.5t176.5 -49.5q66 0 125.5 18.5t109.5 55t79.5 99.5t29.5 145v202q-24 -29 -51.5 -49 t-65.5 -31.5t-64.5 -17t-81 -12.5t-81.5 -12q-59 -10 -97 -21t-75 -32.5t-54.5 -57t-17.5 -86.5zM244 1262v102h592v-102h-592z" />
<glyph unicode="&#x102;" horiz-adv-x="1351" d="M29 0l565 1364h164l565 -1364h-162l-166 410h-649l-166 -410h-151zM371 1712l88 27q14 -63 72 -105.5t145 -42.5t145 42.5t72 105.5l88 -27q-14 -102 -97 -167.5t-208 -65.5t-208 65.5t-97 167.5zM401 545h541l-266 674z" />
<glyph unicode="&#x103;" horiz-adv-x="1142" d="M86 293q0 51 12.5 93.5t32.5 72t50.5 53.5t60 39t68 26.5t67.5 17.5t65 11q22 3 65 8.5t66.5 8.5t60 10t57 14.5t45.5 20t38 28t22 38t9 50.5q0 61 -41.5 101.5t-97.5 55.5t-123 15q-184 0 -328 -114l-74 98q182 139 406 139q181 0 288 -84t107 -252v-518 q0 -68 21.5 -98.5t72.5 -30.5q40 0 66 13l18 -109q-44 -16 -104 -16q-81 0 -136.5 45t-64.5 135q-130 -189 -373 -189q-163 0 -259.5 85.5t-96.5 232.5zM223 297q0 -102 67.5 -151.5t176.5 -49.5q66 0 125.5 18.5t109.5 55t79.5 99.5t29.5 145v202q-24 -29 -51.5 -49 t-65.5 -31.5t-64.5 -17t-81 -12.5t-81.5 -12q-59 -10 -97 -21t-75 -32.5t-54.5 -57t-17.5 -86.5zM231 1454l88 27q14 -63 72.5 -105.5t145.5 -42.5t145 42.5t72 105.5l88 -27q-14 -102 -97 -167.5t-208 -65.5t-208.5 65.5t-97.5 167.5z" />
<glyph unicode="&#x104;" horiz-adv-x="1351" d="M29 0l565 1364h164l565 -1364q-103 -17 -158 -57.5t-55 -98.5q0 -40 26 -66t72 -26q68 0 127 74v-123q-55 -59 -153 -59q-77 0 -132 42t-55 117q0 120 162 207l-164 400h-645l-168 -410h-151zM401 545h539l-264 674z" />
<glyph unicode="&#x105;" horiz-adv-x="1138" d="M86 293q0 51 12.5 93.5t32.5 72t50.5 53.5t60 39t68 26.5t67.5 17.5t65 11q22 3 65 8.5t66.5 8.5t60 10t57 14.5t45.5 20t38 28t22 38t9 50.5q0 61 -41.5 101.5t-97.5 55.5t-123 15q-184 0 -328 -114l-74 98q182 139 406 139q181 0 288 -84t107 -252v-518 q0 -68 21.5 -98.5t72.5 -30.5q40 0 66 13l18 -109q-44 -16 -104 -16q-33 0 -60 6q-61 -67 -61 -140q0 -48 27 -73t71 -25q68 0 127 74v-123q-55 -59 -153 -59q-78 0 -132.5 42.5t-54.5 123.5q0 112 115 206q-72 48 -80 148q-130 -189 -373 -189q-163 0 -259.5 85.5 t-96.5 232.5zM223 297q0 -102 67.5 -151.5t176.5 -49.5q66 0 125.5 18.5t109.5 55t79.5 99.5t29.5 145v202q-24 -29 -51.5 -49t-65.5 -31.5t-64.5 -17t-81 -12.5t-81.5 -12q-59 -10 -97 -21t-75 -32.5t-54.5 -57t-17.5 -86.5z" />
<glyph unicode="&#x106;" horiz-adv-x="1359" d="M106 682q0 150 47 280.5t131.5 224.5t207.5 148t268 54q326 0 514 -252l-113 -88q-139 202 -399 202q-228 0 -365 -154t-137 -413q0 -260 137 -415.5t361 -155.5q129 0 233.5 53.5t169.5 150.5l119 -88q-88 -121 -221 -187.5t-297 -66.5q-195 0 -345 92.5t-230.5 253 t-80.5 361.5zM645 1505q50 50 102 117.5t82 120.5l142 -23q-29 -65 -106.5 -143t-164.5 -131z" />
<glyph unicode="&#x107;" horiz-adv-x="1087" d="M100 528q0 156 60.5 281t175.5 197.5t264 72.5q128 0 233 -54t175 -151l-105 -79q-109 159 -301 159q-164 0 -263 -120.5t-99 -305.5q0 -186 98 -307t260 -121q195 0 307 164l105 -80q-70 -96 -175 -152.5t-237 -56.5q-148 0 -262.5 73t-175 198.5t-60.5 281.5zM514 1243 q93 110 148 242l141 -23q-30 -68 -92 -142t-142 -132z" />
<glyph unicode="&#x108;" horiz-adv-x="1359" d="M106 682q0 150 47 280.5t131.5 224.5t207.5 148t268 54q326 0 514 -252l-113 -88q-139 202 -399 202q-228 0 -365 -154t-137 -413q0 -260 137 -415.5t361 -155.5q129 0 233.5 53.5t169.5 150.5l119 -88q-88 -121 -221 -187.5t-297 -66.5q-195 0 -345 92.5t-230.5 253 t-80.5 361.5zM449 1534q132 92 258 209h110q126 -117 258 -209l-43 -76q-157 60 -270 168q-113 -108 -270 -168z" />
<glyph unicode="&#x109;" horiz-adv-x="1087" d="M100 528q0 156 60.5 281t175.5 197.5t264 72.5q128 0 233 -54t175 -151l-105 -79q-109 159 -301 159q-164 0 -263 -120.5t-99 -305.5q0 -186 98 -307t260 -121q195 0 307 164l105 -80q-70 -96 -175 -152.5t-237 -56.5q-148 0 -262.5 73t-175 198.5t-60.5 281.5zM291 1276 q132 92 258 209h110q123 -114 259 -209l-44 -76q-157 60 -270 168q-113 -108 -270 -168z" />
<glyph unicode="&#x10a;" horiz-adv-x="1359" d="M106 682q0 150 47 280.5t131.5 224.5t207.5 148t268 54q326 0 514 -252l-113 -88q-139 202 -399 202q-228 0 -365 -154t-137 -413q0 -260 137 -415.5t361 -155.5q129 0 233.5 53.5t169.5 150.5l119 -88q-88 -121 -221 -187.5t-297 -66.5q-195 0 -345 92.5t-230.5 253 t-80.5 361.5zM676 1487v135h129v-135h-129z" />
<glyph unicode="&#x10b;" horiz-adv-x="1087" d="M100 528q0 156 60.5 281t175.5 197.5t264 72.5q128 0 233 -54t175 -151l-105 -79q-109 159 -301 159q-164 0 -263 -120.5t-99 -305.5q0 -186 98 -307t260 -121q195 0 307 164l105 -80q-70 -96 -175 -152.5t-237 -56.5q-148 0 -262.5 73t-175 198.5t-60.5 281.5zM520 1229 v135h129v-135h-129z" />
<glyph unicode="&#x10c;" horiz-adv-x="1359" d="M106 682q0 150 47 280.5t131.5 224.5t207.5 148t268 54q326 0 514 -252l-113 -88q-139 202 -399 202q-228 0 -365 -154t-137 -413q0 -260 137 -415.5t361 -155.5q129 0 233.5 53.5t169.5 150.5l119 -88q-88 -121 -221 -187.5t-297 -66.5q-195 0 -345 92.5t-230.5 253 t-80.5 361.5zM438 1667l43 76q158 -61 271 -168q113 108 270 168l43 -76q-132 -92 -258 -209h-111q-126 117 -258 209z" />
<glyph unicode="&#x10d;" horiz-adv-x="1087" d="M100 528q0 156 60.5 281t175.5 197.5t264 72.5q128 0 233 -54t175 -151l-105 -79q-109 159 -301 159q-164 0 -263 -120.5t-99 -305.5q0 -186 98 -307t260 -121q195 0 307 164l105 -80q-70 -96 -175 -152.5t-237 -56.5q-148 0 -262.5 73t-175 198.5t-60.5 281.5zM283 1409 l43 76q157 -60 270 -168q113 108 270 168l43 -76q-132 -92 -258 -209h-110q-126 117 -258 209z" />
<glyph unicode="&#x10e;" horiz-adv-x="1468" d="M195 0v1364h514q202 0 350.5 -89.5t223.5 -242.5t75 -350q0 -146 -43.5 -270.5t-125 -216t-205 -143.5t-275.5 -52h-514zM340 135h369q237 0 366 148t129 399q0 252 -129 399.5t-366 147.5h-369v-1094zM403 1667l43 76q158 -61 271 -168q113 108 270 168l43 -76 q-132 -92 -258 -209h-110q-123 114 -259 209z" />
<glyph unicode="&#x10f;" horiz-adv-x="1308" d="M100 526q0 240 133.5 396.5t354.5 156.5q250 0 393 -217v600h131v-1462h-131v193q-142 -218 -393 -218q-222 0 -355 156t-133 395zM240 528q0 -90 22.5 -166.5t66.5 -135t114.5 -91.5t160.5 -33q178 0 277.5 120.5t99.5 305.5t-100 304.5t-277 119.5q-176 0 -270 -118.5 t-94 -305.5zM1260 1085q34 39 54.5 91.5t20.5 97.5q-1 33 -19 81t-18 77v30h148v-143q0 -153 -133 -283z" />
<glyph unicode="&#x110;" horiz-adv-x="1507" d="M2 645v121h231v598h515q202 0 350.5 -89t223.5 -241.5t75 -349.5q0 -146 -43.5 -271t-125 -217t-205 -144t-275.5 -52h-515v645h-231zM379 135h369q237 0 366 149t129 400q0 252 -128.5 398.5t-366.5 146.5h-369v-463h399v-121h-399v-510z" />
<glyph unicode="&#x111;" horiz-adv-x="1282" d="M100 526q0 157 58 282t170.5 198t261.5 73q248 0 391 -217v400h-297v102h297v98h131v-98h164v-102h-164v-1262h-131v193q-142 -218 -391 -218q-149 0 -261.5 73t-170.5 197.5t-58 280.5zM240 528q0 -186 94 -306t268 -120q121 0 208.5 58t129 153t41.5 215 q0 185 -100 304.5t-279 119.5q-117 0 -200.5 -57t-122.5 -151t-39 -216z" />
<glyph unicode="&#x112;" horiz-adv-x="1261" d="M195 0v1364h940v-135h-795v-438h692v-134h-692v-522h815v-135h-960zM385 1520v102h592v-102h-592z" />
<glyph unicode="&#x113;" horiz-adv-x="1181" d="M100 524q0 116 35.5 217t99.5 176t159.5 118.5t209.5 43.5q147 0 260 -70.5t172.5 -188t59.5 -261.5q0 -37 -4 -61h-852q7 -183 112 -288.5t275 -105.5q190 0 319 144l92 -92q-164 -181 -411 -181q-242 0 -384.5 154.5t-142.5 394.5zM244 610h712q-14 164 -113.5 254 t-242.5 90q-151 0 -247.5 -96t-108.5 -248zM307 1262v102h592v-102h-592z" />
<glyph unicode="&#x114;" horiz-adv-x="1261" d="M195 0v1364h940v-135h-795v-438h692v-134h-692v-522h815v-135h-960zM379 1712l88 27q14 -63 72 -105.5t145 -42.5t145 42.5t72 105.5l88 -27q-14 -102 -97 -167.5t-208 -65.5t-208 65.5t-97 167.5z" />
<glyph unicode="&#x115;" horiz-adv-x="1181" d="M100 524q0 116 35.5 217t99.5 176t159.5 118.5t209.5 43.5q147 0 260 -70.5t172.5 -188t59.5 -261.5q0 -37 -4 -61h-852q7 -183 112 -288.5t275 -105.5q190 0 319 144l92 -92q-164 -181 -411 -181q-242 0 -384.5 154.5t-142.5 394.5zM244 610h712q-14 164 -113.5 254 t-242.5 90q-151 0 -247.5 -96t-108.5 -248zM293 1454l88 27q14 -63 72 -105.5t145 -42.5t145 42.5t72 105.5l88 -27q-14 -102 -97 -167.5t-208 -65.5t-208 65.5t-97 167.5z" />
<glyph unicode="&#x116;" horiz-adv-x="1261" d="M195 0v1364h940v-135h-795v-438h692v-134h-692v-522h815v-135h-960zM604 1487v135h129v-135h-129z" />
<glyph unicode="&#x117;" horiz-adv-x="1181" d="M100 524q0 116 35.5 217t99.5 176t159.5 118.5t209.5 43.5q147 0 260 -70.5t172.5 -188t59.5 -261.5q0 -37 -4 -61h-852q7 -183 112 -288.5t275 -105.5q190 0 319 144l92 -92q-164 -181 -411 -181q-242 0 -384.5 154.5t-142.5 394.5zM244 610h712q-14 164 -113.5 254 t-242.5 90q-151 0 -247.5 -96t-108.5 -248zM532 1229v135h130v-135h-130z" />
<glyph unicode="&#x118;" horiz-adv-x="1261" d="M195 0v1364h940v-135h-795v-438h692v-134h-692v-522h815v-135h-154q-71 -71 -71 -150q0 -48 27 -73t71 -25q68 0 127 74v-123q-55 -59 -154 -59q-78 0 -132 42.5t-54 123.5q0 104 96 190h-716z" />
<glyph unicode="&#x119;" horiz-adv-x="1183" d="M100 524q0 116 35.5 217t99.5 176t159.5 118.5t209.5 43.5q147 0 260 -70.5t172.5 -188t59.5 -261.5q0 -37 -4 -61h-852q7 -183 112 -288.5t275 -105.5q190 0 319 144l92 -92q-51 -57 -112 -97q-142 -96 -142 -209q0 -48 27 -73t72 -25q68 0 127 74v-123 q-55 -59 -154 -59q-78 0 -132 42.5t-54 123.5q0 97 84 178q-67 -13 -127 -13q-242 0 -384.5 154.5t-142.5 394.5zM244 610h712q-14 164 -113.5 254t-242.5 90q-151 0 -247.5 -96t-108.5 -248z" />
<glyph unicode="&#x11a;" horiz-adv-x="1261" d="M195 0v1364h940v-135h-795v-438h692v-134h-692v-522h815v-135h-960zM373 1667l43 76q157 -60 270 -168q113 108 270 168l43 -76q-132 -92 -258 -209h-110q-126 117 -258 209z" />
<glyph unicode="&#x11b;" horiz-adv-x="1181" d="M100 524q0 116 35.5 217t99.5 176t159.5 118.5t209.5 43.5q147 0 260 -70.5t172.5 -188t59.5 -261.5q0 -37 -4 -61h-852q7 -183 112 -288.5t275 -105.5q190 0 319 144l92 -92q-164 -181 -411 -181q-242 0 -384.5 154.5t-142.5 394.5zM244 610h712q-14 164 -113.5 254 t-242.5 90q-151 0 -247.5 -96t-108.5 -248zM285 1409l43 76q157 -60 270 -168q113 108 270 168l43 -76q-132 -92 -258 -209h-110q-126 117 -258 209z" />
<glyph unicode="&#x11c;" horiz-adv-x="1472" d="M106 684q0 202 80.5 362t230.5 251.5t345 91.5q163 0 293 -66t219 -186l-115 -86q-66 95 -168.5 147.5t-232.5 52.5q-228 0 -363 -155.5t-135 -411.5t135.5 -413.5t366.5 -157.5q198 0 327.5 118.5t141.5 317.5h-422v135h567q6 -37 6 -86q0 -126 -42 -238.5t-119.5 -198 t-195.5 -136t-261 -50.5q-196 0 -347 93t-231 254t-80 362zM442 1540q132 92 258 209h111q126 -117 258 -209l-43 -76q-157 60 -270 168q-113 -107 -271 -168z" />
<glyph unicode="&#x11d;" horiz-adv-x="1286" d="M104 559q0 228 138 374t350 146q124 0 228.5 -54.5t166.5 -162.5v193h131v-899q0 -242 -110 -369q-140 -164 -428 -164q-252 0 -433 131l80 111q157 -115 359 -115q87 0 158.5 22.5t126.5 67.5t85.5 120.5t30.5 174.5v129q-62 -108 -171 -162.5t-234 -54.5 q-210 0 -344 144.5t-134 367.5zM244 563q0 -168 94.5 -279.5t271.5 -111.5t278 111.5t101 279.5q0 167 -100 277t-279 110q-91 0 -162 -31t-115 -84.5t-66.5 -122.5t-22.5 -149zM299 1276q132 92 258 209h111q126 -117 258 -209l-43 -76q-158 61 -271 168 q-113 -108 -270 -168z" />
<glyph unicode="&#x11e;" horiz-adv-x="1472" d="M106 684q0 202 80.5 362t230.5 251.5t345 91.5q163 0 293 -66t219 -186l-115 -86q-66 95 -168.5 147.5t-232.5 52.5q-228 0 -363 -155.5t-135 -411.5t135.5 -413.5t366.5 -157.5q198 0 327.5 118.5t141.5 317.5h-422v135h567q6 -37 6 -86q0 -126 -42 -238.5t-119.5 -198 t-195.5 -136t-261 -50.5q-196 0 -347 93t-231 254t-80 362zM455 1718l88 27q14 -63 72 -105.5t145 -42.5t145 42.5t72 105.5l88 -27q-14 -102 -97 -167.5t-208 -65.5t-208 65.5t-97 167.5z" />
<glyph unicode="&#x11f;" horiz-adv-x="1286" d="M104 559q0 228 138 374t350 146q124 0 228.5 -54.5t166.5 -162.5v193h131v-899q0 -242 -110 -369q-140 -164 -428 -164q-252 0 -433 131l80 111q157 -115 359 -115q87 0 158.5 22.5t126.5 67.5t85.5 120.5t30.5 174.5v129q-62 -108 -171 -162.5t-234 -54.5 q-210 0 -344 144.5t-134 367.5zM244 563q0 -168 94.5 -279.5t271.5 -111.5t278 111.5t101 279.5q0 167 -100 277t-279 110q-91 0 -162 -31t-115 -84.5t-66.5 -122.5t-22.5 -149zM309 1454l88 27q14 -63 72 -105.5t145 -42.5t145 42.5t72 105.5l89 -27q-14 -102 -97.5 -167.5 t-208.5 -65.5t-208 65.5t-97 167.5z" />
<glyph unicode="&#x120;" horiz-adv-x="1472" d="M106 684q0 202 80.5 362t230.5 251.5t345 91.5q163 0 293 -66t219 -186l-115 -86q-66 95 -168.5 147.5t-232.5 52.5q-228 0 -363 -155.5t-135 -411.5t135.5 -413.5t366.5 -157.5q198 0 327.5 118.5t141.5 317.5h-422v135h567q6 -37 6 -86q0 -126 -42 -238.5t-119.5 -198 t-195.5 -136t-261 -50.5q-196 0 -347 93t-231 254t-80 362zM696 1493v135h129v-135h-129z" />
<glyph unicode="&#x121;" horiz-adv-x="1286" d="M104 559q0 228 138 374t350 146q124 0 228.5 -54.5t166.5 -162.5v193h131v-899q0 -242 -110 -369q-140 -164 -428 -164q-252 0 -433 131l80 111q157 -115 359 -115q87 0 158.5 22.5t126.5 67.5t85.5 120.5t30.5 174.5v129q-62 -108 -171 -162.5t-234 -54.5 q-210 0 -344 144.5t-134 367.5zM244 563q0 -168 94.5 -279.5t271.5 -111.5t278 111.5t101 279.5q0 167 -100 277t-279 110q-91 0 -162 -31t-115 -84.5t-66.5 -122.5t-22.5 -149zM547 1229v135h129v-135h-129z" />
<glyph unicode="&#x122;" horiz-adv-x="1472" d="M106 684q0 202 80.5 362t230.5 251.5t345 91.5q163 0 293 -66t219 -186l-115 -86q-66 95 -168.5 147.5t-232.5 52.5q-228 0 -363 -155.5t-135 -411.5t135.5 -413.5t366.5 -157.5q198 0 327.5 118.5t141.5 317.5h-422v135h567q6 -37 6 -86q0 -126 -42 -238.5t-119.5 -198 t-195.5 -136t-261 -50.5q-196 0 -347 93t-231 254t-80 362zM578 -356q85 104 143 243l139 -22q-30 -68 -91 -143t-136 -132z" />
<glyph unicode="&#x123;" horiz-adv-x="1286" d="M104 559q0 228 138 374t350 146q124 0 228.5 -54.5t166.5 -162.5v193h131v-899q0 -242 -110 -369q-140 -164 -428 -164q-252 0 -433 131l80 111q157 -115 359 -115q87 0 158.5 22.5t126.5 67.5t85.5 120.5t30.5 174.5v129q-62 -108 -171 -162.5t-234 -54.5 q-210 0 -344 144.5t-134 367.5zM244 563q0 -168 94.5 -279.5t271.5 -111.5t278 111.5t101 279.5q0 167 -100 277t-279 110q-91 0 -162 -31t-115 -84.5t-66.5 -122.5t-22.5 -149zM516 1210q30 68 91 143t136 132l56 -53q-86 -106 -144 -244z" />
<glyph unicode="&#x124;" horiz-adv-x="1480" d="M195 0v1364h143v-573h805v573h143v-1364h-143v657h-805v-657h-143zM426 1540q132 92 258 209h111q126 -117 258 -209l-43 -76q-158 61 -271 168q-113 -108 -270 -168z" />
<glyph unicode="&#x125;" horiz-adv-x="1210" d="M-76 1563q132 92 258 209h111q126 -117 258 -209l-43 -76q-157 60 -270 168q-113 -107 -271 -168zM170 0v1462h131v-600q141 217 377 217q171 0 273 -105.5t102 -299.5v-674h-131v643q0 309 -260 309q-156 0 -258.5 -104.5t-102.5 -267.5v-580h-131z" />
<glyph unicode="&#x126;" horiz-adv-x="1480" d="M92 1087v93h103v184h143v-184h805v184h143v-184h103v-93h-103v-1087h-143v657h-805v-657h-143v1087h-103zM338 791h805v296h-805v-296z" />
<glyph unicode="&#x127;" horiz-adv-x="1210" d="M6 1262v102h164v98h131v-98h297v-102h-297v-400q141 217 377 217q171 0 273 -105.5t102 -299.5v-674h-131v643q0 309 -260 309q-156 0 -258.5 -104.5t-102.5 -267.5v-580h-131v1262h-164z" />
<glyph unicode="&#x128;" horiz-adv-x="532" d="M-47 1530q28 73 75 115.5t101 42.5q44 0 134 -39t128 -39q67 0 127 73l60 -38q-28 -73 -75.5 -115.5t-101.5 -42.5q-44 0 -134 39t-128 39q-66 0 -127 -74zM195 0v1364h143v-1364h-143z" />
<glyph unicode="&#x129;" horiz-adv-x="471" d="M-78 1272q28 73 75 115.5t101 42.5q44 0 134 -39t128 -39q67 0 127 73l60 -39q-28 -73 -75 -115t-101 -42q-44 0 -134 39t-128 39q-66 0 -127 -74zM170 0v1055h131v-1055h-131z" />
<glyph unicode="&#x12a;" horiz-adv-x="532" d="M-29 1524v102h592v-102h-592zM195 0v1364h143v-1364h-143z" />
<glyph unicode="&#x12b;" horiz-adv-x="471" d="M-59 1262v102h591v-102h-591zM170 0v1055h131v-1055h-131z" />
<glyph unicode="&#x12c;" horiz-adv-x="532" d="M-39 1712l88 27q14 -63 72 -105.5t145 -42.5t145 42.5t72 105.5l88 -27q-14 -102 -97 -167.5t-208 -65.5t-208 65.5t-97 167.5zM195 0v1364h143v-1364h-143z" />
<glyph unicode="&#x12d;" horiz-adv-x="471" d="M-70 1454l88 27q14 -63 72.5 -105.5t145.5 -42.5t145 42.5t72 105.5l88 -27q-14 -102 -97 -167.5t-208 -65.5t-208.5 65.5t-97.5 167.5zM170 0v1055h131v-1055h-131z" />
<glyph unicode="&#x12e;" horiz-adv-x="532" d="M61 -195q0 54 33 105.5t101 89.5v1364h143v-1364q-24 -6 -48.5 -17.5t-53.5 -30t-47.5 -47t-18.5 -61.5q0 -41 26.5 -66.5t71.5 -25.5q67 0 125 74v-123q-55 -59 -149 -59q-76 0 -129.5 46t-53.5 115z" />
<glyph unicode="&#x12f;" horiz-adv-x="471" d="M25 -195q0 124 145 195v1055h131v-1055q-24 -6 -48.5 -17.5t-53.5 -30t-47.5 -47t-18.5 -61.5q0 -41 26.5 -66.5t71.5 -25.5q67 0 125 74v-123q-55 -59 -149 -59q-76 0 -129 45.5t-53 115.5zM170 1298v164h131v-164h-131z" />
<glyph unicode="&#x130;" horiz-adv-x="532" d="M195 0v1364h143v-1364h-143zM203 1487v135h129v-135h-129z" />
<glyph unicode="&#x131;" horiz-adv-x="471" d="M170 0v1055h131v-1055h-131z" />
<glyph unicode="&#x134;" horiz-adv-x="980" d="M31 150l114 81q93 -118 250 -118q260 0 260 299v952h146v-952q0 -207 -115 -322t-305 -115q-229 0 -350 175zM414 1534q132 92 258 209h110q126 -117 258 -209l-43 -76q-157 60 -270 168q-113 -108 -270 -168z" />
<glyph unicode="&#x135;" horiz-adv-x="471" d="M-186 -350l34 119q51 -21 107 -21q116 0 165.5 61t49.5 175v1071h131v-1067q0 -179 -94.5 -270t-255.5 -91q-74 0 -137 23zM-78 1276q132 92 258 209h111q126 -117 258 -209l-43 -76q-157 60 -270 168q-113 -107 -271 -168z" />
<glyph unicode="&#x136;" horiz-adv-x="1280" d="M195 0v1364h143v-780l713 780h176l-541 -588l594 -776h-182l-508 674l-252 -277v-397h-143zM508 -356q85 104 143 243l140 -22q-30 -68 -91.5 -143t-136.5 -132z" />
<glyph unicode="&#x137;" horiz-adv-x="1122" d="M170 0v1462h131v-991l578 584h174l-441 -439l500 -616h-174l-420 530l-217 -217v-313h-131zM428 -356q85 104 143 243l140 -22q-30 -68 -91.5 -143t-136.5 -132z" />
<glyph unicode="&#x138;" horiz-adv-x="1126" d="M170 0v1055h131v-584l578 584h174l-441 -439l500 -616h-174l-420 530l-217 -217v-313h-131z" />
<glyph unicode="&#x139;" horiz-adv-x="1148" d="M176 1511q50 50 102 117.5t82 120.5l142 -23q-29 -65 -106.5 -143t-164.5 -131zM195 0v1364h143v-1229h780v-135h-923z" />
<glyph unicode="&#x13a;" horiz-adv-x="483" d="M145 1554q50 50 102.5 118t82.5 120l141 -23q-29 -65 -106 -143t-164 -131zM176 0v1462h131v-1462h-131z" />
<glyph unicode="&#x13b;" horiz-adv-x="1148" d="M195 0v1364h143v-1229h780v-135h-923zM489 -356q87 107 144 243l139 -22q-30 -68 -91 -143t-136 -132z" />
<glyph unicode="&#x13c;" horiz-adv-x="483" d="M35 -356q85 104 143 243l139 -22q-30 -68 -91 -143t-136 -132zM176 0v1462h131v-1462h-131z" />
<glyph unicode="&#x13d;" horiz-adv-x="1148" d="M195 0v1364h143v-1229h780v-135h-923zM512 987q35 39 55.5 91.5t20.5 97.5q-1 33 -19 80.5t-18 76.5v31h147v-143q0 -153 -133 -283z" />
<glyph unicode="&#x13e;" horiz-adv-x="528" d="M176 0v1462h131v-1462h-131zM471 1085q35 39 55.5 91.5t20.5 97.5q-1 33 -19 81t-18 77v30h147v-143q0 -153 -133 -283z" />
<glyph unicode="&#x13f;" horiz-adv-x="1148" d="M195 0v1364h143v-1229h780v-135h-923zM723 623q0 43 31.5 75.5t74.5 32.5q42 0 73.5 -32.5t31.5 -75.5t-31 -74t-74 -31t-74.5 31t-31.5 74z" />
<glyph unicode="&#x140;" horiz-adv-x="878" d="M176 0v1462h131v-1462h-131zM575 623q0 43 32 75.5t75 32.5q42 0 73 -32.5t31 -75.5t-30.5 -74t-73.5 -31t-75 31t-32 74z" />
<glyph unicode="&#x141;" horiz-adv-x="1175" d="M-18 430v121l237 115v698h146v-627l458 224v-121l-458 -224v-481h780v-135h-926v547z" />
<glyph unicode="&#x142;" horiz-adv-x="598" d="M-2 645v121l242 117v579h131v-516l245 119v-121l-245 -119v-825h-131v762z" />
<glyph unicode="&#x143;" horiz-adv-x="1480" d="M195 0v1364h184l768 -1163v1163h139v-1364h-168l-786 1192v-1192h-137zM635 1505q50 50 102 117.5t82 120.5l142 -23q-29 -65 -106.5 -143t-164.5 -131z" />
<glyph unicode="&#x144;" horiz-adv-x="1210" d="M170 0v1055h131v-193q141 217 377 217q171 0 273 -105.5t102 -299.5v-674h-131v643q0 309 -260 309q-156 0 -258.5 -104.5t-102.5 -267.5v-580h-131zM545 1243q91 108 147 242l142 -23q-30 -68 -92 -142t-142 -132z" />
<glyph unicode="&#x145;" horiz-adv-x="1480" d="M195 0v1364h184l768 -1163v1163h139v-1364h-168l-786 1192v-1192h-137zM551 -356q85 104 143 243l140 -22q-30 -68 -91.5 -143t-136.5 -132z" />
<glyph unicode="&#x146;" horiz-adv-x="1210" d="M170 0v1055h131v-193q141 217 377 217q171 0 273 -105.5t102 -299.5v-674h-131v643q0 309 -260 309q-156 0 -258.5 -104.5t-102.5 -267.5v-580h-131zM420 -356q85 104 143 243l139 -22q-30 -68 -91 -143t-136 -132z" />
<glyph unicode="&#x147;" horiz-adv-x="1480" d="M195 0v1364h184l768 -1163v1163h139v-1364h-168l-786 1192v-1192h-137zM426 1667l43 76q157 -60 270 -168q113 107 271 168l43 -76q-132 -92 -258 -209h-111q-126 117 -258 209z" />
<glyph unicode="&#x148;" horiz-adv-x="1210" d="M170 0v1055h131v-193q141 217 377 217q171 0 273 -105.5t102 -299.5v-674h-131v643q0 309 -260 309q-156 0 -258.5 -104.5t-102.5 -267.5v-580h-131zM309 1409l43 76q158 -61 271 -168q113 108 270 168l43 -76q-132 -92 -258 -209h-111q-126 117 -258 209z" />
<glyph unicode="&#x14a;" horiz-adv-x="1480" d="M195 0v1364h178l774 -1120v1120h139v-1305q0 -205 -114.5 -318.5t-299.5 -113.5q-105 0 -184 33l55 131q62 -27 131 -27q130 0 193 63.5t72 184.5l-807 1170v-1182h-137z" />
<glyph unicode="&#x14b;" horiz-adv-x="1210" d="M170 0v1055h131v-193q141 217 377 217q171 0 273 -105.5t102 -299.5v-686q0 -179 -95 -270t-256 -91q-74 0 -137 23l35 119q51 -21 107 -21q116 0 165.5 61t49.5 175v659q0 309 -260 309q-156 0 -258.5 -104.5t-102.5 -267.5v-580h-131z" />
<glyph unicode="&#x14c;" horiz-adv-x="1523" d="M106 682q0 202 80.5 362.5t230.5 252.5t345 92t345 -92t230 -252.5t80 -362.5q0 -150 -47 -280.5t-131 -224.5t-207.5 -148t-269.5 -54q-195 0 -345 92.5t-230.5 253t-80.5 361.5zM260 682q0 -256 135.5 -412.5t366.5 -156.5q230 0 366 156.5t136 412.5q0 257 -136 413 t-366 156q-231 0 -366.5 -156t-135.5 -413zM465 1520v102h592v-102h-592z" />
<glyph unicode="&#x14d;" horiz-adv-x="1210" d="M100 526q0 158 60.5 283t176 197.5t267.5 72.5q229 0 367.5 -156t138.5 -397q0 -156 -61 -280.5t-177 -197.5t-268 -73t-267.5 73t-176 197.5t-60.5 280.5zM240 526q0 -183 98 -304.5t266 -121.5t266.5 121.5t98.5 304.5q0 121 -42.5 217.5t-126.5 153.5t-196 57 t-196 -57.5t-126 -153.5t-42 -217zM309 1262v102h592v-102h-592z" />
<glyph unicode="&#x14e;" horiz-adv-x="1523" d="M106 682q0 202 80.5 362.5t230.5 252.5t345 92t345 -92t230 -252.5t80 -362.5q0 -150 -47 -280.5t-131 -224.5t-207.5 -148t-269.5 -54q-195 0 -345 92.5t-230.5 253t-80.5 361.5zM260 682q0 -256 135.5 -412.5t366.5 -156.5q230 0 366 156.5t136 412.5q0 257 -136 413 t-366 156q-231 0 -366.5 -156t-135.5 -413zM457 1712l88 27q14 -63 72 -105.5t145 -42.5t145 42.5t72 105.5l88 -27q-14 -102 -97 -167.5t-208 -65.5t-208 65.5t-97 167.5z" />
<glyph unicode="&#x14f;" horiz-adv-x="1210" d="M100 526q0 158 60.5 283t176 197.5t267.5 72.5q229 0 367.5 -156t138.5 -397q0 -156 -61 -280.5t-177 -197.5t-268 -73t-267.5 73t-176 197.5t-60.5 280.5zM240 526q0 -183 98 -304.5t266 -121.5t266.5 121.5t98.5 304.5q0 121 -42.5 217.5t-126.5 153.5t-196 57 t-196 -57.5t-126 -153.5t-42 -217zM301 1454l88 27q14 -63 72 -105.5t145 -42.5t145 42.5t72 105.5l88 -27q-14 -102 -97 -167.5t-208 -65.5t-208 65.5t-97 167.5z" />
<glyph unicode="&#x150;" horiz-adv-x="1523" d="M106 682q0 202 80.5 362.5t230.5 252.5t345 92t345 -92t230 -252.5t80 -362.5q0 -150 -47 -280.5t-131 -224.5t-207.5 -148t-269.5 -54q-195 0 -345 92.5t-230.5 253t-80.5 361.5zM260 682q0 -256 135.5 -412.5t366.5 -156.5q230 0 366 156.5t136 412.5q0 257 -136 413 t-366 156q-231 0 -366.5 -156t-135.5 -413zM537 1505q50 50 102 117.5t82 120.5l141 -23q-29 -65 -106 -143t-164 -131zM838 1505q50 50 102 117.5t82 120.5l141 -23q-29 -65 -106 -143t-164 -131z" />
<glyph unicode="&#x151;" horiz-adv-x="1210" d="M100 526q0 158 60.5 283t176 197.5t267.5 72.5q229 0 367.5 -156t138.5 -397q0 -156 -61 -280.5t-177 -197.5t-268 -73t-267.5 73t-176 197.5t-60.5 280.5zM240 526q0 -183 98 -304.5t266 -121.5t266.5 121.5t98.5 304.5q0 121 -42.5 217.5t-126.5 153.5t-196 57 t-196 -57.5t-126 -153.5t-42 -217zM385 1247q50 50 102 117.5t82 120.5l142 -23q-29 -65 -106.5 -143t-164.5 -131zM686 1247q50 50 102 117.5t82 120.5l142 -23q-29 -65 -106.5 -143t-164.5 -131z" />
<glyph unicode="&#x152;" horiz-adv-x="2027" d="M111 684q0 196 75 348.5t223.5 242t350.5 89.5h1143v-135h-738v-438h635v-134h-635v-522h758v-135h-1163q-202 0 -350.5 90t-223.5 243.5t-75 350.5zM264 684q0 -252 129.5 -400.5t366.5 -148.5h260v1094h-260q-237 0 -366.5 -147t-129.5 -398z" />
<glyph unicode="&#x153;" horiz-adv-x="2054" d="M100 526q0 158 60.5 283t176 197.5t267.5 72.5q151 0 264 -70t174 -194q62 123 174 193.5t261 70.5q221 0 356 -150t135 -378q0 -29 -4 -53h-852q7 -183 112.5 -288.5t276.5 -105.5q191 0 314 138l96 -86q-164 -181 -412 -181q-160 0 -278 70t-181 193 q-62 -122 -174 -192.5t-262 -70.5q-152 0 -267.5 73t-176 197.5t-60.5 280.5zM240 526q0 -183 98 -304.5t266 -121.5t266.5 121.5t98.5 304.5q0 121 -42.5 217.5t-126.5 153.5t-196 57t-196 -57.5t-126 -153.5t-42 -217zM1116 610h713q-14 164 -113.5 254t-242.5 90 q-151 0 -248 -96t-109 -248z" />
<glyph unicode="&#x154;" horiz-adv-x="1337" d="M195 0v1364h581q198 0 318 -104.5t120 -280.5q0 -138 -77.5 -236.5t-210.5 -140.5l325 -602h-164l-309 578h-440v-578h-143zM338 713h440q132 0 208.5 70.5t76.5 185.5q0 118 -79.5 189t-211.5 71h-434v-516zM578 1505q50 50 102 117.5t82 120.5l141 -23 q-29 -65 -106 -143t-164 -131z" />
<glyph unicode="&#x155;" horiz-adv-x="780" d="M170 0v1055h131v-185q132 205 315 205q84 0 148 -41l-47 -116q-62 30 -123 30q-119 0 -206 -102t-87 -281v-565h-131zM350 1247q50 50 102.5 118t82.5 120l141 -23q-29 -65 -106 -143t-164 -131z" />
<glyph unicode="&#x156;" horiz-adv-x="1337" d="M195 0v1364h581q198 0 318 -104.5t120 -280.5q0 -138 -77.5 -236.5t-210.5 -140.5l325 -602h-164l-309 578h-440v-578h-143zM338 713h440q132 0 208.5 70.5t76.5 185.5q0 118 -79.5 189t-211.5 71h-434v-516zM504 -356q85 104 143 243l139 -22q-30 -68 -91 -143 t-136 -132z" />
<glyph unicode="&#x157;" horiz-adv-x="780" d="M27 -356q85 104 143 243l139 -22q-30 -68 -91 -143t-136 -132zM170 0v1055h131v-185q132 205 315 205q84 0 148 -41l-47 -116q-62 30 -123 30q-119 0 -206 -102t-87 -281v-565h-131z" />
<glyph unicode="&#x158;" horiz-adv-x="1337" d="M195 0v1364h581q198 0 318 -104.5t120 -280.5q0 -138 -77.5 -236.5t-210.5 -140.5l325 -602h-164l-309 578h-440v-578h-143zM338 713h440q132 0 208.5 70.5t76.5 185.5q0 118 -79.5 189t-211.5 71h-434v-516zM356 1667l43 76q158 -61 271 -168q113 108 270 168l43 -76 q-132 -92 -258 -209h-111q-126 117 -258 209z" />
<glyph unicode="&#x159;" horiz-adv-x="780" d="M150 1409l43 76q157 -60 270 -168q113 108 270 168l43 -76q-132 -92 -258 -209h-110q-126 117 -258 209zM170 0v1055h131v-185q132 205 315 205q84 0 148 -41l-47 -116q-62 30 -123 30q-119 0 -206 -102t-87 -281v-565h-131z" />
<glyph unicode="&#x15a;" horiz-adv-x="1210" d="M80 236l125 88q68 -106 178.5 -159.5t239.5 -53.5q152 0 243.5 70t91.5 194q0 43 -11.5 76.5t-38 58.5t-54.5 42.5t-77 33t-89 26t-105 25.5q-12 3 -18 4q-74 17 -127.5 33.5t-114 47t-98.5 67.5t-63 95t-25 130q0 175 129.5 275t329.5 100q151 0 277 -60.5t212 -169.5 l-112 -86q-67 86 -166.5 133t-220.5 47q-60 0 -112 -12t-95.5 -37.5t-68.5 -70t-25 -103.5q0 -30 6 -55t20 -45.5t28 -36t41 -30t46.5 -23.5t57.5 -20.5t60.5 -18t67.5 -17.5q67 -17 108 -28t99.5 -31.5t94.5 -40t77 -50.5t63.5 -65.5t38 -82.5t15.5 -105 q0 -184 -137.5 -295t-362.5 -111q-177 0 -312.5 70.5t-215.5 190.5zM496 1505q50 50 102 117.5t82 120.5l141 -23q-29 -65 -106 -143t-164 -131z" />
<glyph unicode="&#x15b;" horiz-adv-x="1028" d="M78 188l104 84q125 -174 346 -174q121 0 197 52t76 149q0 20 -4 37t-9.5 30t-20 25t-25 20.5t-35 17.5t-41 14.5t-52 14t-58.5 13t-69 14.5q-65 13 -112 26.5t-96 37t-79 53t-49.5 75t-19.5 103.5q0 101 56 170.5t138.5 99t182.5 29.5q127 0 230.5 -48t170.5 -118 l-94 -96q-115 139 -309 139q-65 0 -118.5 -14.5t-91.5 -53t-38 -95.5q0 -36 15.5 -64t37.5 -45.5t62 -32.5t72 -22.5t85 -18.5q44 -9 66.5 -13.5t63.5 -14.5t63 -18.5t55.5 -23t52.5 -29t41.5 -36.5t34 -46.5t19.5 -56.5t8 -69q0 -147 -110 -237.5t-302 -90.5 q-147 0 -260 56t-184 157zM432 1243q93 110 148 242l141 -23q-30 -68 -92 -142t-142 -132z" />
<glyph unicode="&#x15c;" horiz-adv-x="1210" d="M80 236l125 88q68 -106 178.5 -159.5t239.5 -53.5q152 0 243.5 70t91.5 194q0 43 -11.5 76.5t-38 58.5t-54.5 42.5t-77 33t-89 26t-105 25.5q-12 3 -18 4q-74 17 -127.5 33.5t-114 47t-98.5 67.5t-63 95t-25 130q0 175 129.5 275t329.5 100q151 0 277 -60.5t212 -169.5 l-112 -86q-67 86 -166.5 133t-220.5 47q-60 0 -112 -12t-95.5 -37.5t-68.5 -70t-25 -103.5q0 -30 6 -55t20 -45.5t28 -36t41 -30t46.5 -23.5t57.5 -20.5t60.5 -18t67.5 -17.5q67 -17 108 -28t99.5 -31.5t94.5 -40t77 -50.5t63.5 -65.5t38 -82.5t15.5 -105 q0 -184 -137.5 -295t-362.5 -111q-177 0 -312.5 70.5t-215.5 190.5zM276 1534q136 95 259 209h110q126 -117 258 -209l-43 -76q-157 60 -270 168q-113 -107 -271 -168z" />
<glyph unicode="&#x15d;" horiz-adv-x="1028" d="M78 188l104 84q125 -174 346 -174q121 0 197 52t76 149q0 20 -4 37t-9.5 30t-20 25t-25 20.5t-35 17.5t-41 14.5t-52 14t-58.5 13t-69 14.5q-65 13 -112 26.5t-96 37t-79 53t-49.5 75t-19.5 103.5q0 101 56 170.5t138.5 99t182.5 29.5q127 0 230.5 -48t170.5 -118 l-94 -96q-115 139 -309 139q-65 0 -118.5 -14.5t-91.5 -53t-38 -95.5q0 -36 15.5 -64t37.5 -45.5t62 -32.5t72 -22.5t85 -18.5q44 -9 66.5 -13.5t63.5 -14.5t63 -18.5t55.5 -23t52.5 -29t41.5 -36.5t34 -46.5t19.5 -56.5t8 -69q0 -147 -110 -237.5t-302 -90.5 q-147 0 -260 56t-184 157zM201 1276q132 92 258 209h110q126 -117 258 -209l-43 -76q-157 60 -270 168q-113 -108 -270 -168z" />
<glyph unicode="&#x15e;" horiz-adv-x="1214" d="M82 236l125 88q68 -106 178.5 -159.5t239.5 -53.5q152 0 244 70t92 194q0 51 -19 89.5t-49 63.5t-81.5 45.5t-101.5 33.5t-124 30q-13 3 -19 4q-74 17 -127.5 33.5t-114 47t-98.5 67.5t-63 95t-25 130q0 175 129.5 275t329.5 100q151 0 277 -60.5t212 -169.5l-112 -86 q-67 86 -166.5 133t-220.5 47q-60 0 -112 -12t-95.5 -37.5t-68.5 -70t-25 -103.5q0 -30 6 -55t20 -45.5t28 -36t41 -30t46.5 -23.5t57.5 -20.5t60.5 -18t67.5 -17.5q67 -17 108 -28t99.5 -31.5t94.5 -40t77 -50.5t63.5 -65.5t38 -82.5t15.5 -105q0 -174 -125 -283.5 t-330 -120.5q84 -64 84 -153q0 -74 -54.5 -117t-133.5 -43q-93 0 -143 47v101q54 -54 120 -54q41 0 69 25t28 65q0 70 -80 132q-154 12 -273 79.5t-190 176.5z" />
<glyph unicode="&#x15f;" horiz-adv-x="1028" d="M76 188l104 84q125 -174 346 -174q121 0 197 52t76 149q0 20 -4 37t-9.5 30t-20 25t-25 20.5t-35 17.5t-41 14.5t-52 14t-58.5 13t-69 14.5q-65 13 -112 26.5t-96 37t-79 53t-49.5 75t-19.5 103.5q0 101 56 170.5t138.5 99t182.5 29.5q127 0 230.5 -48t170.5 -118 l-94 -96q-115 139 -309 139q-65 0 -118.5 -14.5t-91.5 -53t-38 -95.5q0 -36 15.5 -64t37.5 -45.5t62 -32.5t72 -22.5t85 -18.5q44 -9 66.5 -13.5t63.5 -14.5t63 -18.5t55.5 -23t52.5 -29t41.5 -36.5t34 -46.5t19.5 -56.5t8 -69q0 -139 -99.5 -228t-273.5 -98q86 -66 86 -153 q0 -74 -54.5 -117t-133.5 -43q-94 0 -144 47v101q54 -54 121 -54q41 0 68.5 25t27.5 65q0 71 -79 132q-249 24 -375 208z" />
<glyph unicode="&#x160;" horiz-adv-x="1210" d="M80 236l125 88q68 -106 178.5 -159.5t239.5 -53.5q152 0 243.5 70t91.5 194q0 43 -11.5 76.5t-38 58.5t-54.5 42.5t-77 33t-89 26t-105 25.5q-12 3 -18 4q-74 17 -127.5 33.5t-114 47t-98.5 67.5t-63 95t-25 130q0 175 129.5 275t329.5 100q151 0 277 -60.5t212 -169.5 l-112 -86q-67 86 -166.5 133t-220.5 47q-60 0 -112 -12t-95.5 -37.5t-68.5 -70t-25 -103.5q0 -30 6 -55t20 -45.5t28 -36t41 -30t46.5 -23.5t57.5 -20.5t60.5 -18t67.5 -17.5q67 -17 108 -28t99.5 -31.5t94.5 -40t77 -50.5t63.5 -65.5t38 -82.5t15.5 -105 q0 -184 -137.5 -295t-362.5 -111q-177 0 -312.5 70.5t-215.5 190.5zM289 1667l43 76q157 -60 270 -168q113 108 270 168l43 -76q-132 -92 -258 -209h-110q-126 117 -258 209z" />
<glyph unicode="&#x161;" horiz-adv-x="1028" d="M78 188l104 84q125 -174 346 -174q121 0 197 52t76 149q0 20 -4 37t-9.5 30t-20 25t-25 20.5t-35 17.5t-41 14.5t-52 14t-58.5 13t-69 14.5q-65 13 -112 26.5t-96 37t-79 53t-49.5 75t-19.5 103.5q0 101 56 170.5t138.5 99t182.5 29.5q127 0 230.5 -48t170.5 -118 l-94 -96q-115 139 -309 139q-65 0 -118.5 -14.5t-91.5 -53t-38 -95.5q0 -36 15.5 -64t37.5 -45.5t62 -32.5t72 -22.5t85 -18.5q44 -9 66.5 -13.5t63.5 -14.5t63 -18.5t55.5 -23t52.5 -29t41.5 -36.5t34 -46.5t19.5 -56.5t8 -69q0 -147 -110 -237.5t-302 -90.5 q-147 0 -260 56t-184 157zM197 1409l43 76q157 -60 270 -168q113 108 270 168l43 -76q-132 -92 -258 -209h-110q-126 117 -258 209z" />
<glyph unicode="&#x21a;" horiz-adv-x="1196" d="M47 1229v135h1102v-135h-479v-1229h-146v1229h-477zM383 -356q85 104 143 243l140 -22q-30 -68 -91.5 -143t-136.5 -132z" />
<glyph unicode="&#x162;" horiz-adv-x="1196" d="M47 1229v135h1102v-135h-479v-1229h-146v1229h-477zM383 -356q85 104 143 243l140 -22q-30 -68 -91.5 -143t-136.5 -132z" />
<glyph unicode="&#x21b;" horiz-adv-x="778" d="M45 934v121h186v309h131v-309h357v-121h-357v-627q0 -209 181 -209q81 0 139 43l61 -102q-84 -64 -206 -64q-190 0 -267 136q-39 68 -39 196v627h-186zM274 -356q87 107 144 243l139 -22q-30 -68 -91 -143t-136 -132z" />
<glyph unicode="&#x163;" horiz-adv-x="778" d="M45 934v121h186v309h131v-309h357v-121h-357v-627q0 -209 181 -209q81 0 139 43l61 -102q-84 -64 -206 -64q-190 0 -267 136q-39 68 -39 196v627h-186zM274 -356q87 107 144 243l139 -22q-30 -68 -91 -143t-136 -132z" />
<glyph unicode="&#x164;" horiz-adv-x="1200" d="M49 1229v135h1102v-135h-479v-1229h-146v1229h-477zM285 1667l43 76q157 -60 270 -168q113 108 270 168l43 -76q-132 -92 -258 -209h-110q-126 117 -258 209z" />
<glyph unicode="&#x165;" horiz-adv-x="774" d="M43 934v121h186v309h131v-309h357v-121h-357v-627q0 -209 181 -209q81 0 139 43l61 -102q-84 -64 -206 -64q-190 0 -267 136q-39 68 -39 196v627h-186zM551 1192q33 35 53.5 82.5t20.5 87.5q-1 30 -19 73.5t-18 69.5v29h143v-131q0 -140 -129 -256z" />
<glyph unicode="&#x166;" horiz-adv-x="1200" d="M49 1229v135h1102v-135h-479v-451h223v-102h-223v-676h-146v676h-223v102h223v451h-477z" />
<glyph unicode="&#x167;" horiz-adv-x="774" d="M43 557v102h186v275h-186v121h186v309h131v-309h357v-121h-357v-275h275v-102h-275v-250q0 -209 181 -209q81 0 139 43l61 -102q-84 -64 -206 -64q-190 0 -267 136q-39 68 -39 196v250h-186z" />
<glyph unicode="&#x168;" horiz-adv-x="1449" d="M178 508v856h144v-856q0 -178 108 -286.5t293 -108.5q184 0 294.5 108.5t110.5 286.5v856h144v-856q0 -238 -155.5 -385.5t-393.5 -147.5q-239 0 -392 147t-153 386zM412 1530q28 73 75 115.5t101 42.5q44 0 134 -39t128 -39q67 0 127 73l59 -38q-28 -73 -75 -115.5 t-101 -42.5q-44 0 -134 39t-128 39q-66 0 -127 -74z" />
<glyph unicode="&#x169;" horiz-adv-x="1210" d="M158 381v674h131v-643q0 -46 6 -86t23 -82.5t44.5 -72.5t75.5 -49.5t111 -19.5q156 0 258 105t102 268v580h131v-1055h-131v193q-141 -218 -377 -218q-171 0 -272.5 106t-101.5 300zM289 1272q28 73 75 115.5t101 42.5q44 0 134 -39t128 -39q67 0 127 73l59 -39 q-28 -73 -75 -115t-101 -42q-44 0 -134 39t-128 39q-66 0 -127 -74z" />
<glyph unicode="&#x16a;" horiz-adv-x="1449" d="M178 508v856h144v-856q0 -178 108 -286.5t293 -108.5q184 0 294.5 108.5t110.5 286.5v856h144v-856q0 -238 -155.5 -385.5t-393.5 -147.5q-239 0 -392 147t-153 386zM428 1520v102h592v-102h-592z" />
<glyph unicode="&#x16b;" horiz-adv-x="1210" d="M158 381v674h131v-643q0 -46 6 -86t23 -82.5t44.5 -72.5t75.5 -49.5t111 -19.5q156 0 258 105t102 268v580h131v-1055h-131v193q-141 -218 -377 -218q-171 0 -272.5 106t-101.5 300zM303 1262v102h592v-102h-592z" />
<glyph unicode="&#x16c;" horiz-adv-x="1449" d="M178 508v856h144v-856q0 -178 108 -286.5t293 -108.5q184 0 294.5 108.5t110.5 286.5v856h144v-856q0 -238 -155.5 -385.5t-393.5 -147.5q-239 0 -392 147t-153 386zM420 1712l88 27q14 -63 72 -105.5t145 -42.5t145 42.5t72 105.5l88 -27q-14 -102 -97 -167.5 t-208 -65.5t-208 65.5t-97 167.5z" />
<glyph unicode="&#x16d;" horiz-adv-x="1210" d="M158 381v674h131v-643q0 -46 6 -86t23 -82.5t44.5 -72.5t75.5 -49.5t111 -19.5q156 0 258 105t102 268v580h131v-1055h-131v193q-141 -218 -377 -218q-171 0 -272.5 106t-101.5 300zM295 1454l88 27q14 -63 72 -105.5t145 -42.5t145 42.5t72 105.5l88 -27 q-14 -102 -97 -167.5t-208 -65.5t-208 65.5t-97 167.5z" />
<glyph unicode="&#x16e;" horiz-adv-x="1449" d="M178 508v856h144v-856q0 -178 108 -286.5t293 -108.5q184 0 294.5 108.5t110.5 286.5v856h144v-856q0 -238 -155.5 -385.5t-393.5 -147.5q-239 0 -392 147t-153 386zM520 1599q0 85 60 146t145 61q84 0 143.5 -61t59.5 -146t-59 -144.5t-144 -59.5t-145 59.5t-60 144.5z M604 1599q0 -51 35 -85.5t86 -34.5q50 0 84.5 34.5t34.5 85.5t-35 87t-84 36q-51 0 -86 -36t-35 -87z" />
<glyph unicode="&#x16f;" horiz-adv-x="1210" d="M158 381v674h131v-643q0 -46 6 -86t23 -82.5t44.5 -72.5t75.5 -49.5t111 -19.5q156 0 258 105t102 268v580h131v-1055h-131v193q-141 -218 -377 -218q-171 0 -272.5 106t-101.5 300zM395 1395q0 85 60 146t145 61q84 0 143.5 -61t59.5 -146t-59 -145t-144 -60t-145 60 t-60 145zM479 1395q0 -51 35 -86t86 -35q50 0 84.5 35t34.5 86t-35 87t-84 36q-51 0 -86 -36t-35 -87z" />
<glyph unicode="&#x170;" horiz-adv-x="1449" d="M178 508v856h144v-856q0 -178 108 -286.5t293 -108.5q184 0 294.5 108.5t110.5 286.5v856h144v-856q0 -238 -155.5 -385.5t-393.5 -147.5q-239 0 -392 147t-153 386zM492 1505q50 50 102 117.5t82 120.5l141 -23q-29 -65 -106 -143t-164 -131zM793 1505q50 50 102 117.5 t82 120.5l141 -23q-29 -65 -106 -143t-164 -131z" />
<glyph unicode="&#x171;" horiz-adv-x="1210" d="M158 381v674h131v-643q0 -46 6 -86t23 -82.5t44.5 -72.5t75.5 -49.5t111 -19.5q156 0 258 105t102 268v580h131v-1055h-131v193q-141 -218 -377 -218q-171 0 -272.5 106t-101.5 300zM383 1247q50 50 102 117.5t82 120.5l142 -23q-29 -65 -106.5 -143t-164.5 -131z M684 1247q50 50 102 117.5t82 120.5l142 -23q-29 -65 -106.5 -143t-164.5 -131z" />
<glyph unicode="&#x172;" horiz-adv-x="1449" d="M178 508v856h144v-856q0 -178 108 -286.5t293 -108.5q184 0 294.5 108.5t110.5 286.5v856h144v-856q0 -143 -61 -256t-169 -186q-147 -101 -147 -216q0 -48 27 -73t71 -25q68 0 127 74v-123q-55 -59 -153 -59q-78 0 -132.5 42.5t-54.5 123.5q0 100 88 182 q-80 -17 -145 -17q-239 0 -392 147t-153 386z" />
<glyph unicode="&#x173;" horiz-adv-x="1208" d="M156 381v674h131v-631q0 -150 64 -236t198 -86q154 0 256 105t102 268v580h131v-1055q-26 -8 -51 -18t-60 -29t-56 -48t-21 -63q0 -38 27 -64t71 -26q67 0 125 74v-123q-55 -59 -149 -59q-76 0 -129.5 46t-53.5 115q0 57 40 112t126 83v193q-141 -218 -377 -218 q-92 0 -164.5 32t-117.5 87.5t-68.5 128.5t-23.5 158z" />
<glyph unicode="&#x174;" horiz-adv-x="1910" d="M57 1364h150l321 -1196l359 1196h147l357 -1198l317 1198h145l-380 -1364h-168l-349 1190l-350 -1190h-172zM641 1534q132 92 258 209h111q126 -117 258 -209l-43 -76q-158 61 -271 168q-113 -108 -270 -168z" />
<glyph unicode="&#x175;" horiz-adv-x="1574" d="M61 1055h136l239 -908l289 908h133l287 -908l239 908h129l-290 -1055h-154l-281 889l-282 -889h-154zM473 1276q132 92 258 209h111q126 -117 258 -209l-43 -76q-158 61 -271 168q-113 -108 -270 -168z" />
<glyph unicode="&#x176;" horiz-adv-x="1218" d="M16 1364h170l426 -666l428 666h164l-522 -797v-567h-147v567zM297 1534q132 92 258 209h111q126 -117 258 -209l-43 -76q-158 61 -271 168q-113 -108 -270 -168z" />
<glyph unicode="&#x177;" horiz-adv-x="1064" d="M35 1055h151l371 -877l328 877h141l-424 -1108q-33 -85 -62 -140t-70 -99.5t-94 -64.5t-124 -20q-112 0 -191 58l62 104q61 -41 129 -41q76 0 124 48t83 134l28 70zM221 1276q132 92 258 209h111q126 -117 258 -209l-43 -76q-157 60 -270 168q-113 -107 -271 -168z" />
<glyph unicode="&#x178;" horiz-adv-x="1218" d="M16 1364h170l426 -666l428 666h164l-522 -797v-567h-147v567zM336 1487v135h129v-135h-129zM754 1487v135h129v-135h-129z" />
<glyph unicode="&#x179;" horiz-adv-x="1202" d="M84 0v129l834 1100h-801v135h979v-129l-834 -1100h850v-135h-1028zM481 1505q50 50 102.5 118t82.5 120l141 -23q-29 -65 -106 -143t-164 -131z" />
<glyph unicode="&#x17a;" horiz-adv-x="1017" d="M86 0v117l659 817h-632v121h794v-119l-659 -817h680v-119h-842zM432 1243q93 110 148 242l141 -23q-30 -68 -92 -142t-142 -132z" />
<glyph unicode="&#x17b;" horiz-adv-x="1202" d="M84 0v129l834 1100h-801v135h979v-129l-834 -1100h850v-135h-1028zM532 1487v135h130v-135h-130z" />
<glyph unicode="&#x17c;" horiz-adv-x="1017" d="M86 0v117l659 817h-632v121h794v-119l-659 -817h680v-119h-842zM438 1229v135h129v-135h-129z" />
<glyph unicode="&#x17d;" horiz-adv-x="1202" d="M84 0v129l834 1100h-801v135h979v-129l-834 -1100h850v-135h-1028zM266 1667l43 76q158 -61 271 -168q113 108 270 168l43 -76q-132 -92 -258 -209h-111q-126 117 -258 209z" />
<glyph unicode="&#x17e;" horiz-adv-x="1017" d="M86 0v117l659 817h-632v121h794v-119l-659 -817h680v-119h-842zM176 1409l43 76q157 -60 270 -168q113 107 271 168l43 -76q-132 -92 -258 -209h-111q-126 117 -258 209z" />
<glyph unicode="&#x192;" d="M-2 -211l41 113q54 -21 117 -21q101 0 154 50.5t71 150.5l111 653h-203l18 109h205l35 215q25 155 118.5 243.5t247.5 88.5q85 0 144 -27l-37 -115q-55 21 -109 21q-110 0 -162.5 -48.5t-70.5 -150.5l-39 -227h270l-20 -109h-268l-109 -641q-26 -154 -117.5 -243 t-247.5 -89q-80 0 -149 27z" />
<glyph unicode="&#x1fa;" horiz-adv-x="1343" d="M25 0l542 1311q-45 27 -71.5 72.5t-26.5 101.5q0 85 59 145t144 60t145 -60t60 -145q0 -55 -27.5 -101t-73.5 -73l543 -1311h-162l-166 410h-649l-166 -410h-151zM397 545h541l-266 674zM547 1782q50 50 102 117.5t82 119.5l141 -22q-29 -66 -106 -144t-164 -131z M553 1483q0 -51 35 -85t86 -34t85 34t34 85t-34 87t-85 36t-86 -36t-35 -87z" />
<glyph unicode="&#x1fb;" horiz-adv-x="1142" d="M86 293q0 51 12.5 93.5t32.5 72t50.5 53.5t60 39t68 26.5t67.5 17.5t65 11q22 3 65 8.5t66.5 8.5t60 10t57 14.5t45.5 20t38 28t22 38t9 50.5q0 61 -41.5 101.5t-97.5 55.5t-123 15q-184 0 -328 -114l-74 98q182 139 406 139q181 0 288 -84t107 -252v-518 q0 -68 21.5 -98.5t72.5 -30.5q40 0 66 13l18 -109q-44 -16 -104 -16q-81 0 -136.5 45t-64.5 135q-130 -189 -373 -189q-163 0 -259.5 85.5t-96.5 232.5zM223 297q0 -102 67.5 -151.5t176.5 -49.5q66 0 125.5 18.5t109.5 55t79.5 99.5t29.5 145v202q-24 -29 -51.5 -49 t-65.5 -31.5t-64.5 -17t-81 -12.5t-81.5 -12q-59 -10 -97 -21t-75 -32.5t-54.5 -57t-17.5 -86.5zM338 1325q0 85 60 146t145 61q84 0 143 -61t59 -146t-59 -145t-143 -60q-85 0 -145 60t-60 145zM408 1610q50 50 102 117.5t82 119.5l141 -22q-29 -66 -106 -144t-164 -131z M422 1325q0 -51 35 -86t86 -35q50 0 84.5 35t34.5 86t-35 87t-84 36q-51 0 -86 -36t-35 -87z" />
<glyph unicode="&#x1fc;" horiz-adv-x="1816" d="M0 0l705 1364h989v-135h-664v-438h563v-134h-563v-522h684v-135h-831v410h-516l-211 -410h-156zM436 545h447v684h-95zM868 1505q50 50 102.5 118t82.5 120l141 -23q-29 -65 -106 -143t-164 -131z" />
<glyph unicode="&#x1fd;" horiz-adv-x="1873" d="M86 297q0 68 24 121t58.5 84.5t85.5 54t93.5 32.5t94.5 17q22 3 65 8.5t66.5 8.5t60 10t57 14.5t45.5 20t38 28t22 38t9 50.5q0 61 -41.5 101.5t-97.5 55.5t-123 15q-184 0 -328 -114l-74 98q179 139 404 139q281 0 370 -196q147 196 381 196q147 0 260 -70.5t172.5 -188 t59.5 -261.5q0 -37 -4 -61h-852q7 -183 112 -288.5t275 -105.5q190 0 319 144l93 -92q-164 -181 -410 -181q-297 0 -436 236q-135 -236 -412 -236q-174 0 -280.5 84.5t-106.5 237.5zM223 297q0 -102 67.5 -151.5t176.5 -49.5q66 0 125.5 18.5t109.5 55t79.5 99.5t29.5 145 v202q-24 -29 -51.5 -49t-65.5 -31.5t-64.5 -17t-81 -12.5t-81.5 -12q-59 -10 -97 -21t-75 -32.5t-54.5 -57t-17.5 -86.5zM815 1247q50 50 102 117.5t82 120.5l142 -23q-29 -65 -106.5 -143t-164.5 -131zM936 610h713q-14 164 -114 254t-243 90q-151 0 -247.5 -96 t-108.5 -248z" />
<glyph unicode="&#x1fe;" horiz-adv-x="1523" d="M106 682q0 202 80.5 362.5t230.5 252.5t345 92q204 0 360 -103l68 96l82 -57l-72 -100q104 -96 160.5 -236.5t56.5 -306.5q0 -150 -47 -280.5t-131 -224.5t-207.5 -148t-269.5 -54q-207 0 -363 103l-67 -96l-82 57l72 100q-103 96 -159.5 236.5t-56.5 306.5zM260 682 q0 -269 143 -424l639 913q-122 80 -280 80q-231 0 -366.5 -156t-135.5 -413zM479 195q121 -82 283 -82q230 0 366 156.5t136 412.5q0 265 -146 424zM649 1505q50 50 102.5 118t82.5 120l141 -23q-29 -65 -106 -143t-164 -131z" />
<glyph unicode="&#x1ff;" horiz-adv-x="1210" d="M100 526q0 158 60.5 283t176 197.5t267.5 72.5t273 -75l49 69l84 -57l-54 -76q74 -76 114 -182.5t40 -231.5q0 -156 -61 -280.5t-177 -197.5t-268 -73q-154 0 -272 76l-47 -69l-84 57l53 76q-74 74 -114 180.5t-40 230.5zM240 526q0 -184 92 -299l469 668q-85 59 -197 59 t-196 -57.5t-126 -153.5t-42 -217zM408 158q83 -58 196 -58q168 0 266.5 121.5t98.5 304.5q0 180 -92 299zM496 1247q50 50 102 117.5t82 120.5l141 -23q-29 -65 -106 -143t-164 -131z" />
<glyph unicode="&#x218;" horiz-adv-x="1210" d="M80 236l125 88q68 -106 178.5 -159.5t239.5 -53.5q152 0 243.5 70t91.5 194q0 43 -11.5 76.5t-38 58.5t-54.5 42.5t-77 33t-89 26t-105 25.5q-12 3 -18 4q-74 17 -127.5 33.5t-114 47t-98.5 67.5t-63 95t-25 130q0 175 129.5 275t329.5 100q151 0 277 -60.5t212 -169.5 l-112 -86q-67 86 -166.5 133t-220.5 47q-60 0 -112 -12t-95.5 -37.5t-68.5 -70t-25 -103.5q0 -30 6 -55t20 -45.5t28 -36t41 -30t46.5 -23.5t57.5 -20.5t60.5 -18t67.5 -17.5q67 -17 108 -28t99.5 -31.5t94.5 -40t77 -50.5t63.5 -65.5t38 -82.5t15.5 -105 q0 -184 -137.5 -295t-362.5 -111q-177 0 -312.5 70.5t-215.5 190.5zM395 -356q87 107 144 243l139 -22q-30 -68 -91 -143t-136 -132z" />
<glyph unicode="&#x219;" horiz-adv-x="1026" d="M76 188l104 84q125 -174 346 -174q121 0 197 52t76 149q0 20 -4 37t-9.5 30t-20 25t-25 20.5t-35 17.5t-41 14.5t-52 14t-58.5 13t-69 14.5q-65 13 -112 26.5t-96 37t-79 53t-49.5 75t-19.5 103.5q0 101 56 170.5t138.5 99t182.5 29.5q127 0 230.5 -48t170.5 -118 l-94 -96q-115 139 -309 139q-65 0 -118.5 -14.5t-91.5 -53t-38 -95.5q0 -36 15.5 -64t37.5 -45.5t62 -32.5t72 -22.5t85 -18.5q44 -9 66.5 -13.5t63.5 -14.5t63 -18.5t55.5 -23t52.5 -29t41.5 -36.5t34 -46.5t19.5 -56.5t8 -69q0 -147 -110 -237.5t-302 -90.5 q-147 0 -260 56t-184 157zM309 -356q87 107 144 243l139 -22q-30 -68 -91 -143t-136 -132z" />
<glyph unicode="&#x237;" horiz-adv-x="471" d="M-186 -350l34 119q51 -21 107 -21q116 0 165.5 61t49.5 175v1071h131v-1067q0 -179 -94.5 -270t-255.5 -91q-74 0 -137 23z" />
<glyph unicode="&#x259;" horiz-adv-x="1181" d="M84 492q0 38 6 65h852q-7 185 -106.5 289t-264.5 104q-104 0 -186 -43t-133 -123l-107 82q72 101 181.5 157t244.5 56q151 0 268 -72t179.5 -196.5t62.5 -280.5q0 -157 -62.5 -283t-180 -199t-269.5 -73q-115 0 -209 43.5t-153 116.5t-91 165t-32 192zM217 444 q9 -146 104 -245t248 -99q154 0 250.5 90.5t116.5 253.5h-719z" />
<glyph unicode="&#x2c6;" horiz-adv-x="653" d="M20 1276q136 95 259 209h110q126 -117 258 -209l-43 -76q-157 60 -270 168q-113 -107 -271 -168z" />
<glyph unicode="&#x2c7;" horiz-adv-x="653" d="M20 1409l43 76q158 -61 271 -168q113 108 270 168l43 -76q-132 -92 -258 -209h-110q-123 114 -259 209z" />
<glyph unicode="&#x2d8;" horiz-adv-x="653" d="M29 1454l88 27q14 -63 72 -105.5t145 -42.5t145 42.5t72 105.5l88 -27q-14 -102 -97 -167.5t-208 -65.5t-208 65.5t-97 167.5z" />
<glyph unicode="&#x2d9;" horiz-adv-x="653" d="M262 1229v135h129v-135h-129z" />
<glyph unicode="&#x2da;" horiz-adv-x="653" d="M129 1395q0 85 60 146t145 61q84 0 143.5 -61t59.5 -146t-59 -145t-144 -60t-145 60t-60 145zM213 1395q0 -51 35 -86t86 -35q50 0 84.5 35t34.5 86t-35 87t-84 36q-51 0 -86 -36t-35 -87z" />
<glyph unicode="&#x2db;" horiz-adv-x="653" d="M182 -190q0 145 189 256h75q-149 -106 -149 -216q0 -48 27 -73t71 -25q68 0 127 74v-123q-55 -59 -153 -59q-78 0 -132.5 42.5t-54.5 123.5z" />
<glyph unicode="&#x2dc;" horiz-adv-x="653" d="M12 1272q28 73 75 115.5t101 42.5q44 0 134.5 -39t128.5 -39q67 0 127 73l59 -39q-28 -73 -75 -115t-101 -42q-44 0 -134 39t-128 39q-66 0 -127 -74z" />
<glyph unicode="&#x2dd;" horiz-adv-x="679" d="M74 1247q50 50 102 117.5t82 120.5l141 -23q-29 -65 -106 -143t-164 -131zM375 1247q50 50 102 117.5t82 120.5l141 -23q-29 -65 -106 -143t-164 -131z" />
<glyph unicode="&#x2206;" horiz-adv-x="1228" d="M68 0v29l534 1433h25l534 -1433v-29h-1093zM233 123h762l-381 1022z" />
<glyph unicode="&#x394;" horiz-adv-x="1228" d="M68 0v29l534 1433h25l534 -1433v-29h-1093zM233 123h762l-381 1022z" />
<glyph unicode="&#x2126;" horiz-adv-x="1269" d="M98 819q0 249 149.5 409.5t387.5 160.5t387 -160.5t149 -413.5q0 -58 -9.5 -115.5t-22.5 -103.5t-37.5 -97.5t-44 -86.5t-52.5 -82t-52.5 -72.5t-55 -70.5t-49.5 -64h307v-123h-420l-37 115q77 96 120.5 152.5t94.5 133t76 134.5t42.5 129.5t17.5 144.5q0 206 -113 333.5 t-301 127.5t-301 -127.5t-113 -333.5q0 -61 10 -118t34 -115t49.5 -106.5t71.5 -113t83.5 -113.5t101.5 -128l-36 -115h-420v123h307q-14 18 -58.5 74.5t-65 85t-58.5 84t-57.5 99t-42.5 102.5t-32.5 121.5t-9.5 129.5z" />
<glyph unicode="&#x3a9;" horiz-adv-x="1269" d="M98 819q0 249 149.5 409.5t387.5 160.5t387 -160.5t149 -413.5q0 -58 -9.5 -115.5t-22.5 -103.5t-37.5 -97.5t-44 -86.5t-52.5 -82t-52.5 -72.5t-55 -70.5t-49.5 -64h307v-123h-420l-37 115q77 96 120.5 152.5t94.5 133t76 134.5t42.5 129.5t17.5 144.5q0 206 -113 333.5 t-301 127.5t-301 -127.5t-113 -333.5q0 -61 10 -118t34 -115t49.5 -106.5t71.5 -113t83.5 -113.5t101.5 -128l-36 -115h-420v123h307q-14 18 -58.5 74.5t-65 85t-58.5 84t-57.5 99t-42.5 102.5t-32.5 121.5t-9.5 129.5z" />
<glyph unicode="&#x3c0;" horiz-adv-x="1216" d="M70 932v123h1077v-123h-143v-932h-123v932h-545v-932h-123v932h-143z" />
<glyph unicode="&#x1e80;" horiz-adv-x="1910" d="M57 1364h150l321 -1196l359 1196h147l357 -1198l317 1198h145l-380 -1364h-168l-349 1190l-350 -1190h-172zM715 1720l141 23q30 -53 82 -120.5t102 -117.5l-55 -59q-87 53 -164 131t-106 143z" />
<glyph unicode="&#x1e81;" horiz-adv-x="1574" d="M61 1055h136l239 -908l289 908h133l287 -908l239 908h129l-290 -1055h-154l-281 889l-282 -889h-154zM537 1462l141 23q30 -53 82 -120.5t102 -117.5l-55 -59q-87 53 -164 131t-106 143z" />
<glyph unicode="&#x1e82;" horiz-adv-x="1910" d="M57 1364h150l321 -1196l359 1196h147l357 -1198l317 1198h145l-380 -1364h-168l-349 1190l-350 -1190h-172zM883 1505q50 50 102 117.5t82 120.5l141 -23q-29 -65 -106 -143t-164 -131z" />
<glyph unicode="&#x1e83;" horiz-adv-x="1574" d="M61 1055h136l239 -908l289 908h133l287 -908l239 908h129l-290 -1055h-154l-281 889l-282 -889h-154zM723 1247q50 50 102 117.5t82 120.5l142 -23q-29 -65 -106.5 -143t-164.5 -131z" />
<glyph unicode="&#x1e84;" horiz-adv-x="1910" d="M57 1364h150l321 -1196l359 1196h147l357 -1198l317 1198h145l-380 -1364h-168l-349 1190l-350 -1190h-172zM682 1487v135h129v-135h-129zM1100 1487v135h129v-135h-129z" />
<glyph unicode="&#x1e85;" horiz-adv-x="1574" d="M61 1055h136l239 -908l289 908h133l287 -908l239 908h129l-290 -1055h-154l-281 889l-282 -889h-154zM514 1229v135h129v-135h-129zM932 1229v135h129v-135h-129z" />
<glyph unicode="&#x1ef2;" horiz-adv-x="1218" d="M16 1364h170l426 -666l428 666h164l-522 -797v-567h-147v567zM399 1720l142 23q30 -53 82 -120.5t102 -117.5l-55 -59q-87 53 -164.5 131t-106.5 143z" />
<glyph unicode="&#x1ef3;" horiz-adv-x="1064" d="M35 1055h151l371 -877l328 877h141l-424 -1108q-33 -85 -62 -140t-70 -99.5t-94 -64.5t-124 -20q-112 0 -191 58l62 104q61 -41 129 -41q76 0 124 48t83 134l28 70zM328 1462l141 23q30 -53 82 -120.5t102 -117.5l-55 -59q-87 53 -164 131t-106 143z" />
<glyph unicode="&#x2000;" horiz-adv-x="1009" />
<glyph unicode="&#x2001;" horiz-adv-x="2019" />
<glyph unicode="&#x2002;" horiz-adv-x="1009" />
<glyph unicode="&#x2003;" horiz-adv-x="2019" />
<glyph unicode="&#x2004;" horiz-adv-x="673" />
<glyph unicode="&#x2005;" horiz-adv-x="504" />
<glyph unicode="&#x2006;" horiz-adv-x="336" />
<glyph unicode="&#x2007;" horiz-adv-x="336" />
<glyph unicode="&#x2008;" horiz-adv-x="252" />
<glyph unicode="&#x2009;" horiz-adv-x="403" />
<glyph unicode="&#x200a;" horiz-adv-x="112" />
<glyph unicode="&#x2010;" horiz-adv-x="792" d="M135 516v119h522v-119h-522z" />
<glyph unicode="&#x2011;" horiz-adv-x="792" d="M135 516v119h522v-119h-522z" />
<glyph unicode="&#x2012;" horiz-adv-x="792" d="M135 516v119h522v-119h-522z" />
<glyph unicode="&#x2013;" d="M115 563v119h944v-119h-944z" />
<glyph unicode="&#x2014;" horiz-adv-x="1933" d="M135 563v119h1663v-119h-1663z" />
<glyph unicode="&#x2018;" horiz-adv-x="434" d="M127 934v172q0 153 133 283l53 -50q-100 -87 -100 -190v-51h90v-164h-176z" />
<glyph unicode="&#x2019;" horiz-adv-x="405" d="M115 958q100 87 100 191v51h-90v164h176v-172q0 -153 -133 -283z" />
<glyph unicode="&#x201a;" horiz-adv-x="487" d="M145 -242q101 88 101 191v51h-90v164h176v-172q0 -153 -133 -283z" />
<glyph unicode="&#x201c;" horiz-adv-x="772" d="M127 934v172q0 153 133 283l53 -50q-100 -87 -100 -190v-51h90v-164h-176zM465 934v172q0 153 133 283l53 -50q-100 -87 -100 -190v-51h90v-164h-176z" />
<glyph unicode="&#x201d;" horiz-adv-x="743" d="M115 958q100 87 100 191v51h-90v164h176v-172q0 -153 -133 -283zM453 958q100 87 100 191v51h-90v164h176v-172q0 -153 -133 -283z" />
<glyph unicode="&#x201e;" horiz-adv-x="825" d="M145 -242q101 88 101 191v51h-90v164h176v-172q0 -153 -133 -283zM483 -242q101 88 101 191v51h-90v164h176v-172q0 -153 -133 -283z" />
<glyph unicode="&#x2020;" horiz-adv-x="927" d="M74 938v117h325v309h129v-309h328v-117h-328v-938h-129v938h-325z" />
<glyph unicode="&#x2021;" horiz-adv-x="978" d="M98 311v117h326v510h-326v117h326v309h129v-309h328v-117h-328v-510h328v-117h-328v-311h-129v311h-326z" />
<glyph unicode="&#x2022;" horiz-adv-x="727" d="M113 682q0 104 74 178t178 74q103 0 176 -74t73 -178q0 -103 -73 -176.5t-176 -73.5q-104 0 -178 73.5t-74 176.5z" />
<glyph unicode="&#x2025;" horiz-adv-x="925" d="M152 0v176h176v-176h-176zM598 0v176h176v-176h-176z" />
<glyph unicode="&#x2026;" horiz-adv-x="1341" d="M152 0v176h176v-176h-176zM582 0v176h176v-176h-176zM1014 0v176h176v-176h-176z" />
<glyph unicode="&#x202f;" horiz-adv-x="403" />
<glyph unicode="&#x2030;" horiz-adv-x="2250" d="M76 1061q0 139 86 231t223 92q139 0 225 -92t86 -231q0 -144 -86 -238t-225 -94q-138 0 -223.5 94t-85.5 238zM174 1061q0 -101 57.5 -167.5t153.5 -66.5t153.5 66.5t57.5 167.5q0 97 -58 161t-153 64q-96 0 -153.5 -63.5t-57.5 -161.5zM362 0l703 1364h109l-703 -1364 h-109zM840 311q0 140 86.5 233t224.5 93q139 0 224 -92.5t85 -233.5q0 -143 -85 -236t-224 -93q-138 0 -224.5 93t-86.5 236zM940 311q0 -99 58 -165t153 -66q96 0 153.5 66t57.5 165q0 97 -58 162.5t-153 65.5t-153 -65.5t-58 -162.5zM1559 311q0 140 86.5 233t224.5 93 q139 0 224 -92.5t85 -233.5q0 -143 -85 -236t-224 -93q-138 0 -224.5 93t-86.5 236zM1659 311q0 -99 58 -165t153 -66q96 0 153.5 66t57.5 165q0 97 -58 162.5t-153 65.5t-153 -65.5t-58 -162.5z" />
<glyph unicode="&#x2039;" horiz-adv-x="552" d="M72 508v41l280 385l90 -70l-256 -336l256 -335l-90 -70z" />
<glyph unicode="&#x203a;" horiz-adv-x="552" d="M111 193l256 335l-256 336l90 70l280 -385v-41l-280 -385z" />
<glyph unicode="&#x2044;" horiz-adv-x="430" d="M-340 0l1008 1364h102l-1008 -1364h-102z" />
<glyph unicode="&#x205f;" horiz-adv-x="504" />
<glyph unicode="&#x2070;" horiz-adv-x="815" d="M94 1124q0 100 14 175.5t48 139.5t97.5 98t154.5 34q74 0 130 -23t91 -62.5t56.5 -98t29.5 -121.5t8 -142q0 -78 -8 -141t-29.5 -121.5t-56.5 -97.5t-91 -62.5t-130 -23.5q-91 0 -154.5 34t-97.5 98t-48 139.5t-14 174.5zM203 1124q0 -171 45 -258.5t160 -87.5 q49 0 85 16t58.5 44.5t36.5 73t19 95t5 117.5t-5 117.5t-19 95t-36.5 73t-58.5 44.5t-85 16q-115 0 -160 -87.5t-45 -258.5z" />
<glyph unicode="&#x2074;" horiz-adv-x="770" d="M49 901v98q75 129 125.5 278.5t54.5 276.5h107q-4 -127 -51.5 -275.5t-118.5 -274.5h319v360h107v-360h135v-103h-135v-207h-107v207h-436z" />
<glyph unicode="&#x2075;" horiz-adv-x="763" d="M59 848l105 49q61 -115 215 -115q85 0 143 48t58 137q0 86 -55.5 134t-153.5 48q-125 0 -195 -86l-63 35l26 456h504v-102h-407q-3 -42 -10.5 -123.5t-10.5 -126.5q77 51 182 51q134 0 214.5 -77.5t80.5 -206.5q0 -54 -17.5 -103.5t-53.5 -92.5t-99.5 -69t-146.5 -26 q-218 0 -316 170z" />
<glyph unicode="&#x2076;" horiz-adv-x="774" d="M80 1006q0 293 282 548h156q-100 -77 -185 -180.5t-122 -199.5q40 39 102.5 59t112.5 20q130 0 213.5 -77.5t83.5 -204.5q0 -128 -89.5 -210.5t-230.5 -82.5q-148 0 -235.5 86.5t-87.5 241.5zM190 967q0 -83 56.5 -133t154.5 -50q100 0 155.5 50t55.5 135q0 83 -56 133.5 t-155 50.5q-98 0 -154.5 -51t-56.5 -135z" />
<glyph unicode="&#x2077;" horiz-adv-x="694" d="M31 1452v102h643v-96q-365 -461 -385 -764h-115q5 67 24 139t55.5 148.5t65 132t80.5 133.5t73 108t69 97h-510z" />
<glyph unicode="&#x2078;" horiz-adv-x="806" d="M82 930q0 153 156 225q-121 56 -121 193q0 104 80.5 163.5t205.5 59.5q128 0 208.5 -59t80.5 -164q0 -61 -33 -110t-92 -81q73 -36 115.5 -95.5t42.5 -131.5q0 -119 -90 -185.5t-232 -66.5q-141 0 -231 66.5t-90 185.5zM195 940q0 -79 58 -117.5t150 -38.5t150.5 38 t58.5 116q0 82 -59 123t-150 41t-149.5 -41t-58.5 -121zM227 1339q0 -67 51 -102t125 -35q76 0 128.5 35t52.5 102q0 62 -51.5 93.5t-126.5 31.5q-77 0 -128 -31.5t-51 -93.5z" />
<glyph unicode="&#x2079;" horiz-adv-x="776" d="M51 1276q0 129 89.5 212t230.5 83q148 0 236.5 -86.5t88.5 -241.5q0 -291 -282 -549h-154q99 77 184 180t119 197q-40 -38 -101.5 -57t-111.5 -19q-131 0 -215 77.5t-84 203.5zM164 1278q0 -83 55 -132.5t154 -49.5t156 50t57 134q0 83 -57 133.5t-156 50.5t-154 -50.5 t-55 -135.5z" />
<glyph unicode="&#x2080;" horiz-adv-x="815" d="M94 240q0 79 8.5 142t30 121.5t56 97.5t90 62t129.5 23t130 -23t91 -62t56.5 -97.5t29.5 -121.5t8 -142q0 -78 -8 -141.5t-29.5 -122t-56.5 -97.5t-91 -62.5t-130 -23.5t-129.5 23.5t-90 62.5t-56 97.5t-30 122t-8.5 141.5zM203 240q0 -171 45 -258.5t160 -87.5 q49 0 85 16t58.5 44.5t36.5 73t19 95t5 117.5t-5 117.5t-19 95t-36.5 73t-58.5 44.5t-85 16q-115 0 -160 -87.5t-45 -258.5z" />
<glyph unicode="&#x2081;" horiz-adv-x="647" d="M68 559q193 42 268 111h82v-758h200v-102h-534v102h225v620q-35 -19 -98 -35t-127 -24z" />
<glyph unicode="&#x2082;" horiz-adv-x="761" d="M57 526q121 160 303 160q131 0 215 -70t84 -192q0 -42 -7 -75.5t-29.5 -72t-47 -69.5t-79 -81.5t-104 -93.5t-142.5 -120h444v-102h-612v88q271 223 368 328t97 192q0 76 -57 119t-136 43q-66 0 -121.5 -31t-89.5 -80z" />
<glyph unicode="&#x2083;" horiz-adv-x="776" d="M59 -35l107 47q64 -112 221 -112q89 0 141 44t52 113q0 65 -43.5 101.5t-122.5 36.5h-113v104h107q55 0 102 35t47 104q0 70 -54.5 106t-135.5 36q-135 0 -209 -99l-84 64q110 141 301 141q128 0 209.5 -62.5t81.5 -168.5q0 -134 -109 -193q50 -17 81.5 -54t42.5 -75.5 t11 -81.5q0 -115 -86.5 -186.5t-218.5 -71.5q-233 0 -328 172z" />
<glyph unicode="&#x2084;" horiz-adv-x="770" d="M49 16v99q75 129 125.5 278.5t54.5 276.5h107q-4 -127 -51.5 -276t-118.5 -275h319v360h107v-360h135v-103h-135v-206h-107v206h-436z" />
<glyph unicode="&#x2085;" horiz-adv-x="763" d="M59 -37l105 49q61 -114 215 -114q85 0 143 47.5t58 136.5q0 86 -55.5 134t-153.5 48q-125 0 -195 -86l-63 35l26 457h504v-103h-407q-3 -42 -10.5 -123.5t-10.5 -126.5q79 52 182 52q134 0 214.5 -78t80.5 -207q0 -54 -17.5 -103.5t-53.5 -92.5t-99.5 -69t-146.5 -26 q-218 0 -316 170z" />
<glyph unicode="&#x2086;" horiz-adv-x="774" d="M80 121q0 294 282 549h156q-99 -77 -184.5 -181t-122.5 -200q41 39 103 59.5t112 20.5q129 0 213 -78t84 -205q0 -128 -89.5 -210.5t-230.5 -82.5q-148 0 -235.5 86.5t-87.5 241.5zM190 82q0 -83 56 -132.5t155 -49.5q100 0 155.5 50t55.5 134q0 83 -56 133.5t-155 50.5 q-98 0 -154.5 -51t-56.5 -135z" />
<glyph unicode="&#x2087;" horiz-adv-x="694" d="M31 567v103h643v-97q-57 -72 -108.5 -145t-118 -182t-109.5 -223.5t-49 -212.5h-115q5 67 24 139t55.5 148.5t65 131t81 134t72 107.5t69.5 97h-510z" />
<glyph unicode="&#x2088;" horiz-adv-x="806" d="M82 45q0 153 156 225q-121 56 -121 193q0 104 80.5 163.5t205.5 59.5q128 0 208.5 -59t80.5 -164q0 -61 -33 -110t-92 -81q73 -36 115.5 -95.5t42.5 -131.5q0 -119 -90 -185.5t-232 -66.5q-141 0 -231 66.5t-90 185.5zM195 55q0 -79 58 -117t150 -38t150.5 37.5 t58.5 115.5q0 82 -59 123t-150 41t-149.5 -41t-58.5 -121zM227 455q0 -67 51 -102.5t125 -35.5q76 0 128.5 35.5t52.5 102.5q0 62 -51.5 93.5t-126.5 31.5q-77 0 -128 -31.5t-51 -93.5z" />
<glyph unicode="&#x2089;" horiz-adv-x="776" d="M51 391q0 129 89.5 212t230.5 83q148 0 236.5 -86.5t88.5 -241.5q0 -289 -282 -548h-154q99 77 184.5 180t118.5 196q-40 -38 -101 -56.5t-112 -18.5q-131 0 -215 77t-84 203zM164 393q0 -83 55 -132.5t154 -49.5t156 50t57 134q0 83 -57.5 134t-155.5 51q-99 0 -154 -51 t-55 -136z" />
<glyph unicode="&#x20ac;" horiz-adv-x="1456" d="M86 500v96h158q-4 27 -4 86q0 57 4 86h-158v96h172q48 237 212 381t404 144q158 0 283.5 -66t210.5 -186l-115 -86q-63 95 -160 147.5t-219 52.5q-179 0 -299.5 -103t-162.5 -284h592v-96h-607q-4 -29 -4 -86q0 -59 4 -86h607v-96h-592q42 -181 162.5 -284t299.5 -103 q123 0 220 52t159 148l119 -84q-85 -121 -212.5 -187.5t-285.5 -66.5q-240 0 -404 144t-212 381h-172z" />
<glyph unicode="&#x2113;" horiz-adv-x="935" d="M70 446q74 31 192 117v502q0 49 8.5 94t29 87.5t51.5 73.5t79 50t109 19q125 0 192.5 -77.5t67.5 -197.5q0 -79 -35 -165t-95.5 -166t-128.5 -148.5t-147 -132.5v-195q0 -209 176 -209q62 0 110 35t75 80l98 -74q-105 -164 -289 -164q-150 0 -225.5 85.5t-75.5 246.5v99 q-91 -62 -135 -80zM393 668q275 244 275 446q0 68 -32 110t-97 42q-42 0 -72 -17.5t-45.5 -47.5t-22 -63.5t-6.5 -72.5v-397z" />
<glyph unicode="&#x2116;" horiz-adv-x="2519" d="M59 57l82 82q39 -49 92 -49q70 0 97.5 73.5t27.5 227.5v973h113l676 -1116q-17 495 -17 647q0 131 9.5 218.5t40.5 150.5q61 125 192 125q120 0 189 -82l-82 -82q-39 49 -93 49q-70 0 -97 -73.5t-27 -227.5v-973h-113l-676 1116q16 -466 16 -647q0 -133 -9 -219.5 t-40 -149.5q-61 -125 -192 -125q-120 0 -189 82zM1550 700q0 196 121.5 320.5t302.5 124.5t303.5 -125t122.5 -320t-122.5 -318.5t-303.5 -123.5t-302.5 123.5t-121.5 318.5zM1579 0v115h793v-115h-793zM1677 700q0 -141 81 -233t216 -92t215 92t80 233q0 142 -80 234 t-215 92t-216 -92.5t-81 -233.5z" />
<glyph unicode="&#x2117;" horiz-adv-x="1607" d="M84 682q0 146 57.5 279.5t154 229.5t230 153t279.5 57q117 0 226.5 -36.5t198 -103t155 -154.5t103 -198t36.5 -227q0 -116 -36.5 -226t-103 -198.5t-155 -155t-198.5 -103t-226 -36.5q-146 0 -279.5 57t-230 153.5t-154 230t-57.5 278.5zM180 682q0 -169 83.5 -312.5 t227.5 -227t314 -83.5q169 0 312.5 83.5t226.5 227t83 312.5q0 170 -83.5 314t-227 227.5t-311.5 83.5q-169 0 -313 -83.5t-228 -227.5t-84 -314zM557 291v778h330q115 0 188.5 -64t73.5 -169q0 -101 -69.5 -169.5t-190.5 -68.5h-230v-307h-102zM659 688h230q74 0 114.5 41 t40.5 105t-41.5 103.5t-113.5 39.5h-230v-289z" />
<glyph unicode="&#x2122;" horiz-adv-x="1406" d="M92 1284v82h479v-82h-196v-481h-90v481h-193zM672 803v563h139l164 -483l166 483h135v-563h-88v467l-158 -467h-115l-157 467v-467h-86z" />
<glyph unicode="&#x212e;" horiz-adv-x="1280" d="M106 559q0 122 39 229.5t108.5 186t172.5 123.5t225 45q243 0 394 -163t153 -421h-854v-383q128 -125 307 -125q133 0 232 61t176 193l74 -45q-98 -153 -208 -219t-274 -66q-162 0 -287.5 78t-191.5 210.5t-66 295.5zM344 635h617v307q-136 127 -312 127 q-175 0 -305 -127v-307z" />
<glyph unicode="&#x2139;" horiz-adv-x="1880" d="M82 682q0 174 68 333t183 274t274 183t333 68t333 -68t274 -183t183 -274t68 -333t-68 -333t-183 -274t-274 -183t-333 -68t-333 68t-274 183t-183 274t-68 333zM678 303q0 -111 72.5 -172t197.5 -61q151 0 289 77l-39 84q-69 -38 -139 -38q-66 0 -106 34.5t-40 104.5 q0 59 33 172l107 356h-250l-70 -270q-55 -211 -55 -287zM836 985h194q69 0 117.5 49t48.5 121q0 71 -47 117.5t-123 46.5q-145 0 -168 -184q-11 -99 -22 -150z" />
<glyph unicode="&#x2153;" horiz-adv-x="1888" d="M125 1253q193 42 268 111h82v-758h201v-102h-535v102h226v621q-35 -19 -99 -35.5t-127 -24.5zM381 0l1008 1364h102l-1008 -1364h-102zM1141 156l106 47q64 -113 221 -113q89 0 141 44.5t52 113.5q0 65 -43.5 101t-122.5 36h-113v104h107q55 0 102 35.5t47 104.5 t-54.5 105t-135.5 36q-136 0 -209 -98l-84 63q111 142 301 142q127 0 209 -62.5t82 -169.5q0 -133 -109 -192q50 -17 82 -54t43 -75.5t11 -81.5q0 -115 -87 -186.5t-219 -71.5q-232 0 -327 172z" />
<glyph unicode="&#x2154;" horiz-adv-x="1888" d="M96 1223q120 159 303 159q131 0 215 -70t84 -192q0 -42 -7 -75.5t-29.5 -72t-47 -69.5t-79 -81.5t-104 -93.5t-142.5 -120h444v-102h-612v88q271 223 368 328t97 192q0 76 -57 119t-136 43q-66 0 -121.5 -31t-89.5 -80zM399 0l1008 1366h102l-1007 -1366h-103zM1159 156 l107 47q64 -113 221 -113q89 0 140.5 44.5t51.5 113.5q0 65 -43.5 101t-122.5 36h-112v104h106q55 0 102.5 35.5t47.5 104.5t-55 105t-136 36q-136 0 -209 -98l-83 63q111 142 301 142q127 0 208.5 -62.5t81.5 -169.5q0 -134 -108 -192q50 -17 81.5 -54t42.5 -75.5t11 -81.5 q0 -115 -86.5 -186.5t-218.5 -71.5q-233 0 -328 172z" />
<glyph unicode="&#x2155;" horiz-adv-x="1888" d="M119 1253q193 42 268 111h82v-758h201v-102h-535v102h225v621q-35 -19 -98.5 -35.5t-126.5 -24.5zM375 0l1007 1364h103l-1008 -1364h-102zM1143 154l104 49q61 -115 215 -115q85 0 143 47.5t58 136.5q0 86 -55.5 134.5t-153.5 48.5q-124 0 -194 -86l-64 34l27 457h503 v-102h-407q-3 -42 -10.5 -123.5t-10.5 -126.5q77 51 183 51q134 0 214.5 -78t80.5 -207q0 -54 -18 -103.5t-54 -92.5t-99.5 -68.5t-146.5 -25.5q-217 0 -315 170z" />
<glyph unicode="&#x2156;" horiz-adv-x="1888" d="M90 1223q120 159 303 159q131 0 215 -70t84 -192q0 -42 -7 -75.5t-29.5 -72t-47 -69.5t-79 -81.5t-104 -93.5t-142.5 -120h444v-102h-612v88q271 223 368 328t97 192q0 76 -57 119t-136 43q-66 0 -121.5 -31t-89.5 -80zM393 0l1008 1364h102l-1007 -1364h-103zM1161 154 l105 49q61 -115 215 -115q85 0 142.5 47.5t57.5 136.5q0 86 -55 134.5t-153 48.5q-125 0 -195 -86l-64 34l27 457h504v-102h-408q-3 -42 -10 -123.5t-10 -126.5q77 51 182 51q134 0 214.5 -78t80.5 -207q0 -54 -17.5 -103.5t-53.5 -92.5t-99.5 -68.5t-146.5 -25.5 q-218 0 -316 170z" />
<glyph unicode="&#x2157;" horiz-adv-x="1888" d="M84 662l106 47q64 -113 222 -113q89 0 140.5 44.5t51.5 113.5q0 65 -43.5 101t-122.5 36h-112v104h106q55 0 102.5 35.5t47.5 104.5t-55 105t-136 36q-136 0 -209 -98l-84 63q110 141 301 141q128 0 209.5 -62.5t81.5 -168.5q0 -135 -108 -193q50 -17 81.5 -54t42.5 -75 t11 -81q0 -116 -86.5 -187.5t-218.5 -71.5q-232 0 -328 173zM393 0l1008 1364h102l-1007 -1364h-103zM1161 154l105 49q61 -115 215 -115q85 0 142.5 47.5t57.5 136.5q0 86 -55 134.5t-153 48.5q-125 0 -195 -86l-64 34l27 457h504v-102h-408q-3 -42 -10 -123.5t-10 -126.5 q77 51 182 51q134 0 214.5 -78t80.5 -207q0 -54 -17.5 -103.5t-53.5 -92.5t-99.5 -68.5t-146.5 -25.5q-218 0 -316 170z" />
<glyph unicode="&#x2158;" horiz-adv-x="1888" d="M74 711v98q75 129 125.5 278.5t54.5 276.5h106q-4 -127 -51.5 -276t-118.5 -275h320v361h106v-361h136v-102h-136v-207h-106v207h-436zM397 0l1008 1364h102l-1007 -1364h-103zM1165 154l105 49q61 -115 215 -115q85 0 143 47.5t58 136.5q0 86 -55.5 134.5t-153.5 48.5 q-125 0 -195 -86l-63 34l26 457h504v-102h-408q-3 -42 -10 -123.5t-10 -126.5q77 51 182 51q134 0 214.5 -78t80.5 -207q0 -54 -17.5 -103.5t-53.5 -92.5t-99.5 -68.5t-146.5 -25.5q-218 0 -316 170z" />
<glyph unicode="&#x2159;" horiz-adv-x="1888" d="M133 1253q193 42 268 111h82v-758h201v-102h-534v102h225v621q-35 -19 -98.5 -35.5t-126.5 -24.5zM389 0l1008 1364h102l-1007 -1364h-103zM1143 311q0 294 282 549h156q-99 -77 -184.5 -181t-122.5 -200q41 39 103 59.5t112 20.5q129 0 213 -78t84 -205 q0 -128 -89.5 -210t-230.5 -82q-148 0 -235.5 86t-87.5 241zM1253 272q0 -83 56 -132.5t155 -49.5q100 0 155.5 50t55.5 134q0 83 -56 134t-155 51q-98 0 -154.5 -51t-56.5 -136z" />
<glyph unicode="&#x215a;" horiz-adv-x="1888" d="M98 659l105 50q61 -115 215 -115q85 0 142.5 47.5t57.5 136.5q0 86 -55 134.5t-153 48.5q-124 0 -195 -87l-63 35l26 457h504v-102h-408q-3 -42 -10 -123.5t-10 -126.5q77 51 182 51q134 0 214.5 -78t80.5 -207q0 -54 -17.5 -103.5t-53.5 -92.5t-99.5 -69t-146.5 -26 q-218 0 -316 170zM406 0l1007 1366h103l-1008 -1366h-102zM1159 311q0 293 283 549h155q-99 -77 -184.5 -181t-122.5 -200q41 39 103 59.5t112 20.5q129 0 213 -78t84 -205q0 -128 -89 -210t-230 -82q-148 0 -236 86t-88 241zM1270 272q0 -83 56 -132.5t155 -49.5 q100 0 155.5 50t55.5 134q0 83 -56 134t-155 51q-98 0 -154.5 -51t-56.5 -136z" />
<glyph unicode="&#x215b;" horiz-adv-x="1888" d="M117 1255q193 42 268 111h82v-758h201v-102h-535v102h225v621q-35 -19 -98.5 -35.5t-126.5 -24.5zM373 0l1007 1366h103l-1008 -1366h-102zM1137 236q0 154 155 225q-121 56 -121 192q0 104 81 164t206 60q128 0 208.5 -59.5t80.5 -164.5q0 -123 -125 -190 q73 -36 115.5 -95.5t42.5 -131.5q0 -119 -90 -185.5t-232 -66.5q-141 0 -231 66.5t-90 185.5zM1249 246q0 -79 58.5 -117.5t150.5 -38.5t150.5 38t58.5 116q0 82 -59 123t-150 41t-150 -41t-59 -121zM1282 645q0 -67 51 -102t125 -35q76 0 128 35t52 102q0 62 -51.5 93.5 t-126.5 31.5q-77 0 -127.5 -31.5t-50.5 -93.5z" />
<glyph unicode="&#x215c;" horiz-adv-x="1888" d="M84 662l106 47q64 -113 222 -113q89 0 140.5 44.5t51.5 113.5q0 65 -43.5 101t-122.5 36h-112v104h106q55 0 102.5 35.5t47.5 104.5t-55 105t-136 36q-136 0 -209 -98l-84 63q110 141 301 141q128 0 209.5 -62.5t81.5 -168.5q0 -135 -108 -193q50 -17 81.5 -54t42.5 -75 t11 -81q0 -116 -86.5 -187.5t-218.5 -71.5q-232 0 -328 173zM393 0l1008 1366h102l-1007 -1366h-103zM1157 236q0 153 156 225q-121 56 -121 192q0 104 81 164t206 60q128 0 208 -59.5t80 -164.5q0 -123 -125 -190q73 -36 115.5 -95.5t42.5 -131.5q0 -119 -90 -185.5 t-231 -66.5q-142 0 -232 66.5t-90 185.5zM1270 246q0 -79 58.5 -117.5t150.5 -38.5t150.5 38t58.5 116q0 82 -59 123t-150 41t-150 -41t-59 -121zM1303 645q0 -67 51 -102t125 -35q76 0 128 35t52 102q0 62 -51.5 93.5t-126.5 31.5q-77 0 -127.5 -31.5t-50.5 -93.5z" />
<glyph unicode="&#x215d;" horiz-adv-x="1888" d="M82 659l104 50q61 -115 215 -115q85 0 143 47.5t58 136.5q0 86 -55.5 134.5t-153.5 48.5q-123 0 -194 -87l-64 35l27 457h504v-102h-408q-3 -42 -10 -123.5t-10 -126.5q77 51 182 51q134 0 214.5 -78t80.5 -207q0 -54 -18 -103.5t-54 -92.5t-99.5 -69t-146.5 -26 q-217 0 -315 170zM389 0l1008 1366h102l-1007 -1366h-103zM1153 236q0 153 156 225q-121 56 -121 192q0 104 81 164t206 60q128 0 208 -59.5t80 -164.5q0 -123 -125 -190q73 -36 115.5 -95.5t42.5 -131.5q0 -119 -90 -185.5t-231 -66.5q-142 0 -232 66.5t-90 185.5z M1266 246q0 -79 58.5 -117.5t150.5 -38.5t150 37.5t58 116.5q0 82 -58.5 123t-149.5 41t-150 -41t-59 -121zM1298 645q0 -67 51 -102t126 -35q76 0 128 35t52 102q0 62 -51.5 93.5t-126.5 31.5q-77 0 -128 -31.5t-51 -93.5z" />
<glyph unicode="&#x215e;" horiz-adv-x="1888" d="M131 1264v102h643v-96q-365 -461 -385 -764h-115q5 67 24 139t55.5 148.5t65 132t80.5 133.5t73 108t69 97h-510zM319 0l1008 1366h103l-1008 -1366h-103zM1083 236q0 153 156 225q-121 56 -121 192q0 104 81 164t206 60q128 0 208.5 -59.5t80.5 -164.5q0 -123 -125 -190 q73 -36 115 -95.5t42 -131.5q0 -119 -90 -185.5t-231 -66.5q-142 0 -232 66.5t-90 185.5zM1196 246q0 -79 58.5 -117.5t150.5 -38.5t150.5 38t58.5 116q0 82 -59 123t-150 41t-150 -41t-59 -121zM1229 645q0 -67 51 -102t125 -35q76 0 128 35t52 102q0 62 -51.5 93.5 t-126.5 31.5q-77 0 -127.5 -31.5t-50.5 -93.5z" />
<glyph unicode="&#x2190;" horiz-adv-x="1880" d="M180 682l668 668l82 -82l-527 -529h1270v-114h-1270l527 -529l-82 -82z" />
<glyph unicode="&#x2191;" horiz-adv-x="1880" d="M231 784l709 709l709 -709l-82 -82l-570 568v-1270h-114v1270l-570 -568z" />
<glyph unicode="&#x2192;" horiz-adv-x="1880" d="M207 625v114h1270l-527 529l82 82l668 -668l-668 -668l-82 82l527 529h-1270z" />
<glyph unicode="&#x2193;" horiz-adv-x="1880" d="M231 678l82 82l570 -567v1269h114v-1269l570 567l82 -82l-709 -709z" />
<glyph unicode="&#x2196;" horiz-adv-x="1880" d="M393 225v1004h1004v-115h-807l901 -899l-82 -82l-901 899v-807h-115z" />
<glyph unicode="&#x2197;" horiz-adv-x="1880" d="M389 215l901 899h-807v115h1004v-1004h-115v807l-901 -899z" />
<glyph unicode="&#x2198;" horiz-adv-x="1880" d="M389 1151l82 82l901 -899v807h115v-1004h-1004v115h807z" />
<glyph unicode="&#x2199;" horiz-adv-x="1880" d="M393 137v1004h115v-807l901 899l82 -82l-901 -899h807v-115h-1004z" />
<glyph unicode="&#x2202;" horiz-adv-x="1187" d="M76 496q0 223 134 367.5t345 144.5q99 0 191 -36.5t157 -107.5q-67 151 -203.5 288.5t-300.5 223.5l72 109q97 -55 183.5 -121.5t169 -156t141.5 -188.5t95 -223t36 -255q0 -254 -135 -404q-146 -162 -381 -162q-152 0 -267.5 69.5t-176 187.5t-60.5 264zM215 492 q0 -80 22.5 -149t66.5 -123t115.5 -85t162.5 -31q179 0 279 110.5t100 277.5q0 168 -101 279.5t-278 111.5t-272 -111.5t-95 -279.5z" />
<glyph unicode="&#x220f;" horiz-adv-x="1245" d="M84 1241v123h1077v-123h-143v-1241h-123v1241h-545v-1241h-123v1241h-143z" />
<glyph unicode="&#x2211;" horiz-adv-x="1140" d="M76 0v49l635 633l-635 633v49h968v-123h-722l561 -559l-561 -559h722v-123h-968z" />
<glyph unicode="&#x2212;" d="M115 563v119h944v-119h-944z" />
<glyph unicode="&#x2217;" horiz-adv-x="1212" d="M84 449q0 61 55 92q22 13 53 22t77.5 19t74.5 18q93 25 203 82q-105 55 -203 82q-28 8 -74 18t-77.5 19t-53.5 22q-55 30 -55 92q0 31 16 60q36 55 95 55q30 0 55 -14q20 -11 41 -31t55.5 -57.5t56.5 -59.5q74 -74 172 -135q-3 114 -28 217q-7 26 -21 71.5t-22 77 t-8 56.5q0 50 31 80.5t79 30.5t79.5 -30.5t31.5 -80.5q0 -25 -8 -56.5t-22 -77t-21 -71.5q-25 -99 -31 -217q98 59 174 135q18 18 53 56t57.5 59t43.5 33q25 14 55 14q58 0 94 -55q16 -29 16 -60q0 -62 -55 -92q-22 -13 -54 -22.5t-80 -20t-71 -16.5q-92 -24 -204 -82 q120 -61 204 -82q34 -9 83 -20t75.5 -19t46.5 -20q55 -31 55 -92q0 -31 -16 -60q-36 -55 -94 -55q-30 0 -55 14q-20 11 -41 30.5t-56 57.5t-57 60q-68 68 -174 135q6 -112 31 -217q8 -30 23 -77.5t21.5 -74.5t6.5 -51q0 -51 -31.5 -82t-79.5 -31t-79 30.5t-31 82.5 q0 24 6.5 51t21.5 74.5t23 77.5q25 99 28 217q-109 -72 -172 -135q-18 -18 -52.5 -55.5t-57.5 -59.5t-43 -33q-25 -14 -55 -14q-59 0 -95 55q-16 29 -16 60z" />
<glyph unicode="&#x221a;" horiz-adv-x="1193" d="M31 682l110 53l289 -592l668 1373l110 -54l-766 -1573h-24z" />
<glyph unicode="&#x221e;" horiz-adv-x="1601" d="M96 563q0 135 95.5 230.5t230.5 95.5q133 0 225 -92l154 -154l153 154q92 92 226 92q135 0 230 -95.5t95 -230.5t-95 -230t-230 -95q-134 0 -226 92l-153 153l-154 -153q-92 -92 -225 -92q-135 0 -230.5 95t-95.5 230zM213 563q0 -86 61.5 -147.5t147.5 -61.5 q87 0 151 64l148 145l-148 146q-63 63 -151 63q-86 0 -147.5 -61.5t-61.5 -147.5zM881 563l147 -145q64 -64 152 -64q86 0 147.5 61.5t61.5 147.5t-61.5 147.5t-147.5 61.5q-89 0 -152 -63z" />
<glyph unicode="&#x222b;" horiz-adv-x="626" d="M57 -176l82 80q40 -49 88 -49q84 0 84 131q0 78 -55 624q-51 510 -51 619q0 124 53 190t148 66q99 0 172 -80l-82 -80q-40 49 -88 49q-84 0 -84 -131q0 -79 55 -625q51 -510 51 -618q0 -124 -53 -190t-148 -66q-99 0 -172 80z" />
<glyph unicode="&#x2248;" d="M78 387q130 178 274 178q51 0 100.5 -15.5t137.5 -53.5q67 -28 94 -38.5t67.5 -21t75.5 -10.5q116 0 213 104l62 -53q-130 -178 -275 -178q-35 0 -75.5 10.5t-67.5 21t-94 38.5q-88 38 -137.5 53.5t-100.5 15.5q-113 0 -213 -104zM78 772q132 176 274 176 q51 0 100.5 -15.5t137.5 -53.5q67 -28 94 -38.5t67.5 -21t75.5 -10.5q116 0 213 104l62 -53q-130 -178 -275 -178q-35 0 -75.5 10.5t-67.5 21t-94 38.5q-88 38 -137.5 53.5t-100.5 15.5q-113 0 -213 -104z" />
<glyph unicode="&#x2260;" d="M43 346v123h461l65 195h-526v124h567l123 367h98l-120 -367h419v-124h-462l-66 -195h528v-123h-567l-123 -366h-98l123 366h-422z" />
<glyph unicode="&#x2264;" d="M119 0v119h944v-119h-944zM135 752l807 516l66 -97l-666 -419l666 -420l-66 -96z" />
<glyph unicode="&#x2265;" d="M111 0v119h944v-119h-944zM166 332l665 420l-665 419l65 97l807 -516l-807 -516z" />
<glyph unicode="&#x229b;" horiz-adv-x="1880" d="M82 682q0 174 68 333t183 274t274 183t333 68t333 -68t274 -183t183 -274t68 -333t-68 -333t-183 -274t-274 -183t-333 -68t-333 68t-274 183t-183 274t-68 333zM184 682q0 -153 60 -293t161.5 -241.5t241.5 -161.5t293 -60t293 60t241.5 161.5t161.5 241.5t60 293 t-60 293t-161.5 241.5t-241.5 161.5t-293 60t-293 -60t-241.5 -161.5t-161.5 -241.5t-60 -293zM418 449q0 61 55 92q22 13 53 22t77.5 19t74.5 18q93 25 203 82q-105 55 -203 82q-28 8 -74 18t-77.5 19t-53.5 22q-55 30 -55 92q0 31 16 60q36 55 94 55q31 0 56 -14 q20 -11 41 -31t55.5 -57.5t56.5 -59.5q74 -74 172 -135q-3 114 -28 217q-7 27 -21.5 72t-22.5 77t-8 56q0 50 31.5 80.5t79.5 30.5t79.5 -30.5t31.5 -80.5q0 -24 -8 -56t-22.5 -77t-21.5 -72q-24 -94 -30 -217q98 59 174 135q19 19 53 56t56.5 58.5t43.5 33.5q25 14 56 14 q58 0 94 -55q16 -29 16 -60q0 -62 -55 -92q-22 -13 -54 -22.5t-80 -20t-71 -16.5q-94 -25 -205 -82q119 -61 205 -82q34 -9 83 -20t75.5 -19t46.5 -20q55 -31 55 -92q0 -31 -16 -60q-36 -55 -94 -55q-31 0 -56 14q-20 11 -41 31t-55.5 57.5t-56.5 59.5q-68 68 -174 135 q6 -117 30 -217q8 -31 23 -77.5t22 -74t7 -51.5q0 -51 -31.5 -82t-79.5 -31t-79.5 31t-31.5 82q0 24 7 51.5t22 74t23 77.5q25 99 28 217q-109 -72 -172 -135q-18 -18 -52.5 -55.5t-57.5 -59.5t-43 -33q-25 -14 -56 -14q-58 0 -94 55q-16 29 -16 60z" />
<glyph unicode="&#x25a0;" horiz-adv-x="1568" d="M102 0v1364h1364v-1364h-1364z" />
<glyph unicode="&#x25a1;" horiz-adv-x="1568" d="M102 0v1364h1364v-1364h-1364zM205 102h1159v1160h-1159v-1160z" />
<glyph unicode="&#x25b2;" horiz-adv-x="1089" d="M66 0l479 1475l479 -1475h-958z" />
<glyph unicode="&#x25b6;" horiz-adv-x="960" d="M143 -41v1446l723 -723z" />
<glyph unicode="&#x25b7;" horiz-adv-x="960" d="M143 -41v1446l723 -723zM233 176l506 506l-506 506v-1012z" />
<glyph unicode="&#x25ba;" horiz-adv-x="1699" d="M143 203v958l1475 -479z" />
<glyph unicode="&#x25bb;" horiz-adv-x="1699" d="M143 203v958l1475 -479zM225 315l1131 367l-1131 367v-734z" />
<glyph unicode="&#x25bc;" horiz-adv-x="1089" d="M66 1364h958l-479 -1475z" />
<glyph unicode="&#x25c0;" horiz-adv-x="960" d="M94 682l723 723v-1446z" />
<glyph unicode="&#x25c1;" horiz-adv-x="960" d="M94 682l723 723v-1446zM221 682l506 -506v1012z" />
<glyph unicode="&#x25c4;" horiz-adv-x="1699" d="M82 682l1474 479v-958z" />
<glyph unicode="&#x25c5;" horiz-adv-x="1699" d="M82 682l1474 479v-958zM344 682l1131 -367v734z" />
<glyph unicode="&#x25ca;" horiz-adv-x="1253" d="M88 682l514 780h25l514 -780l-514 -780h-25zM233 682l381 -578l381 578l-381 575z" />
<glyph unicode="&#x25cb;" horiz-adv-x="1568" d="M61 682q0 196 97 362.5t263.5 263.5t362.5 97t362.5 -97t263.5 -263.5t97 -362.5t-97 -362.5t-263.5 -263.5t-362.5 -97t-362.5 97t-263.5 263.5t-97 362.5zM164 682q0 -168 83 -311t226 -226.5t311 -83.5t311 83.5t226.5 226.5t83.5 311t-83.5 311t-226.5 226.5 t-311 83.5t-311 -83.5t-226 -226.5t-83 -311z" />
<glyph unicode="&#x25cf;" horiz-adv-x="1568" d="M61 682q0 196 97 362.5t263.5 263.5t362.5 97t362.5 -97t263.5 -263.5t97 -362.5t-97 -362.5t-263.5 -263.5t-362.5 -97t-362.5 97t-263.5 263.5t-97 362.5z" />
<glyph unicode="&#x25fc;" horiz-adv-x="1054" d="M0 0v1055h1055v-1055h-1055z" />
<glyph unicode="&#x2605;" horiz-adv-x="1732" d="M66 889h610l190 581l191 -581h610l-493 -359l188 -583l-496 358l-495 -358l188 583z" />
<glyph unicode="&#x2606;" horiz-adv-x="1732" d="M66 889h610l190 581l191 -581h610l-493 -359l188 -583l-496 358l-495 -358l188 583zM866 346l434 -315l-165 512l432 313h-533l-168 514v-1024z" />
<glyph unicode="&#x271a;" horiz-adv-x="1568" d="M102 455v454h455v455h455v-455h454v-454h-454v-455h-455v455h-455z" />
<glyph unicode="&#x2765;" horiz-adv-x="1130" d="M0 672v20q117 0 276 316q3 5 32.5 65t42 81.5t39.5 62t54 67.5q105 105 250 105q146 0 250.5 -104.5t104.5 -250.5t-104 -247t-251 -101v-8q147 0 251 -101t104 -247t-104.5 -250.5t-250.5 -104.5q-145 0 -250 105q-17 17 -34.5 39.5t-28.5 39t-29 48.5t-24.5 44.5 t-26.5 54t-25 50.5q-159 316 -276 316z" />
<glyph unicode="&#x3008;" horiz-adv-x="577" d="M45 674v16l389 754l98 -51l-366 -711l366 -711l-98 -51z" />
<glyph unicode="&#x3009;" horiz-adv-x="577" d="M45 -29l367 711l-367 711l98 51l389 -754v-16l-389 -754z" />
<glyph unicode="&#x300a;" horiz-adv-x="884" d="M45 674v16l389 754l98 -51l-366 -711l366 -711l-98 -51zM352 674v16l389 754l99 -51l-367 -711l367 -711l-99 -51z" />
<glyph unicode="&#x300b;" horiz-adv-x="884" d="M45 -29l367 711l-367 711l98 51l389 -754v-16l-389 -754zM352 -29l367 711l-367 711l99 51l389 -754v-16l-389 -754z" />
<glyph unicode="&#xf6c3;" horiz-adv-x="446" d="M39 -356q85 104 143 243l140 -22q-30 -68 -91.5 -143t-136.5 -132z" />
<glyph unicode="&#xfb06;" horiz-adv-x="1775" d="M78 188l112 70q115 -160 332 -160q126 0 202.5 51t76.5 148q0 26 -7 47t-17 36.5t-33 29t-42.5 22t-59 19t-69.5 17t-86 17.5q-65 13 -112 26.5t-96 37t-79 53t-49.5 75t-19.5 103.5q0 101 56 170.5t138.5 99t182.5 29.5q115 0 217 -45q-2 16 -2 51q0 73 24 142.5 t69.5 128t120.5 94t169 35.5q122 0 189 -60.5t67 -175.5v-194h356v-121h-356v-627q0 -209 180 -209q81 0 139 43l62 -102q-84 -64 -207 -64q-189 0 -266 136q-39 68 -39 196v627h-187v121h187v194q0 59 -38 90t-108 31q-62 0 -109.5 -24t-75 -64.5t-41 -88.5t-13.5 -101 q0 -103 51 -179l-96 -86q-126 129 -297 129q-64 0 -117 -14.5t-91 -53t-38 -95.5q0 -36 15.5 -64t37.5 -45.5t62 -32.5t72 -22.5t85 -18.5q44 -9 66.5 -13.5t63.5 -14.5t63 -18.5t55.5 -23t52.5 -29t41.5 -36.5t34 -46.5t19.5 -56.5t8 -69q0 -147 -110 -237.5t-302 -90.5 q-149 0 -263.5 56.5t-180.5 156.5z" />
<glyph unicode="&#x1f4d5;" horiz-adv-x="1794" d="M123 1108q0 158 78.5 292.5t213 213t292.5 78.5v-82q-136 0 -251.5 -67.5t-183 -183t-67.5 -251.5h-82zM287 1108q0 173 123.5 296.5t296.5 123.5v-82q-139 0 -238.5 -99t-99.5 -239h-82zM451 74v1034q0 106 75 181t181 75h927v-1462h-1011q-71 0 -121.5 51t-50.5 121z M532 74q0 -37 27 -63.5t64 -26.5h938q-25 42 -25 90t25 90h-938q-37 0 -64 -26.5t-27 -63.5zM686 762q0 -159 97.5 -259t275.5 -100q185 0 327 129l-129 117q-86 -80 -188 -80q-74 0 -121 39.5t-51 108.5h498q2 14 2 49q0 163 -92 259.5t-254 96.5q-168 0 -266.5 -100.5 t-98.5 -259.5zM899 840q4 64 45.5 99.5t106.5 35.5t105 -34.5t46 -100.5h-303z" />
<glyph unicode="&#x1f4d6;" horiz-adv-x="1880" d="M160 164v1036q0 109 76.5 185.5t185.5 76.5h1036q109 0 185.5 -76.5t76.5 -185.5v-1036q0 -109 -76.5 -185.5t-185.5 -76.5h-1036q-109 0 -185.5 76.5t-76.5 185.5zM422 426q95 0 176.5 -20t135.5 -51t92.5 -68t55.5 -70.5t17 -60.5h21v700q0 34 -30.5 78t-88 88t-158 74 t-221.5 30v-700zM961 156h20q0 27 17 60.5t55.5 70.5t92.5 68t135.5 51t176.5 20v700q-98 0 -183 -20t-141 -51t-96.5 -68t-58.5 -70.5t-18 -60.5v-700z" />
<glyph unicode="&#x1f50c;" horiz-adv-x="1880" d="M82 682q0 174 68 333t183 274t274 183t333 68q211 0 395.5 -96.5t304 -264t148.5 -372.5h-246q-43 211 -212 350t-390 139q-62 0 -117 -12v-237h-346v-240h346v-250h-346v-240h346v-239q62 -10 117 -10q221 0 390 138.5t212 350.5h246q-29 -205 -148.5 -372.5t-304 -264 t-395.5 -96.5q-174 0 -333 68t-274 183t-183 274t-68 333z" />
<glyph unicode="&#x1f697;" horiz-adv-x="2605" d="M102 528q0 176 51 329.5t143 267.5t216 195.5t273 123t311 41.5q311 0 528 -152t301 -432q132 -15 240 -52t188.5 -95t125 -141.5t44.5 -184.5q0 -120 -57.5 -194t-153.5 -74h-31q-27 -86 -98 -139.5t-162 -53.5q-90 0 -162 54t-98 139h-897q-27 -86 -98 -139.5 t-162 -53.5q-90 0 -162 54t-98 139q-128 0 -185 95t-57 273zM469 950q0 -63 83.5 -84.5t274.5 -21.5h537q191 0 274.5 21.5t83.5 84.5q0 36 -20 72q-76 147 -244 233t-362 86t-362.5 -86t-244.5 -233q-20 -36 -20 -72z" />
<glyph unicode="&#x1f698;" horiz-adv-x="1970" d="M119 578q0 215 65 388t181 286t274.5 173t345.5 60t345.5 -60t274.5 -173t181 -286t65 -388q0 -92 -11.5 -160t-36 -116t-53 -79.5t-71.5 -62.5v-64q0 -69 -40.5 -95t-131.5 -26t-132.5 26t-41.5 95v64h-696v-64q0 -69 -41.5 -95t-132.5 -26t-131.5 26t-40.5 95v64 q-43 31 -71.5 62.5t-53 79.5t-36 116t-11.5 160zM315 541q0 -61 43.5 -104.5t104.5 -43.5t104 43t43 105q0 61 -43 104t-104 43q-62 0 -105 -43t-43 -104zM358 950q0 -63 84 -84.5t275 -21.5h536q191 0 275 21.5t84 84.5q0 34 -21 72q-76 147 -244 233t-362 86t-362 -86 t-244 -233q-21 -38 -21 -72zM1360 541q0 -62 43 -105t104 -43t104.5 43.5t43.5 104.5t-43 104t-105 43q-61 0 -104 -43t-43 -104z" />
<glyph horiz-adv-x="989" d="M39 150l115 81q93 -118 249 -118q261 0 261 299v817h-412v135h557v-952q0 -207 -115 -322t-305 -115q-229 0 -350 175z" />
<glyph horiz-adv-x="1523" d="M106 682q0 202 80.5 362.5t230.5 252.5t345 92t345 -92t230 -252.5t80 -362.5q0 -169 -58.5 -311t-166.5 -238l158 -188l-107 -88l-164 196q-138 -78 -317 -78q-195 0 -345 92.5t-230.5 253t-80.5 361.5zM260 682q0 -256 135.5 -412.5t366.5 -156.5q230 0 366 156.5 t136 412.5q0 257 -136 413t-366 156q-231 0 -366.5 -156t-135.5 -413z" />
<glyph horiz-adv-x="1318" d="M100 526q0 240 133.5 396.5t354.5 156.5q250 0 393 -217v193h131v-830q0 -68 21.5 -98.5t72.5 -30.5q40 0 66 13l18 -109q-44 -16 -104 -16q-81 0 -136.5 47t-64.5 143q-72 -105 -175 -152t-218 -47q-150 0 -263 73t-171 197.5t-58 280.5zM240 528q0 -90 22.5 -166.5 t66.5 -135t114.5 -91.5t160.5 -33q178 0 277.5 120.5t99.5 305.5t-100 304.5t-277 119.5q-176 0 -270 -118.5t-94 -305.5z" />
<glyph horiz-adv-x="534" d="M170 238v1224h131v-1224q0 -73 26.5 -104.5t80.5 -31.5q58 0 88 25l34 -117q-47 -28 -129 -28q-131 0 -190 81q-41 54 -41 175z" />
<glyph horiz-adv-x="1210" d="M141 -246l80 111q137 -115 328 -115q73 0 135 18t114 56.5t81.5 106t29.5 157.5v176q-141 -217 -377 -217q-171 0 -272.5 106t-101.5 300v602h131v-572q0 -309 260 -309q156 0 258 105t102 268v508h131v-946q0 -214 -98 -328q-135 -158 -401 -158q-226 0 -400 131z" />
<glyph horiz-adv-x="1202" d="M43 0l485 1120h146l485 -1120h-141l-144 334h-555l-143 -334h-133zM373 455h448l-223 544z" />
<glyph horiz-adv-x="1165" d="M184 0v1120h482q152 0 246 -70t94 -194q0 -78 -40.5 -141.5t-119.5 -100.5q101 -38 155 -113.5t54 -178.5q0 -138 -94.5 -230t-268.5 -92h-508zM315 121h375q105 0 166.5 54.5t61.5 148.5t-61 151t-175 57h-367v-411zM315 653h342q100 0 157.5 50.5t57.5 130.5 q0 83 -57 123t-149 40h-351v-344z" />
<glyph horiz-adv-x="1179" d="M106 559q0 166 67.5 299t193.5 210t290 77q138 0 250.5 -56.5t186.5 -156.5l-107 -82q-53 81 -138.5 125.5t-191.5 44.5q-124 0 -218.5 -61t-143.5 -165.5t-49 -234.5q0 -199 112 -329t299 -130q104 0 190.5 45t141.5 123l105 -82q-73 -100 -185.5 -155.5t-251.5 -55.5 q-163 0 -289.5 77t-194 209.5t-67.5 297.5z" />
<glyph horiz-adv-x="1271" d="M184 0v1120h443q168 0 290 -73.5t183 -199t61 -286.5q0 -249 -141.5 -405t-392.5 -156h-443zM317 121h310q128 0 218 57.5t133.5 155.5t43.5 227q0 197 -102 317.5t-293 120.5h-310v-878z" />
<glyph horiz-adv-x="1099" d="M184 0v1120h789v-123h-656v-344h576v-121h-576v-411h676v-121h-809z" />
<glyph horiz-adv-x="1067" d="M184 0v1120h807v-123h-674v-344h574v-121h-574v-532h-133z" />
<glyph horiz-adv-x="1265" d="M106 559q0 166 67.5 299t193.5 210t290 77q138 0 250.5 -56.5t186.5 -156.5l-107 -82q-53 81 -138.5 125.5t-191.5 44.5q-124 0 -218.5 -61t-143.5 -165.5t-49 -234.5q0 -199 112.5 -329t300.5 -130q166 0 269.5 101t111.5 248h-354v120h485q7 -32 7 -73 q0 -101 -34.5 -194t-98.5 -166t-164 -117t-222 -44q-164 0 -291 77t-194.5 209.5t-67.5 297.5z" />
<glyph horiz-adv-x="1288" d="M184 0v1120h133v-467h654v467h133v-1120h-133v532h-654v-532h-133z" />
<glyph horiz-adv-x="501" d="M184 0v1120h133v-1120h-133z" />
<glyph horiz-adv-x="854" d="M31 125l104 74q79 -101 207 -101q209 0 209 238v784h133v-784q0 -171 -96.5 -266t-255.5 -95q-198 0 -301 150z" />
<glyph horiz-adv-x="864" d="M41 125l104 74q79 -101 207 -101q209 0 209 238v661h-338v123h471v-784q0 -171 -96.5 -266t-255.5 -95q-198 0 -301 150z" />
<glyph horiz-adv-x="1126" d="M184 0v1120h131v-626l576 626h170l-453 -485l496 -635h-170l-418 543q-35 -37 -100.5 -108.5t-100.5 -108.5v-326h-131z" />
<glyph horiz-adv-x="1007" d="M184 0v1120h131v-999h648v-121h-779z" />
<glyph horiz-adv-x="1544" d="M184 0v1120h203l387 -954l387 954h199v-1120h-131v979l-402 -979h-112l-402 981v-981h-129z" />
<glyph horiz-adv-x="1288" d="M184 0v1120h185l606 -952v952h129v-1120h-166l-625 973v-973h-129z" />
<glyph horiz-adv-x="1314" d="M106 559q0 166 67.5 299t193.5 210t290 77q163 0 289.5 -77t194 -209.5t67.5 -297.5q0 -166 -67.5 -299t-193.5 -210t-290 -77q-163 0 -289.5 77t-194 209.5t-67.5 297.5zM246 559q0 -199 112 -329t299 -130t299.5 131t112.5 330t-112.5 329t-299.5 130 q-124 0 -218.5 -61t-143.5 -165.5t-49 -234.5z" />
<glyph horiz-adv-x="1116" d="M184 0v1120h486q171 0 271.5 -91t100.5 -245t-100.5 -246t-271.5 -92h-355v-446h-131zM315 569h355q115 0 175 58t60 157q0 98 -60 155.5t-175 57.5h-355v-428z" />
<glyph horiz-adv-x="1314" d="M106 559q0 166 67.5 299t193.5 210t290 77q163 0 289.5 -77t194 -209.5t67.5 -297.5q0 -140 -49.5 -258.5t-140.5 -198.5l131 -151l-90 -78l-137 162q-121 -62 -265 -62q-163 0 -289.5 77t-194 209.5t-67.5 297.5zM246 559q0 -199 112 -329t299 -130q96 0 179 39 l-121 144l90 77l129 -153q135 132 135 354q0 199 -112.5 329t-299.5 130q-124 0 -218.5 -61t-143.5 -165.5t-49 -234.5z" />
<glyph horiz-adv-x="1316" d="M106 559q0 166 67.5 299t193.5 210t290 77q163 0 289.5 -77t194 -209.5t67.5 -297.5q0 -130 -48 -245t-136 -199l133 -156l-98 -86l-141 166q-122 -66 -261 -66q-163 0 -289.5 77t-194 209.5t-67.5 297.5zM246 559q0 -199 112 -329t299 -130t299.5 131t112.5 330 t-112.5 329t-299.5 130q-124 0 -218.5 -61t-143.5 -165.5t-49 -234.5z" />
<glyph horiz-adv-x="1165" d="M184 0v1120h486q170 0 271 -86.5t101 -234.5q0 -116 -65 -194t-176 -113l272 -492h-147l-256 469h-355v-469h-131zM315 592h357q109 0 171 55t62 148t-60.5 147.5t-172.5 54.5h-357v-405z" />
<glyph horiz-adv-x="1062" d="M84 199l111 82q57 -90 151 -136.5t203 -46.5q123 0 198.5 56.5t75.5 152.5q0 42 -16.5 73.5t-39.5 50.5t-69 36t-82.5 25.5t-102.5 22.5l-15 3q-64 13 -112 27.5t-98.5 39.5t-83 57t-53 80t-20.5 109q0 144 110.5 229t276.5 85q127 0 236.5 -52.5t185.5 -142.5l-100 -80 q-55 70 -141 111t-187 41q-104 0 -174 -44t-70 -134q0 -38 14 -67t35 -47.5t60.5 -34t73.5 -25t92 -21.5q64 -14 109 -26.5t97.5 -31.5t87 -43t65 -56.5t45 -76.5t14.5 -98q0 -153 -116.5 -247.5t-307.5 -94.5q-151 0 -268.5 61t-184.5 163z" />
<glyph horiz-adv-x="1046" d="M59 997v123h928v-123h-399v-997h-131v997h-398z" />
<glyph horiz-adv-x="1255" d="M168 434v686h131v-686q0 -162 90 -249t236 -87q147 0 238 87t91 249v686h133v-686q0 -218 -128 -338.5t-334 -120.5q-204 0 -330.5 120.5t-126.5 338.5z" />
<glyph horiz-adv-x="1128" d="M43 1120h150l372 -958l379 958h141l-450 -1120h-141z" />
<glyph horiz-adv-x="1652" d="M74 1120h133l268 -956l289 956h135l289 -960l260 960h133l-315 -1120h-156l-283 954l-282 -954h-160z" />
<glyph horiz-adv-x="1136" d="M37 0l450 580l-419 540h165l336 -452l340 452h160l-416 -540l447 -580h-166l-365 477l-366 -477h-166z" />
<glyph horiz-adv-x="1067" d="M29 1120h157l353 -536q46 70 165.5 254.5t184.5 281.5h149l-440 -661v-459h-133v457q-294 450 -436 663z" />
<glyph horiz-adv-x="1052" d="M90 0v113l688 884h-661v123h825v-114l-688 -885h702v-121h-866z" />
<glyph horiz-adv-x="1318" d="M100 526q0 240 133.5 396.5t354.5 156.5q250 0 393 -217v193h131v-830q0 -68 21.5 -98.5t72.5 -30.5q40 0 66 13l18 -109q-44 -16 -104 -16q-81 0 -136.5 47t-64.5 143q-72 -105 -175 -152t-218 -47q-150 0 -263 73t-171 197.5t-58 280.5zM240 528q0 -90 22.5 -166.5 t66.5 -135t114.5 -91.5t160.5 -33q178 0 277.5 120.5t99.5 305.5t-100 304.5t-277 119.5q-176 0 -270 -118.5t-94 -305.5zM510 1247q50 50 102 117.5t82 120.5l142 -23q-29 -65 -106.5 -143t-164.5 -131z" />
<glyph horiz-adv-x="1202" d="M43 0l485 1120h146l485 -1120h-141l-144 334h-555l-143 -334h-133zM373 455h448l-223 544zM524 1247q50 50 102.5 118t82.5 120l141 -23q-29 -65 -106 -143t-164 -131z" />
<glyph horiz-adv-x="1318" d="M100 526q0 240 133.5 396.5t354.5 156.5q250 0 393 -217v193h131v-830q0 -68 21.5 -98.5t72.5 -30.5q40 0 66 13l18 -109q-44 -16 -104 -16q-81 0 -136.5 47t-64.5 143q-72 -105 -175 -152t-218 -47q-150 0 -263 73t-171 197.5t-58 280.5zM240 528q0 -90 22.5 -166.5 t66.5 -135t114.5 -91.5t160.5 -33q178 0 277.5 120.5t99.5 305.5t-100 304.5t-277 119.5q-176 0 -270 -118.5t-94 -305.5zM305 1454l88 27q14 -63 72 -105.5t145 -42.5t145 42.5t72 105.5l88 -27q-14 -102 -97 -167.5t-208 -65.5t-208 65.5t-97 167.5z" />
<glyph horiz-adv-x="1202" d="M43 0l485 1120h146l485 -1120h-141l-144 334h-555l-143 -334h-133zM295 1454l88 27q14 -63 72 -105.5t145 -42.5t145 42.5t72 105.5l88 -27q-14 -102 -97 -167.5t-208 -65.5t-208 65.5t-97 167.5zM373 455h448l-223 544z" />
<glyph horiz-adv-x="1318" d="M100 526q0 240 133.5 396.5t354.5 156.5q250 0 393 -217v193h131v-830q0 -68 21.5 -98.5t72.5 -30.5q40 0 66 13l18 -109q-44 -16 -104 -16q-81 0 -136.5 47t-64.5 143q-72 -105 -175 -152t-218 -47q-150 0 -263 73t-171 197.5t-58 280.5zM240 528q0 -90 22.5 -166.5 t66.5 -135t114.5 -91.5t160.5 -33q178 0 277.5 120.5t99.5 305.5t-100 304.5t-277 119.5q-176 0 -270 -118.5t-94 -305.5zM293 1276q132 92 258 209h111q126 -117 258 -209l-43 -76q-158 61 -271 168q-113 -108 -270 -168z" />
<glyph horiz-adv-x="1202" d="M43 0l485 1120h146l485 -1120h-141l-144 334h-555l-143 -334h-133zM285 1276q132 92 258 209h110q126 -117 258 -209l-43 -76q-157 60 -270 168q-113 -108 -270 -168zM373 455h448l-223 544z" />
<glyph horiz-adv-x="1318" d="M100 526q0 240 133.5 396.5t354.5 156.5q250 0 393 -217v193h131v-830q0 -68 21.5 -98.5t72.5 -30.5q40 0 66 13l18 -109q-44 -16 -104 -16q-81 0 -136.5 47t-64.5 143q-72 -105 -175 -152t-218 -47q-150 0 -263 73t-171 197.5t-58 280.5zM240 528q0 -90 22.5 -166.5 t66.5 -135t114.5 -91.5t160.5 -33q178 0 277.5 120.5t99.5 305.5t-100 304.5t-277 119.5q-176 0 -270 -118.5t-94 -305.5zM330 1229v135h129v-135h-129zM748 1229v135h129v-135h-129z" />
<glyph horiz-adv-x="1202" d="M43 0l485 1120h146l485 -1120h-141l-144 334h-555l-143 -334h-133zM326 1229v135h129v-135h-129zM373 455h448l-223 544zM743 1229v135h129v-135h-129z" />
<glyph horiz-adv-x="1816" d="M0 0l705 1364h989v-135h-664v-438h563v-134h-563v-522h684v-135h-831v647q-423 -57 -629 -457l-98 -190h-156zM477 625q176 126 406 157v447h-95z" />
<glyph horiz-adv-x="2058" d="M100 530q0 153 58 277t170 198t260 74q250 0 393 -217v193h131v-176q137 200 367 200q147 0 260 -70.5t172 -188t59 -261.5q0 -37 -4 -61h-852q7 -183 112 -288.5t275 -105.5q191 0 320 144l92 -92q-164 -181 -414 -181q-165 0 -283.5 74.5t-179.5 208.5 q-55 -129 -172.5 -206t-267.5 -77q-220 0 -358 157.5t-138 397.5zM240 528q0 -90 22.5 -166.5t66.5 -135t114.5 -91.5t160.5 -33q178 0 277.5 120.5t99.5 305.5t-100 304.5t-277 119.5q-176 0 -270 -118.5t-94 -305.5zM1118 610h713q-14 164 -113.5 254t-242.5 90 q-151 0 -248 -96t-109 -248z" />
<glyph horiz-adv-x="1605" d="M18 0l613 1120h850v-121h-568v-346h484v-121h-484v-411h588v-121h-719v334h-442l2 4l-184 -338h-140zM406 455h376v544h-80z" />
<glyph horiz-adv-x="1605" d="M18 0l613 1120h850v-121h-568v-346h484v-121h-484v-411h588v-121h-719v522q-180 -30 -317.5 -119t-204.5 -213l-102 -190h-140zM438 514q139 97 344 129v356h-80z" />
<glyph horiz-adv-x="1816" d="M0 0l705 1364h989v-135h-664v-438h563v-134h-563v-522h684v-135h-831v647q-423 -57 -629 -457l-98 -190h-156zM477 625q176 126 406 157v447h-95zM868 1505q50 50 102.5 118t82.5 120l141 -23q-29 -65 -106 -143t-164 -131z" />
<glyph horiz-adv-x="2058" d="M100 530q0 153 58 277t170 198t260 74q250 0 393 -217v193h131v-176q137 200 367 200q147 0 260 -70.5t172 -188t59 -261.5q0 -37 -4 -61h-852q7 -183 112 -288.5t275 -105.5q191 0 320 144l92 -92q-164 -181 -414 -181q-165 0 -283.5 74.5t-179.5 208.5 q-55 -129 -172.5 -206t-267.5 -77q-220 0 -358 157.5t-138 397.5zM240 528q0 -90 22.5 -166.5t66.5 -135t114.5 -91.5t160.5 -33q178 0 277.5 120.5t99.5 305.5t-100 304.5t-277 119.5q-176 0 -270 -118.5t-94 -305.5zM952 1247q50 50 102.5 118t82.5 120l141 -23 q-29 -65 -106 -143t-164 -131zM1118 610h713q-14 164 -113.5 254t-242.5 90q-151 0 -248 -96t-109 -248z" />
<glyph horiz-adv-x="1605" d="M18 0l613 1120h850v-121h-568v-346h484v-121h-484v-411h588v-121h-719v334h-442l2 4l-184 -338h-140zM406 455h376v544h-80zM758 1247q50 50 102 117.5t82 120.5l141 -23q-29 -65 -106 -143t-164 -131z" />
<glyph horiz-adv-x="1605" d="M18 0l613 1120h850v-121h-568v-346h484v-121h-484v-411h588v-121h-719v522q-180 -30 -317.5 -119t-204.5 -213l-102 -190h-140zM438 514q139 97 344 129v356h-80zM758 1247q50 50 102 117.5t82 120.5l141 -23q-29 -65 -106 -143t-164 -131z" />
<glyph horiz-adv-x="1318" d="M100 526q0 240 133.5 396.5t354.5 156.5q250 0 393 -217v193h131v-830q0 -68 21.5 -98.5t72.5 -30.5q40 0 66 13l18 -109q-44 -16 -104 -16q-81 0 -136.5 47t-64.5 143q-72 -105 -175 -152t-218 -47q-150 0 -263 73t-171 197.5t-58 280.5zM240 528q0 -90 22.5 -166.5 t66.5 -135t114.5 -91.5t160.5 -33q178 0 277.5 120.5t99.5 305.5t-100 304.5t-277 119.5q-176 0 -270 -118.5t-94 -305.5zM406 1462l141 23q30 -53 82 -120.5t102 -117.5l-55 -59q-87 53 -164 131t-106 143z" />
<glyph horiz-adv-x="1202" d="M43 0l485 1120h146l485 -1120h-141l-144 334h-555l-143 -334h-133zM354 1462l142 23q30 -53 82 -120.5t102 -117.5l-55 -59q-87 53 -164.5 131t-106.5 143zM373 455h448l-223 544z" />
<glyph horiz-adv-x="1318" d="M100 526q0 240 133.5 396.5t354.5 156.5q250 0 393 -217v193h131v-830q0 -68 21.5 -98.5t72.5 -30.5q40 0 66 13l18 -109q-44 -16 -104 -16q-81 0 -136.5 47t-64.5 143q-72 -105 -175 -152t-218 -47q-150 0 -263 73t-171 197.5t-58 280.5zM240 528q0 -90 22.5 -166.5 t66.5 -135t114.5 -91.5t160.5 -33q178 0 277.5 120.5t99.5 305.5t-100 304.5t-277 119.5q-176 0 -270 -118.5t-94 -305.5zM317 1262v102h592v-102h-592z" />
<glyph horiz-adv-x="1202" d="M43 0l485 1120h146l485 -1120h-141l-144 334h-555l-143 -334h-133zM303 1262v102h592v-102h-592zM373 455h448l-223 544z" />
<glyph horiz-adv-x="1318" d="M100 526q0 240 133.5 396.5t354.5 156.5q250 0 393 -217v193h131v-830q0 -68 21.5 -98.5t72.5 -30.5q40 0 66 13l18 -109q-44 -16 -104 -16q-39 0 -66 8q-63 -69 -63 -142q0 -48 27 -73t71 -25q68 0 127 74v-123q-55 -59 -154 -59q-78 0 -132 42.5t-54 123.5 q0 113 121 208q-69 50 -78 156q-72 -105 -175 -152t-218 -47q-150 0 -263 73t-171 197.5t-58 280.5zM240 528q0 -90 22.5 -166.5t66.5 -135t114.5 -91.5t160.5 -33q178 0 277.5 120.5t99.5 305.5t-100 304.5t-277 119.5q-176 0 -270 -118.5t-94 -305.5z" />
<glyph horiz-adv-x="1202" d="M43 0l481 1120h154l481 -1120q-201 -48 -201 -156q0 -40 27 -66t72 -26q68 0 127 74v-123q-55 -59 -154 -59q-77 0 -131.5 42t-54.5 117q0 121 168 211l-138 320h-555l-143 -334h-133zM373 455h448l-223 549z" />
<glyph horiz-adv-x="1318" d="M100 526q0 240 133.5 396.5t354.5 156.5q250 0 393 -217v193h131v-830q0 -68 21.5 -98.5t72.5 -30.5q40 0 66 13l18 -109q-44 -16 -104 -16q-81 0 -136.5 47t-64.5 143q-72 -105 -175 -152t-218 -47q-150 0 -263 73t-171 197.5t-58 280.5zM240 528q0 -90 22.5 -166.5 t66.5 -135t114.5 -91.5t160.5 -33q178 0 277.5 120.5t99.5 305.5t-100 304.5t-277 119.5q-176 0 -270 -118.5t-94 -305.5zM406 1395q0 85 60 146t144 61t143.5 -61t59.5 -146t-59 -145t-144 -60t-144.5 60t-59.5 145zM489 1395q0 -51 35 -86t86 -35q50 0 84.5 35t34.5 86 t-35 87t-84 36q-51 0 -86 -36t-35 -87z" />
<glyph horiz-adv-x="1202" d="M43 0l457 1065q-48 25 -76.5 72.5t-28.5 105.5q0 85 59 145t144 60t145 -60t60 -145q0 -56 -28 -102.5t-75 -73.5l459 -1067h-141l-144 334h-555l-143 -334h-133zM373 455h448l-223 549zM479 1241q0 -51 35 -86t86 -35q50 0 84.5 35t34.5 86t-35 87t-84 36q-51 0 -86 -36 t-35 -87z" />
<glyph horiz-adv-x="1318" d="M100 526q0 240 133.5 396.5t354.5 156.5q250 0 393 -217v193h131v-830q0 -68 21.5 -98.5t72.5 -30.5q40 0 66 13l18 -109q-44 -16 -104 -16q-81 0 -136.5 47t-64.5 143q-72 -105 -175 -152t-218 -47q-150 0 -263 73t-171 197.5t-58 280.5zM240 528q0 -90 22.5 -166.5 t66.5 -135t114.5 -91.5t160.5 -33q178 0 277.5 120.5t99.5 305.5t-100 304.5t-277 119.5q-176 0 -270 -118.5t-94 -305.5zM406 1325q0 85 60 146t144 61t143.5 -61t59.5 -146t-59 -145t-144 -60t-144.5 60t-59.5 145zM475 1610q50 50 102 117.5t82 119.5l142 -22 q-29 -65 -106.5 -143.5t-164.5 -131.5zM489 1325q0 -51 35 -86t86 -35q50 0 84.5 35t34.5 86t-35 87t-84 36q-51 0 -86 -36t-35 -87z" />
<glyph horiz-adv-x="1202" d="M43 0l457 1065q-48 25 -76.5 72.5t-28.5 105.5q0 85 59 145t144 60t145 -60t60 -145q0 -56 -28 -102.5t-75 -73.5l459 -1067h-141l-144 334h-555l-143 -334h-133zM373 455h448l-223 549zM479 1241q0 -51 35 -86t86 -35q50 0 84.5 35t34.5 86t-35 87t-84 36q-51 0 -86 -36 t-35 -87zM479 1546q50 50 102.5 118t82.5 120l141 -23q-29 -65 -106 -143t-164 -131z" />
<glyph horiz-adv-x="1318" d="M100 526q0 240 133.5 396.5t354.5 156.5q250 0 393 -217v193h131v-830q0 -68 21.5 -98.5t72.5 -30.5q40 0 66 13l18 -109q-44 -16 -104 -16q-81 0 -136.5 47t-64.5 143q-72 -105 -175 -152t-218 -47q-150 0 -263 73t-171 197.5t-58 280.5zM240 528q0 -90 22.5 -166.5 t66.5 -135t114.5 -91.5t160.5 -33q178 0 277.5 120.5t99.5 305.5t-100 304.5t-277 119.5q-176 0 -270 -118.5t-94 -305.5zM293 1272q28 73 75 115.5t101 42.5q44 0 134 -39t128 -39q67 0 127 73l60 -39q-28 -73 -75.5 -115t-101.5 -42q-44 0 -134 39t-128 39q-66 0 -127 -74 z" />
<glyph horiz-adv-x="1202" d="M43 0l485 1120h146l485 -1120h-141l-144 334h-555l-143 -334h-133zM287 1272q28 73 75 115.5t101 42.5q44 0 134 -39t128 -39q67 0 127 73l59 -39q-28 -73 -75 -115t-101 -42q-44 0 -134 39t-128 39q-66 0 -127 -74zM373 455h448l-223 544z" />
<glyph horiz-adv-x="1179" d="M106 559q0 166 67.5 299t193.5 210t290 77q138 0 250.5 -56.5t186.5 -156.5l-107 -82q-53 81 -138.5 125.5t-191.5 44.5q-124 0 -218.5 -61t-143.5 -165.5t-49 -234.5q0 -199 112 -329t299 -130q104 0 190.5 45t141.5 123l105 -82q-73 -100 -185.5 -155.5t-251.5 -55.5 q-163 0 -289.5 77t-194 209.5t-67.5 297.5zM571 1243q93 110 148 242l141 -23q-30 -68 -92 -142t-141 -132z" />
<glyph horiz-adv-x="1179" d="M106 559q0 166 67.5 299t193.5 210t290 77q138 0 250.5 -56.5t186.5 -156.5l-107 -82q-53 81 -138.5 125.5t-191.5 44.5q-124 0 -218.5 -61t-143.5 -165.5t-49 -234.5q0 -199 112 -329t299 -130q104 0 190.5 45t141.5 123l105 -82q-73 -100 -185.5 -155.5t-251.5 -55.5 q-163 0 -289.5 77t-194 209.5t-67.5 297.5zM330 1409l43 76q157 -60 270 -168q113 108 270 168l43 -76q-132 -92 -258 -209h-110q-126 117 -258 209z" />
<glyph horiz-adv-x="1183" d="M109 559q0 166 67 298.5t193.5 210t289.5 77.5q138 0 250.5 -56.5t186.5 -156.5l-107 -82q-53 81 -138.5 125.5t-191.5 44.5q-124 0 -218.5 -61t-143.5 -165.5t-49 -234.5q0 -199 112 -329t299 -130q104 0 190.5 45t141.5 123l105 -82q-70 -96 -177 -151.5t-239 -59.5 q84 -64 84 -151q0 -74 -55 -117t-134 -43q-93 0 -143 47v101q54 -54 121 -54q41 0 68.5 25t27.5 65q0 76 -84 136q-208 30 -332 189.5t-124 385.5z" />
<glyph horiz-adv-x="1179" d="M106 559q0 166 67.5 299t193.5 210t290 77q138 0 250.5 -56.5t186.5 -156.5l-107 -82q-53 81 -138.5 125.5t-191.5 44.5q-124 0 -218.5 -61t-143.5 -165.5t-49 -234.5q0 -199 112 -329t299 -130q104 0 190.5 45t141.5 123l105 -82q-73 -100 -185.5 -155.5t-251.5 -55.5 q-163 0 -289.5 77t-194 209.5t-67.5 297.5zM580 1229v135h129v-135h-129z" />
<glyph horiz-adv-x="1179" d="M106 559q0 166 67.5 299t193.5 210t290 77q138 0 250.5 -56.5t186.5 -156.5l-107 -82q-53 81 -138.5 125.5t-191.5 44.5q-124 0 -218.5 -61t-143.5 -165.5t-49 -234.5q0 -199 112 -329t299 -130q104 0 190.5 45t141.5 123l105 -82q-73 -100 -185.5 -155.5t-251.5 -55.5 q-163 0 -289.5 77t-194 209.5t-67.5 297.5zM338 1276q132 92 258 209h111q126 -117 258 -209l-43 -76q-158 61 -271 168q-113 -108 -270 -168z" />
<glyph horiz-adv-x="1271" d="M184 0v1120h443q168 0 290 -73.5t183 -199t61 -286.5q0 -249 -141.5 -405t-392.5 -156h-443zM313 1409l43 76q158 -61 271 -168q113 108 270 168l43 -76q-132 -92 -258 -209h-111q-126 117 -258 209zM317 121h310q128 0 218 57.5t133.5 155.5t43.5 227q0 197 -102 317.5 t-293 120.5h-310v-878z" />
<glyph horiz-adv-x="1271" d="M51 502v119h133v499h443q168 0 290 -73.5t183 -199t61 -286.5q0 -249 -141.5 -405t-392.5 -156h-443v502h-133zM317 121h310q128 0 218 57.5t133.5 155.5t43.5 227q0 197 -102 317.5t-293 120.5h-310v-378h306v-119h-306v-381z" />
<glyph horiz-adv-x="1099" d="M184 0v1120h789v-123h-656v-344h576v-121h-576v-411h676v-121h-809zM477 1247q50 50 102.5 118t82.5 120l141 -23q-29 -65 -106.5 -143t-164.5 -131z" />
<glyph horiz-adv-x="1099" d="M184 0v1120h789v-123h-656v-344h576v-121h-576v-411h676v-121h-809zM276 1454l89 27q14 -63 72 -105.5t145 -42.5t145 42.5t72 105.5l88 -27q-14 -102 -97 -167.5t-208 -65.5t-208.5 65.5t-97.5 167.5z" />
<glyph horiz-adv-x="1099" d="M184 0v1120h789v-123h-656v-344h576v-121h-576v-411h676v-121h-809zM272 1409l43 76q158 -61 271 -168q113 108 270 168l43 -76q-132 -92 -258 -209h-111q-126 117 -258 209z" />
<glyph horiz-adv-x="1099" d="M184 0v1120h789v-123h-656v-344h576v-121h-576v-411h676v-121h-809zM281 1276q132 92 258 209h110q126 -117 258 -209l-43 -76q-157 60 -270 168q-113 -108 -270 -168z" />
<glyph horiz-adv-x="1099" d="M184 0v1120h789v-123h-656v-344h576v-121h-576v-411h676v-121h-809zM313 1229v135h129v-135h-129zM731 1229v135h129v-135h-129z" />
<glyph horiz-adv-x="1099" d="M184 0v1120h789v-123h-656v-344h576v-121h-576v-411h676v-121h-809zM520 1229v135h129v-135h-129z" />
<glyph horiz-adv-x="1099" d="M184 0v1120h789v-123h-656v-344h576v-121h-576v-411h676v-121h-809zM358 1462l142 23q30 -53 82 -120.5t102 -117.5l-55 -59q-87 53 -164.5 131t-106.5 143z" />
<glyph horiz-adv-x="1099" d="M184 0v1120h789v-123h-656v-344h576v-121h-576v-411h676v-121h-809zM297 1262v102h592v-102h-592z" />
<glyph horiz-adv-x="1099" d="M184 0v1120h789v-123h-656v-344h576v-121h-576v-411h676v-121h-153q-72 -72 -72 -150q0 -48 27 -73t71 -25q68 0 127 74v-123q-55 -59 -153 -59q-78 0 -132.5 42.5t-54.5 123.5q0 103 97 190h-566z" />
<glyph horiz-adv-x="1271" d="M51 502v119h133v499h445q255 0 393.5 -153.5t138.5 -407.5q0 -166 -59.5 -290.5t-181 -196.5t-291.5 -72h-445v502h-133zM317 121h310q187 0 291 114.5t104 323.5q0 207 -104.5 322.5t-290.5 115.5h-310v-376h306v-119h-306v-381z" />
<glyph horiz-adv-x="1265" d="M106 559q0 166 67.5 299t193.5 210t290 77q138 0 250.5 -56.5t186.5 -156.5l-107 -82q-53 81 -138.5 125.5t-191.5 44.5q-124 0 -218.5 -61t-143.5 -165.5t-49 -234.5q0 -199 112.5 -329t300.5 -130q166 0 269.5 101t111.5 248h-354v120h485q7 -32 7 -73 q0 -101 -34.5 -194t-98.5 -166t-164 -117t-222 -44q-164 0 -291 77t-194.5 209.5t-67.5 297.5zM352 1454l88 27q14 -63 72 -105.5t145 -42.5t145 42.5t72 105.5l89 -27q-14 -102 -97.5 -167.5t-208.5 -65.5t-208 65.5t-97 167.5z" />
<glyph horiz-adv-x="1265" d="M106 559q0 166 67.5 299t193.5 210t290 77q138 0 250.5 -56.5t186.5 -156.5l-107 -82q-53 81 -138.5 125.5t-191.5 44.5q-124 0 -218.5 -61t-143.5 -165.5t-49 -234.5q0 -199 112.5 -329t300.5 -130q166 0 269.5 101t111.5 248h-354v120h485q7 -32 7 -73 q0 -101 -34.5 -194t-98.5 -166t-164 -117t-222 -44q-164 0 -291 77t-194.5 209.5t-67.5 297.5zM471 -356q85 104 143 243l140 -22q-30 -68 -91.5 -143t-136.5 -132z" />
<glyph horiz-adv-x="1265" d="M106 559q0 166 67.5 299t193.5 210t290 77q138 0 250.5 -56.5t186.5 -156.5l-107 -82q-53 81 -138.5 125.5t-191.5 44.5q-124 0 -218.5 -61t-143.5 -165.5t-49 -234.5q0 -199 112.5 -329t300.5 -130q166 0 269.5 101t111.5 248h-354v120h485q7 -32 7 -73 q0 -101 -34.5 -194t-98.5 -166t-164 -117t-222 -44q-164 0 -291 77t-194.5 209.5t-67.5 297.5zM592 1229v135h129v-135h-129z" />
<glyph horiz-adv-x="1265" d="M106 559q0 166 67.5 299t193.5 210t290 77q138 0 250.5 -56.5t186.5 -156.5l-107 -82q-53 81 -138.5 125.5t-191.5 44.5q-124 0 -218.5 -61t-143.5 -165.5t-49 -234.5q0 -199 112.5 -329t300.5 -130q166 0 269.5 101t111.5 248h-354v120h485q7 -32 7 -73 q0 -101 -34.5 -194t-98.5 -166t-164 -117t-222 -44q-164 0 -291 77t-194.5 209.5t-67.5 297.5zM340 1276q132 92 258 209h111q126 -117 258 -209l-43 -76q-158 61 -271 168q-113 -108 -270 -168z" />
<glyph horiz-adv-x="1288" d="M82 864v92h102v164h131v-164h656v164h133v-164h102v-92h-102v-864h-133v532h-656v-532h-131v864h-102zM315 653h656v211h-656v-211z" />
<glyph horiz-adv-x="1288" d="M184 0v1120h133v-467h654v467h133v-1120h-133v532h-654v-532h-133zM330 1276q132 92 258 209h110q126 -117 258 -209l-43 -76q-157 60 -270 168q-113 -108 -270 -168z" />
<glyph horiz-adv-x="501" d="M156 1247q50 50 102 117.5t82 120.5l141 -23q-29 -65 -106 -143t-164 -131zM184 0v1120h133v-1120h-133z" />
<glyph horiz-adv-x="501" d="M-55 1454l88 27q14 -63 72 -105.5t145 -42.5t145 42.5t72 105.5l88 -27q-14 -102 -97 -167.5t-208 -65.5t-208 65.5t-97 167.5zM184 0v1120h133v-1120h-133z" />
<glyph horiz-adv-x="501" d="M-63 1276q132 92 258 209h110q126 -117 258 -209l-43 -76q-157 60 -270 168q-113 -108 -270 -168zM184 0v1120h133v-1120h-133z" />
<glyph horiz-adv-x="501" d="M20 1229v135h130v-135h-130zM184 0v1120h133v-1120h-133zM352 1229v135h129v-135h-129z" />
<glyph horiz-adv-x="501" d="M184 0v1120h133v-1120h-133zM186 1229v135h129v-135h-129z" />
<glyph horiz-adv-x="501" d="M23 1462l141 23q30 -53 82 -120.5t102 -117.5l-55 -59q-87 53 -164 131t-106 143zM184 0v1120h133v-1120h-133z" />
<glyph horiz-adv-x="501" d="M-45 1262v102h592v-102h-592zM184 0v1120h133v-1120h-133z" />
<glyph horiz-adv-x="499" d="M37 -195q0 55 35 106.5t112 88.5v1120h131v-1120q-24 -7 -49 -18t-54.5 -29.5t-48 -47t-18.5 -61.5q0 -40 28 -66t73 -26q67 0 125 74v-123q-24 -25 -63.5 -42t-86.5 -17q-76 0 -130 46t-54 115z" />
<glyph horiz-adv-x="501" d="M-63 1272q28 73 75 115.5t101 42.5q44 0 134 -39t128 -39q67 0 127 73l59 -39q-28 -73 -75 -115t-101 -42q-44 0 -134 39t-128 39q-66 0 -127 -74zM184 0v1120h133v-1120h-133z" />
<glyph horiz-adv-x="987" d="M37 150l115 81q93 -118 249 -118q261 0 261 299v817h-412v135h557v-952q0 -207 -115 -322t-305 -115q-229 0 -350 175zM215 1534q132 92 258 209h111q126 -117 258 -209l-43 -76q-158 61 -271 168q-113 -108 -270 -168z" />
<glyph horiz-adv-x="856" d="M31 125l104 74q79 -101 207 -101q209 0 209 238v784h133v-784q0 -171 -96.5 -266t-255.5 -95q-198 0 -301 150zM303 1276q132 92 258 209h111q126 -117 258 -209l-43 -76q-158 61 -271 168q-113 -108 -270 -168z" />
<glyph horiz-adv-x="866" d="M41 125l104 74q79 -101 207 -101q209 0 209 238v661h-338v123h471v-784q0 -171 -96.5 -266t-255.5 -95q-198 0 -301 150zM143 1276q132 92 258 209h111q126 -117 258 -209l-43 -76q-157 60 -270 168q-113 -107 -271 -168z" />
<glyph horiz-adv-x="1122" d="M184 0v1120h131v-626l576 626h170l-453 -485l496 -635h-170l-418 543q-35 -37 -100.5 -108.5t-100.5 -108.5v-326h-131zM438 -356q87 107 144 243l139 -22q-30 -68 -91 -143t-136 -132z" />
<glyph horiz-adv-x="534" d="M139 1554q50 50 102.5 118t82.5 120l141 -23q-29 -65 -106 -143t-164 -131zM170 238v1224h131v-1224q0 -73 26.5 -104.5t80.5 -31.5q58 0 88 25l34 -117q-47 -28 -129 -28q-131 0 -190 81q-41 54 -41 175z" />
<glyph horiz-adv-x="1007" d="M154 1247q50 50 102 117.5t82 120.5l141 -23q-29 -65 -106 -143t-164 -131zM184 0v1120h131v-999h648v-121h-779z" />
<glyph horiz-adv-x="548" d="M170 238v1224h131v-1224q0 -73 26.5 -104.5t80.5 -31.5q58 0 88 25l34 -117q-47 -28 -129 -28q-131 0 -190 81q-41 54 -41 175zM467 1085q35 39 55.5 91.5t20.5 97.5q-1 33 -19 81t-18 77v30h147v-143q0 -153 -133 -283z" />
<glyph horiz-adv-x="1007" d="M184 0v1120h131v-999h648v-121h-779zM502 743q35 39 55.5 91.5t20.5 97.5q-1 33 -19 81t-18 77v30h147v-143q0 -153 -133 -283z" />
<glyph horiz-adv-x="534" d="M143 -356q87 107 144 243l139 -22q-30 -68 -91 -143t-136 -132zM170 238v1224h131v-1224q0 -73 26.5 -104.5t80.5 -31.5q58 0 88 25l34 -117q-47 -28 -129 -28q-131 0 -190 81q-41 54 -41 175z" />
<glyph horiz-adv-x="1007" d="M184 0v1120h131v-999h648v-121h-779zM408 -356q85 104 143 243l139 -22q-30 -68 -91 -143t-136 -132z" />
<glyph horiz-adv-x="835" d="M170 238v1224h131v-1224q0 -73 26.5 -104.5t80.5 -31.5q58 0 88 25l34 -117q-47 -28 -129 -28q-131 0 -190 81q-41 54 -41 175zM571 623q0 43 32 75.5t75 32.5q42 0 73 -32.5t31 -75.5t-30.5 -74t-73.5 -31t-75 31t-32 74z" />
<glyph horiz-adv-x="1007" d="M184 0v1120h131v-999h648v-121h-779zM647 623q0 43 32 75.5t75 32.5q42 0 73 -32.5t31 -75.5t-30.5 -74t-73.5 -31t-75 31t-32 74z" />
<glyph horiz-adv-x="630" d="M-2 645v121l242 117v579h131v-516l245 119v-121l-245 -119v-587q0 -75 25 -105.5t83 -30.5q69 0 107 25l35 -117q-58 -28 -150 -28q-131 0 -190 81q-41 54 -41 175v524z" />
<glyph horiz-adv-x="1046" d="M18 340v113l205 98v569h131v-508l391 193v-113l-391 -194v-377h647v-121h-778v438z" />
<glyph horiz-adv-x="1288" d="M184 0v1120h185l606 -952v952h129v-1120h-166l-625 973v-973h-129zM567 1243q93 110 148 242l141 -23q-30 -68 -92 -142t-141 -132z" />
<glyph horiz-adv-x="1288" d="M184 0v1120h185l606 -952v952h129v-1120h-166l-625 973v-973h-129zM350 1409l43 76q158 -61 271 -168q113 108 270 168l43 -76q-132 -92 -258 -209h-111q-126 117 -258 209z" />
<glyph horiz-adv-x="1288" d="M184 0v1120h185l606 -952v952h129v-1120h-166l-625 973v-973h-129zM451 -356q85 104 143 243l139 -22q-30 -68 -91 -143t-136 -132z" />
<glyph horiz-adv-x="1288" d="M184 0v1120h185l606 -952v952h129v-1120h-166l-625 973v-973h-129zM342 1272q28 73 75 115.5t101 42.5q44 0 134 -39t128 -39q67 0 127 73l60 -39q-28 -73 -75 -115t-101 -42q-44 0 -134.5 39t-128.5 39q-66 0 -127 -74z" />
<glyph horiz-adv-x="1288" d="M184 0v1120h183l608 -903v903h129v-1065q0 -170 -99.5 -263t-259.5 -93q-90 0 -161 29l51 114q52 -20 113 -20q106 0 163.5 54t57.5 130l-660 975v-981h-125z" />
<glyph horiz-adv-x="1314" d="M106 559q0 166 67.5 299t193.5 210t290 77q163 0 289.5 -77t194 -209.5t67.5 -297.5q0 -166 -67.5 -299t-193.5 -210t-290 -77q-163 0 -289.5 77t-194 209.5t-67.5 297.5zM246 559q0 -199 112 -329t299 -130t299.5 131t112.5 330t-112.5 329t-299.5 130 q-124 0 -218.5 -61t-143.5 -165.5t-49 -234.5zM549 1247q50 50 102 117.5t82 120.5l141 -23q-29 -65 -106 -143t-164 -131z" />
<glyph horiz-adv-x="1314" d="M106 559q0 166 67.5 299t193.5 210t290 77q163 0 289.5 -77t194 -209.5t67.5 -297.5q0 -166 -67.5 -299t-193.5 -210t-290 -77q-163 0 -289.5 77t-194 209.5t-67.5 297.5zM246 559q0 -199 112 -329t299 -130t299.5 131t112.5 330t-112.5 329t-299.5 130 q-124 0 -218.5 -61t-143.5 -165.5t-49 -234.5zM352 1454l88 27q14 -63 72 -105.5t145 -42.5t145 42.5t72 105.5l89 -27q-14 -102 -97.5 -167.5t-208.5 -65.5t-208 65.5t-97 167.5z" />
<glyph horiz-adv-x="1314" d="M106 559q0 166 67.5 299t193.5 210t290 77q163 0 289.5 -77t194 -209.5t67.5 -297.5q0 -166 -67.5 -299t-193.5 -210t-290 -77q-163 0 -289.5 77t-194 209.5t-67.5 297.5zM246 559q0 -199 112 -329t299 -130t299.5 131t112.5 330t-112.5 329t-299.5 130 q-124 0 -218.5 -61t-143.5 -165.5t-49 -234.5zM342 1276q132 92 258 209h111q126 -117 258 -209l-43 -76q-158 61 -271 168q-113 -108 -270 -168z" />
<glyph horiz-adv-x="1314" d="M106 559q0 166 67.5 299t193.5 210t290 77q163 0 289.5 -77t194 -209.5t67.5 -297.5q0 -166 -67.5 -299t-193.5 -210t-290 -77q-163 0 -289.5 77t-194 209.5t-67.5 297.5zM246 559q0 -199 112 -329t299 -130t299.5 131t112.5 330t-112.5 329t-299.5 130 q-124 0 -218.5 -61t-143.5 -165.5t-49 -234.5zM383 1229v135h129v-135h-129zM801 1229v135h129v-135h-129z" />
<glyph horiz-adv-x="2123" d="M106 682q0 202 80.5 362.5t230.5 252.5t345 92q97 0 186 -25h1053v-135h-807q86 -78 140.5 -192t72.5 -246h491v-134h-485q-5 -157 -62.5 -293.5t-158.5 -228.5h829v-135h-1073q-89 -25 -186 -25q-195 0 -345 92.5t-230.5 253t-80.5 361.5zM260 682q0 -256 135.5 -412.5 t366.5 -156.5q230 0 366 156.5t136 412.5q0 257 -136 413t-366 156q-231 0 -366.5 -156t-135.5 -413z" />
<glyph horiz-adv-x="1777" d="M109 559q0 246 148 403.5t405 157.5h989v-121h-629v-346h547v-121h-547v-411h649v-121h-1009q-172 0 -298.5 74t-190.5 199.5t-64 285.5zM246 559q0 -193 110 -315.5t306 -122.5h231v878h-231q-195 0 -305.5 -123t-110.5 -317z" />
<glyph horiz-adv-x="1826" d="M106 559q0 166 67.5 299t193.5 210t290 77q87 0 170 -25h875v-123h-670q136 -136 164 -344h426v-121h-420q-4 -123 -49 -229t-123 -182h692v-121h-895q-83 -25 -170 -25q-163 0 -289.5 77t-194 209.5t-67.5 297.5zM246 559q0 -199 112 -329t299 -130t299.5 131t112.5 330 t-112.5 329t-299.5 130q-124 0 -218.5 -61t-143.5 -165.5t-49 -234.5z" />
<glyph horiz-adv-x="1314" d="M106 559q0 166 67.5 299t193.5 210t290 77q163 0 289.5 -77t194 -209.5t67.5 -297.5q0 -166 -67.5 -299t-193.5 -210t-290 -77q-163 0 -289.5 77t-194 209.5t-67.5 297.5zM246 559q0 -199 112 -329t299 -130t299.5 131t112.5 330t-112.5 329t-299.5 130 q-124 0 -218.5 -61t-143.5 -165.5t-49 -234.5zM449 1462l141 23q30 -53 82 -120.5t102 -117.5l-55 -59q-87 53 -164 131t-106 143z" />
<glyph horiz-adv-x="1314" d="M106 559q0 166 67.5 299t193.5 210t290 77q163 0 289.5 -77t194 -209.5t67.5 -297.5q0 -166 -67.5 -299t-193.5 -210t-290 -77q-163 0 -289.5 77t-194 209.5t-67.5 297.5zM246 559q0 -199 112 -329t299 -130t299.5 131t112.5 330t-112.5 329t-299.5 130 q-124 0 -218.5 -61t-143.5 -165.5t-49 -234.5zM436 1247q50 50 102.5 118t82.5 120l141 -23q-29 -65 -106 -143t-164 -131zM737 1247q50 50 102.5 118t82.5 120l141 -23q-29 -65 -106 -143t-164 -131z" />
<glyph horiz-adv-x="1314" d="M106 559q0 166 67.5 299t193.5 210t290 77q163 0 289.5 -77t194 -209.5t67.5 -297.5q0 -166 -67.5 -299t-193.5 -210t-290 -77q-163 0 -289.5 77t-194 209.5t-67.5 297.5zM246 559q0 -199 112 -329t299 -130t299.5 131t112.5 330t-112.5 329t-299.5 130 q-124 0 -218.5 -61t-143.5 -165.5t-49 -234.5zM360 1262v102h592v-102h-592z" />
<glyph horiz-adv-x="1314" d="M106 559q0 166 67.5 299t193.5 210t290 77q162 0 291 -80l53 76l82 -58l-55 -77q86 -80 133 -195t47 -250q0 -166 -67.5 -299t-193.5 -210t-290 -77q-163 0 -292 80l-54 -75l-82 57l56 78q-86 80 -132.5 194.5t-46.5 249.5zM246 559q0 -206 116 -334l512 733 q-94 62 -217 62q-124 0 -218.5 -61t-143.5 -165.5t-49 -234.5zM438 162q97 -62 219 -62q187 0 299.5 131t112.5 330q0 202 -119 334z" />
<glyph horiz-adv-x="1314" d="M106 559q0 166 67.5 299t193.5 210t290 77q162 0 291 -80l53 76l82 -58l-55 -77q86 -80 133 -195t47 -250q0 -166 -67.5 -299t-193.5 -210t-290 -77q-163 0 -292 80l-54 -75l-82 57l56 78q-86 80 -132.5 194.5t-46.5 249.5zM246 559q0 -206 116 -334l512 733 q-94 62 -217 62q-124 0 -218.5 -61t-143.5 -165.5t-49 -234.5zM438 162q97 -62 219 -62q187 0 299.5 131t112.5 330q0 202 -119 334zM549 1247q50 50 102 117.5t82 120.5l141 -23q-29 -65 -106 -143t-164 -131z" />
<glyph horiz-adv-x="1314" d="M106 559q0 166 67.5 299t193.5 210t290 77q163 0 289.5 -77t194 -209.5t67.5 -297.5q0 -166 -67.5 -299t-193.5 -210t-290 -77q-163 0 -289.5 77t-194 209.5t-67.5 297.5zM246 559q0 -199 112 -329t299 -130t299.5 131t112.5 330t-112.5 329t-299.5 130 q-124 0 -218.5 -61t-143.5 -165.5t-49 -234.5zM342 1272q28 73 75 115.5t101 42.5q44 0 134 -39t128 -39q67 0 127 73l60 -39q-28 -73 -75 -115t-101 -42q-44 0 -134.5 39t-128.5 39q-66 0 -127 -74z" />
<glyph horiz-adv-x="1165" d="M184 0v1120h486q170 0 271 -86.5t101 -234.5q0 -116 -65 -194t-176 -113l272 -492h-147l-256 469h-355v-469h-131zM315 592h357q109 0 171 55t62 148t-60.5 147.5t-172.5 54.5h-357v-405zM479 1247q50 50 102.5 118t82.5 120l141 -23q-29 -65 -106 -143t-164 -131z" />
<glyph horiz-adv-x="1165" d="M184 0v1120h486q170 0 271 -86.5t101 -234.5q0 -116 -65 -194t-176 -113l272 -492h-147l-256 469h-355v-469h-131zM272 1409l43 76q158 -61 271 -168q113 108 270 168l43 -76q-132 -92 -258 -209h-111q-126 117 -258 209zM315 592h357q109 0 171 55t62 148t-60.5 147.5 t-172.5 54.5h-357v-405z" />
<glyph horiz-adv-x="1165" d="M184 0v1120h486q170 0 271 -86.5t101 -234.5q0 -116 -65 -194t-176 -113l272 -492h-147l-256 469h-355v-469h-131zM315 592h357q109 0 171 55t62 148t-60.5 147.5t-172.5 54.5h-357v-405zM414 -356q85 104 143 243l139 -22q-30 -68 -91 -143t-136 -132z" />
<glyph horiz-adv-x="1062" d="M84 199l111 82q57 -90 151 -136.5t203 -46.5q123 0 198.5 56.5t75.5 152.5q0 42 -16.5 73.5t-39.5 50.5t-69 36t-82.5 25.5t-102.5 22.5l-15 3q-64 13 -112 27.5t-98.5 39.5t-83 57t-53 80t-20.5 109q0 144 110.5 229t276.5 85q127 0 236.5 -52.5t185.5 -142.5l-100 -80 q-55 70 -141 111t-187 41q-104 0 -174 -44t-70 -134q0 -38 14 -67t35 -47.5t60.5 -34t73.5 -25t92 -21.5q64 -14 109 -26.5t97.5 -31.5t87 -43t65 -56.5t45 -76.5t14.5 -98q0 -153 -116.5 -247.5t-307.5 -94.5q-151 0 -268.5 61t-184.5 163zM209 1276q132 92 258 209h111 q126 -117 258 -209l-43 -76q-158 61 -271 168q-113 -108 -270 -168z" />
<glyph horiz-adv-x="1062" d="M84 199l111 82q57 -90 151 -136.5t203 -46.5q123 0 198.5 56.5t75.5 152.5q0 42 -16.5 73.5t-39.5 50.5t-69 36t-82.5 25.5t-102.5 22.5l-15 3q-64 13 -112 27.5t-98.5 39.5t-83 57t-53 80t-20.5 109q0 144 110.5 229t276.5 85q127 0 236.5 -52.5t185.5 -142.5l-100 -80 q-55 70 -141 111t-187 41q-104 0 -174 -44t-70 -134q0 -38 14 -67t35 -47.5t60.5 -34t73.5 -25t92 -21.5q64 -14 109 -26.5t97.5 -31.5t87 -43t65 -56.5t45 -76.5t14.5 -98q0 -153 -116.5 -247.5t-307.5 -94.5q-151 0 -268.5 61t-184.5 163zM449 1243q91 108 147 242 l141 -23q-30 -68 -92 -142t-141 -132z" />
<glyph horiz-adv-x="1062" d="M84 199l111 82q57 -90 151 -136.5t203 -46.5q123 0 198.5 56.5t75.5 152.5q0 42 -16.5 73.5t-39.5 50.5t-69 36t-82.5 25.5t-102.5 22.5l-15 3q-64 13 -112 27.5t-98.5 39.5t-83 57t-53 80t-20.5 109q0 144 110.5 229t276.5 85q127 0 236.5 -52.5t185.5 -142.5l-100 -80 q-55 70 -141 111t-187 41q-104 0 -174 -44t-70 -134q0 -38 14 -67t35 -47.5t60.5 -34t73.5 -25t92 -21.5q64 -14 109 -26.5t97.5 -31.5t87 -43t65 -56.5t45 -76.5t14.5 -98q0 -153 -116.5 -247.5t-307.5 -94.5q-151 0 -268.5 61t-184.5 163zM209 1409l43 76 q157 -60 270 -168q113 107 271 168l43 -76q-132 -92 -258 -209h-111q-126 117 -258 209z" />
<glyph horiz-adv-x="1071" d="M88 199l111 82q57 -90 151 -136.5t203 -46.5q123 0 198.5 56.5t75.5 152.5q0 42 -16.5 73.5t-39.5 50.5t-69 36t-82.5 25.5t-102.5 22.5l-15 3q-64 13 -112 27.5t-98.5 39.5t-83 57t-53 80t-20.5 109q0 144 110.5 229t276.5 85q127 0 236.5 -52.5t185.5 -142.5l-100 -80 q-55 70 -141 111t-187 41q-104 0 -174 -44t-70 -134q0 -38 14 -67t35 -47.5t60.5 -34t73.5 -25t92 -21.5q64 -14 109 -26.5t97.5 -31.5t87 -43t65 -56.5t45 -76.5t14.5 -98q0 -145 -105 -238t-280 -102q84 -64 84 -153q0 -74 -55 -117t-134 -43q-93 0 -143 47v101 q54 -54 121 -54q41 0 68.5 25t27.5 65q0 70 -80 132q-127 13 -224.5 71t-156.5 148z" />
<glyph horiz-adv-x="1067" d="M86 199l111 82q57 -90 151 -136.5t203 -46.5q123 0 198.5 56.5t75.5 152.5q0 42 -16.5 73.5t-39.5 50.5t-69 36t-82.5 25.5t-102.5 22.5l-15 3q-64 13 -112 27.5t-98.5 39.5t-83 57t-53 80t-20.5 109q0 144 110.5 229t276.5 85q127 0 236.5 -52.5t185.5 -142.5l-100 -80 q-55 70 -141 111t-187 41q-104 0 -174 -44t-70 -134q0 -38 14 -67t35 -47.5t60.5 -34t73.5 -25t92 -21.5q64 -14 109 -26.5t97.5 -31.5t87 -43t65 -56.5t45 -76.5t14.5 -98q0 -153 -116.5 -247.5t-307.5 -94.5q-151 0 -268.5 61t-184.5 163zM338 -356q85 104 143 243 l140 -22q-30 -68 -91.5 -143t-136.5 -132z" />
<glyph horiz-adv-x="1046" d="M59 997v123h928v-123h-399v-997h-131v997h-398zM209 1409l43 76q157 -60 270 -168q113 107 271 168l43 -76q-132 -92 -258 -209h-111q-126 117 -258 209z" />
<glyph horiz-adv-x="1046" d="M59 997v123h928v-123h-399v-997h-131v997h-398zM315 -356q87 107 144 243l139 -22q-30 -68 -91 -143t-136 -132z" />
<glyph horiz-adv-x="1046" d="M59 997v123h928v-123h-399v-327h231v-103h-231v-567h-131v567h-230v103h230v327h-398z" />
<glyph horiz-adv-x="1118" d="M184 0v1120h131v-159h375q156 0 254 -92t98 -244t-98.5 -245t-253.5 -93h-375v-287h-131zM315 410h375q96 0 155.5 59.5t59.5 155.5q0 95 -59 154t-156 59h-375v-428z" />
<glyph horiz-adv-x="1255" d="M168 434v686h131v-686q0 -162 90 -249t236 -87q147 0 238 87t91 249v686h133v-686q0 -218 -128 -338.5t-334 -120.5q-204 0 -330.5 120.5t-126.5 338.5zM551 1247q50 50 102 117.5t82 120.5l142 -23q-29 -65 -106.5 -143t-164.5 -131z" />
<glyph horiz-adv-x="1255" d="M168 434v686h131v-686q0 -162 90 -249t236 -87q147 0 238 87t91 249v686h133v-686q0 -218 -128 -338.5t-334 -120.5q-204 0 -330.5 120.5t-126.5 338.5zM324 1454l88 27q14 -63 72 -105.5t145 -42.5t145 42.5t72 105.5l88 -27q-14 -102 -97 -167.5t-208 -65.5t-208 65.5 t-97 167.5z" />
<glyph horiz-adv-x="1255" d="M168 434v686h131v-686q0 -162 90 -249t236 -87q147 0 238 87t91 249v686h133v-686q0 -218 -128 -338.5t-334 -120.5q-204 0 -330.5 120.5t-126.5 338.5zM313 1276q132 92 258 209h111q126 -117 258 -209l-43 -76q-157 60 -270 168q-113 -107 -271 -168z" />
<glyph horiz-adv-x="1255" d="M168 434v686h131v-686q0 -162 90 -249t236 -87q147 0 238 87t91 249v686h133v-686q0 -218 -128 -338.5t-334 -120.5q-204 0 -330.5 120.5t-126.5 338.5zM352 1229v135h129v-135h-129zM770 1229v135h129v-135h-129z" />
<glyph horiz-adv-x="1255" d="M168 434v686h131v-686q0 -162 90 -249t236 -87q147 0 238 87t91 249v686h133v-686q0 -218 -128 -338.5t-334 -120.5q-204 0 -330.5 120.5t-126.5 338.5zM406 1462l141 23q30 -53 82 -120.5t102 -117.5l-55 -59q-87 53 -164 131t-106 143z" />
<glyph horiz-adv-x="1255" d="M168 434v686h131v-686q0 -162 90 -249t236 -87q147 0 238 87t91 249v686h133v-686q0 -218 -128 -338.5t-334 -120.5q-204 0 -330.5 120.5t-126.5 338.5zM401 1247q50 50 102.5 118t82.5 120l141 -23q-29 -65 -106 -143t-164 -131zM702 1247q50 50 102.5 118t82.5 120 l141 -23q-29 -65 -106 -143t-164 -131z" />
<glyph horiz-adv-x="1255" d="M168 434v686h131v-686q0 -162 90 -249t236 -87q147 0 238 87t91 249v686h133v-686q0 -218 -128 -338.5t-334 -120.5q-204 0 -330.5 120.5t-126.5 338.5zM330 1262v102h592v-102h-592z" />
<glyph horiz-adv-x="1255" d="M168 434v686h131v-686q0 -162 90 -249t236 -87q147 0 238 87t91 249v686h133v-686q0 -245 -165 -368q-148 -107 -148 -216q0 -48 27 -73t71 -25q68 0 127 74v-123q-55 -59 -153 -59q-78 0 -132.5 42.5t-54.5 123.5q0 93 82 178q-60 -13 -116 -13q-204 0 -330.5 120.5 t-126.5 338.5z" />
<glyph horiz-adv-x="1255" d="M168 434v686h131v-686q0 -162 90 -249t236 -87q147 0 238 87t91 249v686h133v-686q0 -218 -128 -338.5t-334 -120.5q-204 0 -330.5 120.5t-126.5 338.5zM422 1395q0 85 60 146t145 61q84 0 143 -61t59 -146t-59 -145t-143 -60q-85 0 -145 60t-60 145zM506 1395 q0 -51 35 -86t86 -35q50 0 84 35t34 86t-34.5 87t-83.5 36q-51 0 -86 -36t-35 -87z" />
<glyph horiz-adv-x="1255" d="M168 434v686h131v-686q0 -162 90 -249t236 -87q147 0 238 87t91 249v686h133v-686q0 -218 -128 -338.5t-334 -120.5q-204 0 -330.5 120.5t-126.5 338.5zM315 1272q28 73 75.5 115.5t101.5 42.5q44 0 134 -39t128 -39q67 0 127 73l59 -39q-28 -73 -75 -115t-101 -42 q-44 0 -134 39t-128 39q-66 0 -127 -74z" />
<glyph horiz-adv-x="1652" d="M74 1120h133l268 -956l289 956h135l289 -960l260 960h133l-315 -1120h-156l-283 954l-282 -954h-160zM760 1247q50 50 102 117.5t82 120.5l141 -23q-29 -65 -106 -143t-164 -131z" />
<glyph horiz-adv-x="1652" d="M74 1120h133l268 -956l289 956h135l289 -960l260 960h133l-315 -1120h-156l-283 954l-282 -954h-160zM514 1276q132 92 258 209h111q126 -117 258 -209l-43 -76q-158 61 -271 168q-113 -108 -270 -168z" />
<glyph horiz-adv-x="1652" d="M74 1120h133l268 -956l289 956h135l289 -960l260 960h133l-315 -1120h-156l-283 954l-282 -954h-160zM555 1229v135h129v-135h-129zM973 1229v135h129v-135h-129z" />
<glyph horiz-adv-x="1652" d="M74 1120h133l268 -956l289 956h135l289 -960l260 960h133l-315 -1120h-156l-283 954l-282 -954h-160zM580 1462l141 23q30 -53 82 -120.5t102 -117.5l-55 -59q-87 53 -164 131t-106 143z" />
<glyph horiz-adv-x="1210" d="M141 -246l80 111q137 -115 328 -115q73 0 135 18t114 56.5t81.5 106t29.5 157.5v176q-141 -217 -377 -217q-171 0 -272.5 106t-101.5 300v602h131v-572q0 -309 260 -309q156 0 258 105t102 268v508h131v-946q0 -214 -98 -328q-135 -158 -401 -158q-226 0 -400 131z M518 1247q50 50 102 117.5t82 120.5l142 -23q-29 -65 -106.5 -143t-164.5 -131z" />
<glyph horiz-adv-x="1067" d="M29 1120h157l353 -536q46 70 165.5 254.5t184.5 281.5h149l-440 -661v-459h-133v457q-294 450 -436 663zM436 1247q50 50 102.5 118t82.5 120l141 -23q-29 -65 -106 -143t-164 -131z" />
<glyph horiz-adv-x="1210" d="M141 -246l80 111q137 -115 328 -115q73 0 135 18t114 56.5t81.5 106t29.5 157.5v176q-141 -217 -377 -217q-171 0 -272.5 106t-101.5 300v602h131v-572q0 -309 260 -309q156 0 258 105t102 268v508h131v-946q0 -214 -98 -328q-135 -158 -401 -158q-226 0 -400 131z M283 1276q132 92 258 209h110q126 -117 258 -209l-43 -76q-157 60 -270 168q-113 -108 -270 -168z" />
<glyph horiz-adv-x="1067" d="M29 1120h157l353 -536q46 70 165.5 254.5t184.5 281.5h149l-440 -661v-459h-133v457q-294 450 -436 663zM217 1276q132 92 258 209h111q126 -117 258 -209l-43 -76q-158 61 -271 168q-113 -108 -270 -168z" />
<glyph horiz-adv-x="1210" d="M141 -246l80 111q137 -115 328 -115q73 0 135 18t114 56.5t81.5 106t29.5 157.5v176q-141 -217 -377 -217q-171 0 -272.5 106t-101.5 300v602h131v-572q0 -309 260 -309q156 0 258 105t102 268v508h131v-946q0 -214 -98 -328q-135 -158 -401 -158q-226 0 -400 131z M324 1229v135h129v-135h-129zM741 1229v135h129v-135h-129z" />
<glyph horiz-adv-x="1067" d="M29 1120h157l353 -536q46 70 165.5 254.5t184.5 281.5h149l-440 -661v-459h-133v457q-294 450 -436 663zM260 1229v135h129v-135h-129zM678 1229v135h129v-135h-129z" />
<glyph horiz-adv-x="1210" d="M141 -246l80 111q137 -115 328 -115q73 0 135 18t114 56.5t81.5 106t29.5 157.5v176q-141 -217 -377 -217q-171 0 -272.5 106t-101.5 300v602h131v-572q0 -309 260 -309q156 0 258 105t102 268v508h131v-946q0 -214 -98 -328q-135 -158 -401 -158q-226 0 -400 131z M383 1462l141 23q30 -52 82.5 -120t102.5 -118l-56 -59q-87 53 -164 131t-106 143z" />
<glyph horiz-adv-x="1067" d="M29 1120h157l353 -536q46 70 165.5 254.5t184.5 281.5h149l-440 -661v-459h-133v457q-294 450 -436 663zM330 1462l141 23q30 -53 82 -120.5t102 -117.5l-55 -59q-87 53 -164 131t-106 143z" />
<glyph horiz-adv-x="1052" d="M90 0v113l688 884h-661v123h825v-114l-688 -885h702v-121h-866zM449 1243q91 108 147 242l141 -23q-30 -68 -92 -142t-141 -132z" />
<glyph horiz-adv-x="1052" d="M90 0v113l688 884h-661v123h825v-114l-688 -885h702v-121h-866zM207 1409l43 76q157 -60 270 -168q113 107 271 168l43 -76q-136 -95 -259 -209h-110q-126 117 -258 209z" />
<glyph horiz-adv-x="1052" d="M90 0v113l688 884h-661v123h825v-114l-688 -885h702v-121h-866zM459 1229v135h129v-135h-129z" />
<glyph horiz-adv-x="1202" d="M57 934v121h187v153q0 143 78 210t213 67q100 0 151 -23l-20 -114q-79 18 -131 18q-81 0 -120.5 -36t-39.5 -120v-155h258v-121h-258v-934h-131v934h-187zM838 238v1224h131v-1224q0 -73 26 -104.5t80 -31.5q58 0 88 25l35 -117q-47 -28 -129 -28q-131 0 -190 81 q-41 54 -41 175z" />
<glyph d="M250 1186q286 59 405 178h113v-1364h-147v1178q-51 -32 -153.5 -65t-199.5 -44z" />
<glyph horiz-adv-x="1206" d="M117 682q0 106 14 202.5t49.5 190.5t89.5 162t140 110t194 42t194 -42t139.5 -110t89 -162t49.5 -190.5t14 -202.5q0 -87 -10 -168t-32 -162.5t-60.5 -148t-90.5 -118.5t-127 -81t-166 -29q-78 0 -145 22t-116 60t-88 92t-64.5 115.5t-42.5 132.5t-24 141t-7 144z M268 682q0 -119 17.5 -218.5t55.5 -182.5t105 -130t158 -47t158 47t104 130t54.5 182.5t17.5 218.5q0 94 -10.5 175.5t-35 156.5t-62 128t-95.5 84t-131 31q-91 0 -158 -46.5t-105 -129t-55.5 -181.5t-17.5 -218z" />
<glyph horiz-adv-x="759" d="M47 1186q288 60 406 178h112v-1364h-147v1182q-50 -31 -152 -62t-200 -43z" />
<glyph horiz-adv-x="1118" d="M80 1141q80 116 197 182t264 66q187 0 310.5 -112.5t123.5 -297.5q0 -78 -25 -152t-71.5 -145.5t-131.5 -159.5t-184 -175.5t-250 -211.5h717v-135h-926v117q207 176 331.5 291t217.5 221t130.5 186.5t37.5 159.5q0 136 -80 206t-211 70q-112 0 -195.5 -53t-139.5 -137z " />
<glyph horiz-adv-x="1144" d="M76 225l129 80q53 -99 146.5 -145.5t211.5 -46.5q149 0 232.5 75t83.5 203q0 117 -83.5 184.5t-248.5 67.5h-101v135h109q133 0 209 66.5t76 179.5q0 106 -74.5 166.5t-206.5 60.5q-219 0 -340 -157l-106 86q173 209 446 209q189 0 310.5 -100t121.5 -255 q0 -106 -56.5 -184.5t-154.5 -126.5q127 -50 189.5 -141t62.5 -199q0 -178 -128.5 -293t-340.5 -115q-341 0 -487 250z" />
<glyph horiz-adv-x="1157" d="M66 336v129q142 239 216 478t74 421h148q0 -183 -79.5 -431.5t-215.5 -463.5h528v586h146v-586h209v-133h-209v-336h-146v336h-671z" />
<glyph horiz-adv-x="1134" d="M82 225l129 80q53 -99 142 -145.5t198 -46.5q155 0 245.5 84t90.5 233q0 144 -86.5 225.5t-237.5 81.5q-199 0 -309 -137l-92 49l45 715h756v-135h-631l-35 -447q126 90 295 90q197 0 322.5 -122t125.5 -314q0 -95 -33.5 -178.5t-95 -146.5t-153.5 -99.5t-203 -36.5 q-327 0 -473 250z" />
<glyph horiz-adv-x="1148" d="M102 473q0 122 38.5 242.5t111.5 233t157 210t197 205.5h205q-93 -78 -186.5 -171t-187.5 -216t-134 -223q55 63 149 93t185 30q188 0 314 -123t126 -320q0 -203 -134.5 -331t-354.5 -128t-353 132.5t-133 365.5zM254 430q0 -143 90 -230t248 -87q157 0 244.5 86.5 t87.5 230.5t-87.5 229.5t-244.5 85.5t-247.5 -86.5t-90.5 -228.5z" />
<glyph horiz-adv-x="1060" d="M45 1229v135h973v-131q-61 -75 -126.5 -166.5t-148 -227t-147.5 -268t-114 -286t-58 -285.5h-158q9 128 56.5 278.5t109.5 279.5t144.5 266.5t144.5 228t127 176.5h-803z" />
<glyph horiz-adv-x="1187" d="M109 383q0 115 62 211t189 149q-200 91 -200 291q0 155 122.5 255t311.5 100t311.5 -100t122.5 -255q0 -199 -201 -291q127 -53 189.5 -149.5t62.5 -210.5q0 -178 -132.5 -293t-352.5 -115t-352.5 115t-132.5 293zM262 391q0 -128 86.5 -203t245.5 -75t245.5 75t86.5 203 q0 126 -83.5 200.5t-248.5 74.5t-248.5 -74.5t-83.5 -200.5zM311 1024q0 -103 75 -163t208 -60t208 60t75 163q0 106 -75.5 166.5t-207.5 60.5t-207.5 -60.5t-75.5 -166.5z" />
<glyph horiz-adv-x="1148" d="M72 930q0 203 134.5 331t354.5 128t353 -132.5t133 -365.5q0 -122 -38.5 -242.5t-111.5 -233t-157 -210t-197 -205.5h-205q93 78 186.5 171t187.5 216t134 223q-55 -63 -149 -93t-185 -30q-188 0 -314 123t-126 320zM225 934q0 -144 87.5 -230t244.5 -86t247.5 87 t90.5 229q0 143 -90 230t-248 87q-157 0 -244.5 -86.5t-87.5 -230.5z" />
<glyph horiz-adv-x="792" d="M135 623v118h522v-118h-522z" />
<glyph d="M115 623v118h944v-118h-944z" />
<glyph horiz-adv-x="1933" d="M135 623v118h1663v-118h-1663z" />
<glyph horiz-adv-x="544" d="M104 682q0 219 77 415.5t231 348.5l82 -82q-134 -137 -199.5 -313t-65.5 -369q0 -192 65.5 -368t199.5 -314l-82 -82q-154 154 -231 350t-77 414z" />
<glyph horiz-adv-x="544" d="M51 0q133 136 198.5 312t65.5 370q0 192 -65.5 368t-198.5 314l82 82q154 -154 230.5 -349.5t76.5 -414.5t-77 -415.5t-230 -348.5z" />
<glyph horiz-adv-x="659" d="M180 0v1366h398v-121h-271v-1124h271v-121h-398z" />
<glyph horiz-adv-x="661" d="M82 0v121h272v1124h-272v121h399v-1366h-399z" />
<glyph horiz-adv-x="776" d="M57 623v118h45q201 0 201 222v75q0 167 95 260t251 93h53v-121h-69q-201 0 -201 -219v-84q0 -218 -166 -285q166 -67 166 -285v-82q0 -219 201 -219h69v-121h-53q-156 0 -251 93t-95 260v73q0 222 -201 222h-45z" />
<glyph horiz-adv-x="776" d="M74 -25v121h69q203 0 203 219v82q0 219 164 285q-164 66 -164 285v84q0 219 -203 219h-69v121h53q157 0 251.5 -93t94.5 -260v-75q0 -222 201 -222h45v-118h-45q-201 0 -201 -222v-73q0 -167 -94.5 -260t-251.5 -93h-53z" />
<glyph horiz-adv-x="1583" d="M72 682q0 146 57.5 279.5t154 229.5t230 153t279.5 57t278.5 -57t229 -153t153.5 -229.5t57 -279.5q0 -145 -57 -278.5t-153.5 -230t-229.5 -153.5t-278 -57q-146 0 -279.5 57t-230 153.5t-154 230t-57.5 278.5zM168 682q0 -169 83.5 -312.5t227.5 -227t314 -83.5 q169 0 312.5 83.5t226.5 227t83 312.5q0 170 -83.5 314t-227 227.5t-311.5 83.5q-169 0 -313 -83.5t-228 -227.5t-84 -314zM514 295v778h330q115 0 188.5 -64.5t73.5 -170.5q0 -79 -45.5 -137.5t-116.5 -82.5l182 -323h-114l-176 307h-220v-307h-102zM616 692h230 q74 0 114.5 41t40.5 105t-41.5 103.5t-113.5 39.5h-230v-289z" />
<glyph horiz-adv-x="1357" d="M82 559q0 122 47 232.5t127 190.5t190 127.5t232 47.5t232.5 -47.5t190.5 -127.5t127.5 -190.5t47.5 -232.5t-47.5 -232t-127.5 -190t-190.5 -127t-232.5 -47t-232 47t-190 127t-127 190t-47 232zM164 559q0 -140 68.5 -258.5t187 -187t258.5 -68.5t259 68.5t188 187 t69 258.5t-69 259t-188 188t-259 69t-258.5 -69t-187 -188t-68.5 -259zM342 559q0 140 98 239t236 99q90 0 167 -44t120 -118l-74 -51q-36 58 -92 90.5t-121 32.5q-101 0 -173.5 -73.5t-72.5 -174.5t72.5 -172.5t173.5 -71.5q64 0 121.5 32.5t93.5 86.5l72 -49 q-41 -74 -118 -117t-169 -43q-138 0 -236 98.5t-98 235.5z" />
<glyph horiz-adv-x="1357" d="M82 559q0 122 47 232.5t127 190.5t190 127.5t232 47.5t232.5 -47.5t190.5 -127.5t127.5 -190.5t47.5 -232.5t-47.5 -232t-127.5 -190t-190.5 -127t-232.5 -47t-232 47t-190 127t-127 190t-47 232zM164 559q0 -140 68.5 -258.5t187 -187t258.5 -68.5t259 68.5t188 187 t69 258.5t-69 259t-188 188t-259 69t-258.5 -69t-187 -188t-68.5 -259zM471 233v652h274q98 0 161 -55.5t63 -143.5q0 -83 -59.5 -141t-161.5 -58h-185v-254h-92zM563 569h185q60 0 92 32.5t32 82.5q0 52 -32.5 83.5t-91.5 31.5h-185v-230z" />
<glyph horiz-adv-x="776" d="M90 856q0 124 87 211.5t212 87.5q123 0 210 -87.5t87 -211.5q0 -123 -87 -210t-210 -87q-124 0 -211.5 87t-87.5 210zM129 856q0 -107 75.5 -182.5t184.5 -75.5q106 0 182 75.5t76 182.5q0 108 -76 184t-182 76q-109 0 -184.5 -75.5t-75.5 -184.5zM270 694v328h146 q44 0 74 -27.5t30 -72.5q0 -34 -18 -59t-49 -36l79 -133h-55l-74 127h-86v-127h-47zM317 864h101q22 0 37.5 16.5t15.5 41.5q0 24 -15.5 39.5t-37.5 15.5h-101v-113z" />
<glyph horiz-adv-x="1572" d="M78 678q0 194 91 356.5t255 258.5t367 96q152 0 285 -56.5t225.5 -150.5t146 -220.5t53.5 -263.5q0 -172 -81 -274t-214 -102q-146 0 -202 120q-46 -63 -113 -95t-143 -32q-142 0 -230 103.5t-88 259.5t89 257t241 101q133 0 221 -98v84h117v-487q0 -115 108 -115 q88 0 132 70t44 192q0 164 -74.5 299.5t-210.5 215t-304 79.5q-171 0 -308 -81.5t-211.5 -218t-74.5 -298.5t74.5 -297.5t210.5 -216t304 -80.5q161 0 295 76l56 -99q-147 -90 -355 -90q-199 0 -361.5 95t-253.5 256.5t-91 355.5zM555 676q0 -109 54 -178.5t157 -69.5 q102 0 158.5 70t56.5 178t-57.5 178t-159.5 70t-155.5 -69t-53.5 -179z" />
<glyph horiz-adv-x="1888" d="M106 1253q195 42 269 111h82v-860h-109v723q-35 -19 -98.5 -35.5t-126.5 -24.5zM342 0l1008 1364h102l-1008 -1364h-102zM1108 717q121 160 303 160q131 0 215 -70.5t84 -192.5q0 -42 -7 -75.5t-30 -72t-47 -69t-79 -82t-104.5 -93.5t-142.5 -120h445v-102h-612v88 q270 222 367 327.5t97 192.5q0 76 -56.5 119t-135.5 43q-66 0 -121.5 -31t-89.5 -80z" />
<glyph horiz-adv-x="1888" d="M111 1253q193 42 268 111h82v-860h-109v723q-35 -19 -98.5 -35.5t-126.5 -24.5zM346 0l1008 1364h102l-1007 -1364h-103zM1106 156l106 47q64 -113 222 -113q89 0 140.5 44.5t51.5 113.5q0 65 -43.5 101t-122.5 36h-112v104h106q55 0 102.5 35.5t47.5 104.5t-55 105 t-136 36q-136 0 -209 -98l-84 63q111 142 301 142q127 0 209 -62.5t82 -169.5q0 -134 -108 -192q50 -17 81.5 -54t42.5 -75.5t11 -81.5q0 -115 -86.5 -186.5t-218.5 -71.5q-233 0 -328 172z" />
<glyph horiz-adv-x="1888" d="M106 1253q195 42 269 111h82v-860h-109v723q-35 -19 -98.5 -35.5t-126.5 -24.5zM342 0l1008 1364h102l-1008 -1364h-102zM1087 207v98q75 130 126 279t55 276h106q-4 -127 -51.5 -276t-118.5 -275h320v361h106v-361h135v-102h-135v-207h-106v207h-437z" />
<glyph horiz-adv-x="1888" d="M104 1253q195 42 269 111h82v-860h-109v723q-35 -19 -98.5 -35.5t-126.5 -24.5zM340 0l1008 1364h102l-1008 -1364h-102zM1108 154l104 49q61 -115 215 -115q85 0 143 47.5t58 136.5q0 86 -55.5 134.5t-153.5 48.5q-124 0 -194 -86l-64 34l27 457h504v-102h-408 q-3 -42 -10 -123.5t-10 -126.5q77 51 182 51q134 0 214.5 -78t80.5 -207q0 -54 -18 -103.5t-54 -92.5t-99.5 -68.5t-146.5 -25.5q-217 0 -315 170z" />
<glyph horiz-adv-x="1888" d="M119 1253q193 42 268 111h82v-860h-109v723q-35 -19 -98.5 -35.5t-126.5 -24.5zM354 0l1008 1364h102l-1007 -1364h-103zM1108 311q0 293 283 549h155q-99 -77 -184.5 -181t-122.5 -200q41 39 103 59.5t112 20.5q129 0 213 -78t84 -205q0 -128 -89 -210t-230 -82 q-148 0 -236 86t-88 241zM1219 272q0 -83 56 -132.5t155 -49.5q100 0 155 49.5t55 134.5q0 84 -55.5 134.5t-154.5 50.5q-98 0 -154.5 -51t-56.5 -136z" />
<glyph horiz-adv-x="1888" d="M104 1253q195 42 269 111h82v-860h-109v723q-35 -19 -98.5 -35.5t-126.5 -24.5zM340 0l1008 1364h102l-1008 -1364h-102zM1104 236q0 153 156 225q-121 56 -121 192q0 104 80.5 164t205.5 60q128 0 208.5 -59.5t80.5 -164.5q0 -123 -125 -190q73 -36 115.5 -95.5 t42.5 -131.5q0 -119 -90 -185.5t-232 -66.5q-141 0 -231 66.5t-90 185.5zM1217 246q0 -79 58 -117.5t150 -38.5t150.5 38t58.5 116q0 82 -59 123t-150 41t-149.5 -41t-58.5 -121zM1249 645q0 -67 51 -102t125 -35q76 0 128.5 35t52.5 102q0 62 -51.5 93.5t-127.5 31.5 q-77 0 -127.5 -31.5t-50.5 -93.5z" />
<glyph horiz-adv-x="524" d="M23 1444q195 42 268 110h82v-860h-109v723q-35 -19 -98 -35t-127 -24z" />
<glyph horiz-adv-x="524" d="M23 559q193 42 268 111h82v-860h-109v722q-35 -19 -98 -35t-127 -24z" />
<glyph horiz-adv-x="514" d="M152 682q0 43 32 76t74 33t73 -33t31 -76t-30.5 -73.5t-73.5 -30.5t-74.5 30.5t-31.5 73.5z" />
<glyph horiz-adv-x="628" d="M37 0l450 1364h107l-451 -1364h-106z" />
<glyph horiz-adv-x="452" d="M176 -98v1560h100v-1560h-100z" />
<glyph horiz-adv-x="628" d="M35 1364h106l451 -1364h-107z" />
<glyph horiz-adv-x="530" d="M186 0v295l43 670h72l43 -670v-295h-158zM186 1165v199h158v-199h-158z" />
<glyph horiz-adv-x="952" d="M72 379q0 170 117.5 276t318.5 133v177h121v-293q-23 4 -58 4q-155 0 -253.5 -80t-98.5 -211q0 -123 78 -198.5t225 -75.5q174 0 318 131l82 -103q-189 -164 -414 -164q-186 0 -311 109.5t-125 294.5zM492 1165v199h157v-199h-157z" />
<glyph d="M115 623v118h411v414h121v-414h412v-118h-412v-412h-121v412h-411z" />
<glyph d="M115 623v118h944v-118h-944z" />
<glyph d="M115 623v118h944v-118h-944zM477 309q0 45 33 79t78 34q44 0 76 -34t32 -79q0 -43 -32 -75.5t-76 -32.5q-45 0 -78 32.5t-33 75.5zM477 1055q0 43 33 75.5t78 32.5q44 0 76 -32.5t32 -75.5q0 -46 -32 -78.5t-76 -32.5q-46 0 -78.5 32.5t-32.5 78.5z" />
<glyph d="M115 428v121h944v-121h-944zM115 817v119h944v-119h-944z" />
<glyph d="M139 322l365 360l-365 362l86 86l363 -364l360 364l86 -86l-362 -362l362 -360l-86 -89l-360 365l-363 -365z" />
<glyph d="M242 684l555 555l82 -82l-471 -473l471 -471l-82 -82z" />
<glyph d="M295 213l473 471l-473 473l80 82l557 -555l-557 -553z" />
<glyph horiz-adv-x="1298" d="M111 559q0 163 63.5 295t187.5 211.5t287 79.5q123 0 226 -46t171 -125.5t106 -186.5t38 -228t-38 -227.5t-106.5 -186t-171 -125t-225.5 -45.5q-164 0 -287.5 79t-187 210.5t-63.5 294.5zM250 559q0 -128 45 -230t137 -163.5t217 -61.5q187 0 294.5 129.5t107.5 325.5 q0 128 -46 230.5t-138.5 164.5t-217.5 62t-217 -62t-137 -164.5t-45 -230.5z" />
<glyph horiz-adv-x="731" d="M45 942q281 58 401 178h103v-1120h-131v948q-46 -32 -148.5 -66t-206.5 -48z" />
<glyph horiz-adv-x="1103" d="M88 909q78 113 192.5 174.5t256.5 61.5q187 0 299 -101.5t112 -261.5q0 -74 -27.5 -144t-74 -130t-124 -126t-159 -122t-198.5 -129h661v-131h-915v115q37 24 110 70q259 166 358 246q191 153 219 291q5 27 5 54q0 106 -75.5 170t-195.5 64q-107 0 -192.5 -50.5 t-138.5 -130.5z" />
<glyph horiz-adv-x="1101" d="M53 -20l119 73q101 -190 363 -190q152 0 236.5 76.5t84.5 205.5q0 120 -85 188t-255 68h-94v131h102q137 0 215 66.5t78 181.5q0 109 -76 170.5t-211 61.5q-219 0 -342 -154l-100 80q177 207 442 207q186 0 306 -99t120 -253q0 -211 -211 -314q127 -50 189.5 -141.5 t62.5 -200.5q0 -177 -126.5 -292t-335.5 -115q-333 0 -482 250z" />
<glyph horiz-adv-x="1144" d="M68 90v125q129 227 207 478t83 427h136q-5 -185 -83.5 -438t-207.5 -463h538v590h133v-590h211v-129h-211v-336h-133v336h-673z" />
<glyph horiz-adv-x="1071" d="M45 -20l119 73q100 -188 342 -188q160 0 252 84t92 235q0 147 -88 229.5t-244 82.5q-195 0 -309 -136l-86 46l45 714h745v-131h-632l-35 -461q142 99 303 99q194 0 318 -122.5t124 -314.5q0 -126 -56.5 -230t-167.5 -167t-257 -63q-159 0 -276.5 65.5t-188.5 184.5z" />
<glyph horiz-adv-x="1110" d="M82 489q0 257 154.5 490.5t422.5 425.5l86 -105q-153 -99 -299.5 -261t-187.5 -312q51 74 143.5 112t194.5 38q192 0 322.5 -124.5t130.5 -322.5q0 -199 -135 -327t-349 -128q-219 0 -351 136.5t-132 377.5zM223 428q0 -145 91.5 -232t252.5 -87t250.5 87.5t89.5 233.5 q0 145 -89.5 232.5t-250.5 87.5t-252.5 -88.5t-91.5 -233.5z" />
<glyph horiz-adv-x="1077" d="M59 989v131h963v-129q-59 -75 -124 -167.5t-147 -229t-147.5 -270t-116 -287t-61.5 -283.5h-145q11 126 59.5 276t111.5 281t143.5 268.5t144.5 232t126 177.5h-807z" />
<glyph horiz-adv-x="1167" d="M100 381q0 114 65 211t195 151q-208 95 -208 293q0 155 122 254t310 99t310 -99t122 -254q0 -197 -209 -293q131 -54 195.5 -151t64.5 -211q0 -177 -132 -291.5t-351 -114.5t-351.5 114.5t-132.5 291.5zM244 389q0 -130 88.5 -207.5t251.5 -77.5t251.5 77.5t88.5 207.5 t-85.5 205.5t-254.5 75.5t-254.5 -75.5t-85.5 -205.5zM293 1026q0 -106 77 -167.5t214 -61.5t213.5 61t76.5 168q0 108 -77 171t-213 63t-213.5 -63t-77.5 -171z" />
<glyph horiz-adv-x="1116" d="M66 690q0 199 134.5 327t348.5 128q219 0 351 -136.5t132 -377.5q0 -257 -154.5 -490.5t-422.5 -425.5l-86 105q153 99 299.5 261t187.5 312q-51 -74 -143.5 -111.5t-194.5 -37.5q-192 0 -322 124t-130 322zM207 690q0 -145 89.5 -232t250.5 -87q162 0 253 88t91 233 t-92 232.5t-252 87.5q-161 0 -250.5 -88t-89.5 -234z" />
<glyph d="M109 559q0 96 16.5 181t53.5 160t91.5 129t136 85t181.5 31q99 0 179.5 -31t135 -85t91 -129t53 -160t16.5 -181t-16.5 -180.5t-53 -159t-91 -128.5t-135 -85t-179.5 -31q-100 0 -181.5 31t-136 84.5t-91.5 128.5t-53.5 159.5t-16.5 180.5zM248 559q0 -221 83 -340 t257 -119q336 0 336 459t-336 459q-340 0 -340 -459z" />
<glyph d="M199 942q281 58 401 178h102v-1005h330v-115h-807v115h346v833q-46 -32 -148 -66t-206 -48z" />
<glyph d="M256 942q281 58 401 178h103v-1120h-131v948q-46 -32 -148.5 -66t-206.5 -48z" />
<glyph d="M123 909q78 113 192 174.5t256 61.5q187 0 299.5 -101.5t112.5 -261.5q0 -92 -39 -175t-122 -164t-179 -150.5t-244 -161.5h662v-131h-916v115q38 24 107.5 68.5t106 68t96.5 63.5t92.5 65t79.5 62t73 64.5t56.5 63.5t45.5 67t25.5 67t10.5 72q0 106 -75.5 170t-195.5 64 q-107 0 -192.5 -50.5t-138.5 -130.5z" />
<glyph d="M88 -20l119 73q101 -190 362 -190q152 0 237 76.5t85 205.5q0 120 -85 188t-255 68h-94v131h102q137 0 215 66.5t78 181.5q0 109 -76 170.5t-211 61.5q-219 0 -342 -154l-100 80q177 207 442 207q186 0 306 -99t120 -253q0 -211 -211 -314q127 -50 189.5 -141.5 t62.5 -200.5q0 -176 -127 -291.5t-336 -115.5q-332 0 -481 250z" />
<glyph d="M82 90v125q129 227 207.5 478t83.5 427h135q-5 -185 -83.5 -438t-207.5 -463h539v590h133v-590h211v-129h-211v-336h-133v336h-674z" />
<glyph d="M96 -20l119 73q100 -188 342 -188q160 0 252 84t92 235q0 147 -88 229.5t-244 82.5q-195 0 -309 -136l-86 46l45 714h746v-131h-633l-35 -461q142 99 303 99q194 0 318 -122.5t124 -314.5q0 -126 -56.5 -230t-167.5 -167t-257 -63q-159 0 -276.5 65.5t-188.5 184.5z" />
<glyph d="M113 489q0 257 154.5 490.5t422.5 425.5l86 -105q-153 -99 -299.5 -261t-187.5 -312q51 74 143.5 112t194.5 38q125 0 227.5 -54.5t163.5 -157.5t61 -235q0 -199 -134.5 -327t-348.5 -128q-219 0 -351 136.5t-132 377.5zM254 428q0 -145 91.5 -232t252.5 -87t250.5 87.5 t89.5 233.5q0 145 -89.5 232.5t-250.5 87.5t-252.5 -88.5t-91.5 -233.5z" />
<glyph d="M106 989v131h963v-129q-59 -75 -124 -167.5t-147 -229t-147.5 -270t-116 -287t-61.5 -283.5h-145q11 126 59.5 276t111.5 281t143.5 268.5t144.5 232t126 177.5h-807z" />
<glyph d="M102 381q0 114 65 211t195 151q-208 95 -208 293q0 155 122 254t310 99t310 -99t122 -254q0 -197 -209 -293q131 -54 195.5 -151t64.5 -211q0 -177 -132 -291.5t-351 -114.5t-351.5 114.5t-132.5 291.5zM246 389q0 -130 88.5 -207.5t251.5 -77.5t251.5 77.5t88.5 207.5 t-85.5 205.5t-254.5 75.5t-254.5 -75.5t-85.5 -205.5zM295 1026q0 -106 77 -167.5t214 -61.5t214 61.5t77 167.5q0 108 -77.5 171t-213.5 63t-213.5 -63t-77.5 -171z" />
<glyph d="M94 690q0 199 135 327t349 128q219 0 351 -136.5t132 -377.5q0 -257 -155 -490.5t-423 -425.5l-86 105q153 99 300 261t188 312q-51 -74 -143.5 -111.5t-194.5 -37.5q-192 0 -322.5 124t-130.5 322zM236 690q0 -145 89 -232t250 -87q162 0 253.5 88t91.5 233t-92 232.5 t-253 87.5t-250 -88t-89 -234z" />
<glyph d="M152 207l102 74q46 -75 122.5 -119.5t166.5 -55.5v418q-56 10 -101.5 23.5t-92.5 38t-79 56t-52.5 79t-20.5 106.5q0 131 97.5 212t248.5 89v134h94v-136q207 -24 344 -180q-8 -7 -40.5 -34t-51.5 -42q-88 117 -252 142v-377q85 -18 146 -40.5t113 -58t78.5 -89 t26.5 -125.5q0 -138 -98.5 -228t-265.5 -102v-154h-94v154q-130 7 -230.5 65t-160.5 150zM322 838q0 -79 54 -119.5t167 -65.5v365q-95 -5 -158 -49.5t-63 -130.5zM637 102q107 9 172 65t65 144q0 85 -58 126t-179 69v-404z" />
<glyph d="M139 473v102h140q-68 133 -68 238q0 147 112 239.5t281 92.5q245 0 393 -201l-110 -72q-101 146 -287 146q-113 0 -186.5 -55.5t-73.5 -155.5q0 -84 74 -232h372v-102h-337q24 -61 24 -111q0 -130 -102 -235q82 29 137 29q70 0 171 -30t140 -30q52 0 83.5 25.5t55.5 83.5 l103 -53q-78 -177 -230 -177q-54 0 -167.5 35t-182.5 35q-132 0 -264 -70l-53 93q192 112 192 260q0 73 -34 145h-183z" />
<glyph d="M27 412v88h135q-2 20 -2 61q0 39 2 57h-135v89h145q38 200 182.5 319t350.5 119q273 0 432 -213l-109 -78q-121 164 -323 164q-148 0 -252 -85t-138 -226h492v-89h-506q-2 -18 -2 -57q0 -43 2 -61h506v-88h-490q35 -145 140 -228.5t250 -83.5q194 0 321 164l107 -80 q-159 -209 -433 -209q-207 0 -349 120.5t-179 316.5h-147z" />
<glyph d="M129 1120h152l311 -547l305 547h145l-313 -532h238v-94h-291l-27 -41v-97h318v-92h-318v-264h-127v264h-319v92h319v97l-28 41h-291v94h239q-58 101 -172.5 294t-140.5 238z" />
<glyph d="M158 522q0 212 113.5 355.5t308.5 164.5v160h98v-160q105 -11 192 -60.5t142 -131.5l-94 -72q-90 125 -240 146v-807q148 21 240 149l98 -71q-58 -82 -146.5 -134.5t-191.5 -62.5v-160h-98v160q-195 23 -308.5 167.5t-113.5 356.5zM293 522q0 -158 76.5 -269.5 t210.5 -135.5v805q-134 -21 -210.5 -131.5t-76.5 -268.5z" />
<glyph horiz-adv-x="1218" d="M94 295q0 215 268 323q-137 127 -137 265q0 124 87.5 193t224.5 69q141 0 226 -71t85 -185q0 -95 -69 -170t-212 -137l312 -297q79 104 116 227l119 -33q-52 -165 -151 -278l206 -201h-170l-120 115q-166 -140 -379 -140q-176 0 -291 86.5t-115 233.5zM231 305 q0 -97 79 -155t206 -58q159 0 281 105l-355 338q-211 -83 -211 -230zM350 881q0 -56 33.5 -105.5t99.5 -111.5q55 22 93.5 41.5t75 46t55 60t18.5 73.5q0 71 -55.5 110t-132.5 39q-78 0 -132.5 -40.5t-54.5 -112.5z" />
<glyph horiz-adv-x="1316" d="M72 866q0 116 74 192.5t192 76.5q121 0 194.5 -76.5t73.5 -192.5q0 -121 -73 -197.5t-195 -76.5q-119 0 -192.5 76.5t-73.5 197.5zM168 866q0 -78 47 -131t123 -53q78 0 125 52.5t47 131.5q0 76 -47.5 126t-124.5 50t-123.5 -50t-46.5 -126zM309 0l598 1120h105 l-598 -1120h-105zM715 260q0 116 74 192t192 76q120 0 194 -76t74 -192q0 -121 -73.5 -197.5t-194.5 -76.5q-119 0 -192.5 76.5t-73.5 197.5zM811 260q0 -78 47.5 -130t122.5 -52q80 0 126 51.5t46 130.5q0 74 -47.5 126t-124.5 52q-75 0 -122.5 -52t-47.5 -126z" />
<glyph horiz-adv-x="1908" d="M72 866q0 116 74 192.5t192 76.5q121 0 194.5 -76.5t73.5 -192.5q0 -121 -73 -197.5t-195 -76.5q-119 0 -192.5 76.5t-73.5 197.5zM168 866q0 -79 46.5 -131.5t123.5 -52.5q78 0 125 52.5t47 131.5q0 76 -47.5 126t-124.5 50q-78 0 -124 -49.5t-46 -126.5zM309 0 l598 1120h105l-598 -1120h-105zM715 260q0 116 74 192t192 76q120 0 194 -76t74 -192q0 -121 -73.5 -197.5t-194.5 -76.5q-119 0 -192.5 76.5t-73.5 197.5zM811 260q0 -78 47.5 -130t122.5 -52q80 0 126 51.5t46 130.5q0 74 -47.5 126t-124.5 52q-75 0 -122.5 -52 t-47.5 -126zM1317 260q0 116 75 192t195 76q119 0 191.5 -76t72.5 -192q0 -121 -72 -197.5t-192 -76.5q-121 0 -195.5 76.5t-74.5 197.5zM1415 260q0 -78 47 -130t125 -52q76 0 123 52t47 130q0 74 -47.5 126t-122.5 52q-77 0 -124.5 -52t-47.5 -126z" />
<glyph horiz-adv-x="524" d="M190 0v188h144v-188h-144zM190 874v246h144v-246l-37 -550h-70z" />
<glyph horiz-adv-x="544" d="M201 0v246l37 551h69l37 -551v-246h-143zM201 932v188h143v-188h-143z" />
<glyph horiz-adv-x="874" d="M61 1004q167 141 357 141q159 0 266 -91t107 -241q0 -146 -102.5 -240t-264.5 -106v-143h-115v254q31 -7 56 -7q127 0 208.5 65t81.5 171q0 95 -65 155t-180 60q-77 0 -141.5 -28t-131.5 -81zM295 0v188h143v-188h-143z" />
<glyph horiz-adv-x="874" d="M86 307q0 146 102.5 240t264.5 106v144h114v-254q-27 6 -55 6q-127 0 -209 -65t-82 -171q0 -95 65.5 -155t180.5 -60q77 0 141 28t131 81l76 -90q-168 -142 -356 -142q-159 0 -266 91t-107 241zM438 932v188h144v-188h-144z" />
<glyph horiz-adv-x="471" d="M170 0v1055h131v-1055h-131zM170 1229v135h131v-135h-131z" />
<glyph horiz-adv-x="808" d="M90 430q0 100 14 175.5t47.5 139.5t97 98t154.5 34q92 0 156 -34t98 -98t48 -139.5t14 -175.5q0 -78 -8.5 -141t-30 -121.5t-56.5 -98t-91 -62.5t-130 -23t-129.5 23.5t-90 62.5t-56 97.5t-29.5 121.5t-8 141zM199 430q0 -171 44.5 -258.5t159.5 -87.5q61 0 102 23.5 t63 71t31 107.5t9 144t-9 144t-31 107.5t-63 71t-102 23.5q-115 0 -159.5 -87.5t-44.5 -258.5z" />
<glyph horiz-adv-x="645" d="M68 750q195 42 268 110h82v-758h200v-102h-534v102h225v621q-35 -19 -98 -35t-127 -24z" />
<glyph horiz-adv-x="550" d="M23 750q195 42 268 110h82v-860h-109v723q-35 -19 -98 -35t-127 -24z" />
<glyph horiz-adv-x="757" d="M55 717q121 160 303 160q131 0 215 -70.5t84 -192.5q0 -42 -7 -75.5t-29.5 -72t-47 -69.5t-79 -81.5t-104 -93.5t-142.5 -120h444v-102h-612v88q271 223 368 328t97 192q0 76 -57 119t-136 43q-66 0 -121.5 -31t-89.5 -80z" />
<glyph horiz-adv-x="778" d="M59 156l107 47q64 -113 221 -113q89 0 141 44.5t52 113.5q0 65 -43.5 101t-122.5 36h-113v104h107q55 0 102 35.5t47 104.5t-54.5 105t-135.5 36q-136 0 -209 -98l-84 63q111 142 301 142q127 0 209 -62.5t82 -169.5q0 -133 -109 -192q50 -17 81.5 -54t42.5 -75.5 t11 -81.5q0 -115 -86.5 -186.5t-218.5 -71.5q-233 0 -328 172z" />
<glyph horiz-adv-x="768" d="M47 207v98q75 129 125.5 278.5t54.5 276.5h107q-4 -127 -51.5 -276t-118.5 -275h319v361h107v-361h135v-102h-135v-207h-107v207h-436z" />
<glyph horiz-adv-x="763" d="M59 154l105 49q61 -115 215 -115q85 0 143 47.5t58 136.5q0 86 -55.5 134.5t-153.5 48.5q-125 0 -195 -86l-63 34l26 457h504v-102h-407q-3 -42 -10.5 -123.5t-10.5 -126.5q77 51 182 51q134 0 214.5 -78t80.5 -207q0 -54 -17.5 -103.5t-53.5 -92.5t-99.5 -68.5 t-146.5 -25.5q-218 0 -316 170z" />
<glyph horiz-adv-x="774" d="M80 311q0 294 282 549h156q-99 -77 -184.5 -181t-122.5 -200q41 39 103 59.5t112 20.5q129 0 213 -78t84 -205q0 -128 -89.5 -210t-230.5 -82q-148 0 -235.5 86t-87.5 241zM190 272q0 -83 56 -132.5t155 -49.5q100 0 155.5 50t55.5 134q0 83 -56 134t-155 51 q-98 0 -154.5 -51t-56.5 -136z" />
<glyph horiz-adv-x="698" d="M33 758v102h643v-96q-365 -461 -385 -764h-115q5 67 24 139t55.5 148.5t65 132t80.5 133.5t73 108t69 97h-510z" />
<glyph horiz-adv-x="802" d="M80 236q0 153 156 225q-121 56 -121 192q0 104 80.5 164t205.5 60q128 0 208.5 -59.5t80.5 -164.5q0 -123 -125 -190q73 -36 115.5 -95.5t42.5 -131.5q0 -119 -90 -185.5t-232 -66.5q-141 0 -231 66.5t-90 185.5zM193 246q0 -79 58 -117.5t150 -38.5t150.5 38t58.5 116 q0 82 -59 123t-150 41t-149.5 -41t-58.5 -121zM225 645q0 -67 51 -102t125 -35q76 0 128.5 35t52.5 102q0 62 -51.5 93.5t-127.5 31.5q-77 0 -127.5 -31.5t-50.5 -93.5z" />
<glyph horiz-adv-x="776" d="M51 582q0 129 89.5 212t230.5 83q148 0 236.5 -86.5t88.5 -241.5q0 -291 -282 -549h-154q99 77 184 180t119 197q-40 -38 -101.5 -57t-111.5 -19q-131 0 -215 77.5t-84 203.5zM164 584q0 -83 55 -133t154 -50t156 50.5t57 134.5q0 83 -57 133.5t-156 50.5t-154 -50.5 t-55 -135.5z" />
</font>
</defs>
</svg>
