<?xml version="1.0" standalone="no"?>
<!DOCTYPE svg PUBLIC "-//W3C//DTD SVG 1.1//EN" "http://www.w3.org/Graphics/SVG/1.1/DTD/svg11.dtd" >
<svg xmlns="http://www.w3.org/2000/svg">
<metadata></metadata>
<defs>
<font id="ars_maquette_promedium" horiz-adv-x="1202" >
<font-face units-per-em="2048" ascent="1638" descent="-410" />
<missing-glyph horiz-adv-x="552" />
<glyph unicode="ff" horiz-adv-x="1402" d="M45 901v174h178v96q0 149 91 231.5t255 82.5q109 0 174 -23l-26 -180q-81 21 -127 21q-71 0 -105 -29t-34 -96v-103h434v96q0 149 90.5 231.5t253.5 82.5q109 0 174 -23l-27 -180q-81 21 -125 21q-72 0 -106.5 -29t-34.5 -96v-103h242v-174h-242v-901h-225v901h-434v-901 h-228v901h-178z" />
<glyph unicode="fi" horiz-adv-x="1247" d="M45 901v174h178v96q0 150 90.5 232t255.5 82q109 0 174 -23l-26 -180q-81 21 -129 21q-70 0 -103.5 -29t-33.5 -96v-103h241v-174h-241v-901h-228v901h-178zM872 0v1075h226v-1075h-226zM872 1249v213h226v-213h-226z" />
<glyph unicode="fl" horiz-adv-x="1255" d="M45 901v174h178v96q0 150 90.5 232t255.5 82q109 0 174 -23l-26 -180q-81 21 -129 21q-70 0 -103.5 -29t-33.5 -96v-103h241v-174h-241v-901h-228v901h-178zM879 0v1462h225v-1462h-225z" />
<glyph unicode="fj" horiz-adv-x="1261" d="M45 901v174h178v96q0 150 90.5 232t255.5 82q109 0 174 -23l-26 -180q-81 21 -129 21q-70 0 -103.5 -29t-33.5 -96v-103h241v-174h-241v-901h-228v901h-178zM551 -332l61 176q53 -24 111 -24q86 0 124 47t38 137v1071h227v-1065q0 -189 -100 -286t-269 -97 q-112 0 -192 41zM885 1249v213h227v-213h-227z" />
<glyph unicode=" "  horiz-adv-x="552" />
<glyph unicode="&#x09;" horiz-adv-x="552" />
<glyph unicode="&#xa0;" horiz-adv-x="552" />
<glyph unicode="!" horiz-adv-x="569" d="M160 0v256h250v-256h-250zM160 1051v313h250v-313l-66 -623h-119z" />
<glyph unicode="&#x22;" horiz-adv-x="858" d="M92 1286v78h254v-78l-72 -455h-110zM512 1286v78h254v-78l-72 -455h-110z" />
<glyph unicode="#" horiz-adv-x="1308" d="M76 381v135h254l61 334h-231v135h254l69 379h150l-68 -379h285l70 379h149l-70 -379h232v-135h-254l-59 -334h231v-135h-256l-68 -381h-151l69 381h-286l-68 -381h-149l67 381h-231zM481 516h287l59 334h-286z" />
<glyph unicode="$" d="M55 274l185 103q102 -183 323 -211v432q-47 10 -86.5 21t-86.5 29.5t-84 39.5t-73.5 52t-60 67.5t-38.5 85.5t-15 106q0 172 122.5 277t321.5 113v131h115v-136q129 -14 239 -76t185 -169l-166 -107q-104 131 -258 160v-389q74 -18 132 -37.5t120.5 -53.5t103.5 -76 t67.5 -104.5t26.5 -138.5q0 -169 -121 -283t-329 -133v-174h-115v174q-175 10 -305.5 88t-202.5 209zM340 1022q0 -82 54.5 -122.5t168.5 -70.5v371q-98 -5 -160.5 -48.5t-62.5 -129.5zM678 166q109 8 170 62t61 145q0 86 -56.5 128t-174.5 72v-407z" />
<glyph unicode="%" horiz-adv-x="1593" d="M72 1040q0 146 94.5 244t239.5 98t239 -98t94 -244q0 -147 -94 -245.5t-239 -98.5t-239.5 98.5t-94.5 245.5zM225 1040q0 -81 50.5 -135.5t130.5 -54.5q78 0 128 54.5t50 135.5t-50 135t-128 54q-80 0 -130.5 -54t-50.5 -135zM352 0l715 1364h176l-717 -1364h-174z M856 326q0 146 95 244t239 98q145 0 239.5 -98t94.5 -244q0 -147 -94.5 -245.5t-239.5 -98.5q-144 0 -239 98.5t-95 245.5zM1012 326q0 -81 50 -136t128 -55t129 55t51 136q0 80 -50.5 134t-129.5 54t-128.5 -53.5t-49.5 -134.5z" />
<glyph unicode="&#x26;" horiz-adv-x="1402" d="M61 367q0 254 304 381q-79 88 -113.5 155t-34.5 152q0 159 110 246.5t285 87.5q169 0 278 -85t109 -233q0 -122 -78.5 -211t-230.5 -158l295 -299q83 123 117 248l198 -47q-58 -197 -178 -342l260 -262h-297l-118 119q-189 -144 -418 -144q-137 0 -246.5 45t-175.5 135.5 t-66 211.5zM289 393q0 -101 79 -164t207 -63q142 0 259 92l-355 367q-88 -42 -139 -97t-51 -135zM428 1059q0 -59 34 -110t107 -126q54 25 91 46.5t71.5 50.5t52 64.5t17.5 76.5q0 74 -53.5 116t-133.5 42q-78 0 -132 -42t-54 -118z" />
<glyph unicode="'" horiz-adv-x="436" d="M92 1286v78h252v-78l-72 -455h-110z" />
<glyph unicode="(" horiz-adv-x="608" d="M76 621q0 491 354 874l139 -102q-295 -337 -295 -772q0 -436 295 -773l-139 -102q-354 386 -354 875z" />
<glyph unicode=")" horiz-adv-x="608" d="M39 -152q297 336 297 773q0 436 -297 772l141 102q352 -386 352 -874q0 -491 -352 -875z" />
<glyph unicode="*" horiz-adv-x="927" d="M84 897q77 46 136.5 70.5t172.5 56.5q-113 34 -172.5 58t-136.5 69l80 139q76 -42 127 -82t137 -123q-28 113 -36.5 177.5t-8.5 154.5h160q0 -92 -8 -156.5t-35 -175.5q86 82 137 122.5t125 82.5l82 -139q-79 -45 -138 -69t-171 -58q112 -32 171.5 -56.5t137.5 -70.5 l-82 -137q-73 42 -124 81.5t-138 121.5q27 -111 35 -174.5t8 -157.5h-160q0 91 8.5 154.5t36.5 177.5q-88 -82 -139 -122t-125 -81z" />
<glyph unicode="+" d="M98 526v193h406v407h194v-407h406v-193h-406v-405h-194v405h-406z" />
<glyph unicode="," horiz-adv-x="528" d="M127 -240q59 42 93 98t34 109v33h-121v258h262v-217q0 -114 -45.5 -202.5t-144.5 -166.5z" />
<glyph unicode="-" horiz-adv-x="819" d="M119 475v201h581v-201h-581z" />
<glyph unicode="." horiz-adv-x="528" d="M133 0v258h262v-258h-262z" />
<glyph unicode="/" horiz-adv-x="763" d="M66 -221l450 1683h186l-450 -1683h-186z" />
<glyph unicode="0" d="M88 684q0 111 15 208.5t52 191t93.5 160t146 107t203.5 40.5q115 0 205 -40.5t147 -107t94.5 -160t52.5 -191.5t15 -208q0 -111 -15 -209.5t-52.5 -191.5t-94.5 -160t-147 -107.5t-205 -40.5q-114 0 -203.5 40.5t-146 107t-93.5 160t-52 192t-15 209.5zM330 684 q0 -510 268 -510t268 510q0 506 -268 506t-268 -506z" />
<glyph unicode="1" d="M168 1190q301 55 422 174h180v-1165h317v-199h-890v199h335v897q-57 -28 -151 -54t-184 -36z" />
<glyph unicode="2" d="M84 1104q86 134 212 209.5t288 75.5q205 0 337 -116t132 -310q0 -176 -137 -348.5t-451 -405.5h639v-209h-985v170q261 208 402.5 340.5t210.5 238.5t69 201q0 109 -66 167.5t-172 58.5q-93 0 -168 -50t-121 -133z" />
<glyph unicode="3" d="M63 279l209 98q45 -95 128 -144t194 -49q124 0 192 59.5t68 159.5q0 95 -70 148t-206 53h-111v199h115q114 0 174.5 52.5t60.5 141.5q0 86 -61 134.5t-168 48.5q-200 0 -309 -168l-181 112q184 265 502 265q203 0 331 -102.5t128 -262.5q0 -103 -54 -179.5t-147 -121.5 q117 -45 179.5 -132.5t62.5 -197.5q0 -178 -137.5 -298t-368.5 -120q-374 0 -531 304z" />
<glyph unicode="4" d="M61 305v187q127 225 196 459.5t69 412.5h233q0 -178 -72.5 -410.5t-199.5 -445.5h428v567h233v-567h193v-203h-193v-305h-233v305h-654z" />
<glyph unicode="5" d="M80 248l199 112q46 -88 123.5 -131t175.5 -43q125 0 201.5 70t76.5 190q0 117 -73.5 185.5t-202.5 68.5q-174 0 -277 -127l-143 66l47 725h819v-217h-627l-30 -334q111 78 272 78q199 0 330 -120.5t131 -319.5q0 -94 -34 -179t-97 -151.5t-162.5 -106t-222.5 -39.5 q-347 0 -506 273z" />
<glyph unicode="6" d="M100 492q0 123 35 242.5t101 229t145.5 205t183.5 195.5h336q-156 -120 -289.5 -266.5t-191.5 -276.5q47 48 121 70t149 22q190 0 314 -124.5t124 -327.5q0 -216 -141.5 -351t-372.5 -135q-237 0 -375.5 135.5t-138.5 381.5zM346 457q0 -124 71 -197.5t199 -73.5 q125 0 195 73.5t70 197.5q0 123 -69.5 195.5t-195.5 72.5q-128 0 -199 -73.5t-71 -194.5z" />
<glyph unicode="7" d="M94 1155v209h1016v-172q-537 -715 -545 -1192h-264q20 494 528 1155h-735z" />
<glyph unicode="8" d="M84 387q0 116 62 208t178 138q-191 93 -191 293q0 164 134 263.5t335 99.5q130 0 236 -43.5t168.5 -127t62.5 -192.5q0 -201 -190 -293q116 -46 177.5 -137.5t61.5 -208.5q0 -180 -138 -296t-378 -116q-241 0 -379.5 116t-138.5 296zM332 403q0 -110 71.5 -170.5 t198.5 -60.5q126 0 197 60t71 171q0 108 -69.5 169t-198.5 61t-199.5 -61t-70.5 -169zM375 1001q0 -90 60.5 -139t164.5 -49q105 0 166 48.5t61 139.5q0 90 -61.5 140.5t-163.5 50.5q-103 0 -165 -50t-62 -141z" />
<glyph unicode="9" d="M72 903q0 216 142.5 351t373.5 135q236 0 375 -136t139 -381q0 -123 -35 -242t-102 -228.5t-146 -204.5t-184 -197h-336q155 118 289 264.5t194 276.5q-47 -47 -121 -68.5t-149 -21.5q-191 0 -315.5 124t-124.5 328zM322 907q0 -124 68.5 -196t195.5 -72q128 0 199 73.5 t71 194.5q0 124 -71 197.5t-199 73.5q-126 0 -195 -73.5t-69 -197.5z" />
<glyph unicode=":" horiz-adv-x="606" d="M172 0v258h262v-258h-262zM172 817v258h262v-258h-262z" />
<glyph unicode=";" horiz-adv-x="606" d="M166 -240q59 42 93 98t34 109v33h-121v258h262v-217q0 -114 -45.5 -202.5t-144.5 -166.5zM172 817v258h262v-258h-262z" />
<glyph unicode="&#x3c;" d="M211 625l594 592l133 -134l-455 -458l455 -457l-133 -133z" />
<glyph unicode="=" d="M98 319v195h1006v-195h-1006zM98 733v193h1006v-193h-1006z" />
<glyph unicode="&#x3e;" d="M264 168l459 457l-459 458l133 134l594 -592l-594 -590z" />
<glyph unicode="?" horiz-adv-x="1087" d="M61 1210q207 181 461 181q207 0 340 -113.5t133 -306.5q0 -178 -117 -290.5t-300 -143.5v-109h-224v303q36 -10 90 -10q137 0 221.5 64t84.5 178q0 98 -67 157.5t-183 59.5q-173 0 -307 -125zM336 0v242h262v-242h-262z" />
<glyph unicode="@" horiz-adv-x="1736" d="M86 616q0 160 57.5 302t160 246.5t252 165.5t323.5 61q173 0 320.5 -60.5t248.5 -163.5t158 -242.5t57 -295.5q0 -191 -91.5 -305.5t-246.5 -114.5q-171 0 -235 135q-96 -139 -271 -139q-160 0 -256 115t-96 290q0 177 96.5 292.5t257.5 115.5q137 0 228 -107v90h184 v-546q0 -127 115 -127q88 0 135 79t47 209q0 185 -78 332.5t-226.5 232.5t-342.5 85q-191 0 -341 -89.5t-229.5 -237t-79.5 -323.5q0 -134 47 -252.5t130 -206.5t206 -139t267 -51q185 0 325 88l60 -110q-187 -101 -394 -101q-173 0 -320.5 59.5t-250 162.5t-160 245.5 t-57.5 304.5zM657 610q0 -107 50.5 -176t144.5 -69t145.5 69.5t51.5 175.5q0 108 -52 178t-147 70q-93 0 -143 -70t-50 -178z" />
<glyph unicode="A" horiz-adv-x="1384" d="M16 0l535 1364h283l534 -1364h-268l-129 348h-565l-130 -348h-260zM469 549h436l-215 604z" />
<glyph unicode="B" horiz-adv-x="1363" d="M170 0v1364h598q215 0 333 -88.5t118 -247.5q0 -97 -48 -173t-131 -120q114 -47 173 -136t59 -206q0 -175 -120.5 -284t-340.5 -109h-641zM410 211h389q107 0 166 52.5t59 146.5q0 92 -56.5 148t-162.5 56h-395v-403zM410 811h354q101 0 157 48.5t56 133.5 q0 160 -221 160h-346v-342z" />
<glyph unicode="C" horiz-adv-x="1386" d="M88 684q0 204 83.5 364.5t236.5 250.5t350 90q366 0 559 -297l-189 -121q-128 205 -364 205q-193 0 -309.5 -135.5t-116.5 -354.5q0 -223 116 -360.5t308 -137.5q233 0 364 215l199 -114q-93 -151 -235.5 -232.5t-329.5 -81.5q-198 0 -351 90t-237 251.5t-84 367.5z" />
<glyph unicode="D" horiz-adv-x="1476" d="M170 0v1364h541q160 0 289 -52t213 -143.5t128.5 -216t44.5 -270.5t-45 -270t-128.5 -216t-212.5 -144t-289 -52h-541zM412 217h299q206 0 316 124.5t110 340.5t-110 340.5t-316 124.5h-299v-930z" />
<glyph unicode="E" horiz-adv-x="1271" d="M170 0v1364h993v-209h-753v-332h655v-209h-655v-405h774v-209h-1014z" />
<glyph unicode="F" horiz-adv-x="1239" d="M170 0v1364h1012v-209h-772v-352h653v-209h-653v-594h-240z" />
<glyph unicode="G" horiz-adv-x="1478" d="M88 684q0 207 83.5 367t237.5 249t355 89q181 0 322.5 -76.5t232.5 -216.5l-197 -119q-58 98 -150 148.5t-210 50.5q-198 0 -311 -135.5t-113 -356.5q0 -230 115 -363t315 -133q162 0 271 87t122 239h-377v209h613q10 -48 10 -111q0 -131 -43 -246.5t-122.5 -202.5 t-203 -137.5t-274.5 -50.5q-202 0 -356 90.5t-237 251.5t-83 367z" />
<glyph unicode="H" horiz-adv-x="1497" d="M170 0v1364h240v-537h675v537h242v-1364h-242v612h-675v-612h-240z" />
<glyph unicode="I" horiz-adv-x="577" d="M170 0v1364h238v-1364h-238z" />
<glyph unicode="J" horiz-adv-x="1052" d="M12 211l195 117q80 -138 229 -138q112 0 165.5 65.5t53.5 184.5v924h240v-920q0 -225 -125 -347t-336 -122q-294 0 -422 236z" />
<glyph unicode="K" horiz-adv-x="1349" d="M170 0v1364h238v-682l608 682h289l-508 -567l561 -797h-285l-440 623l-225 -252v-371h-238z" />
<glyph unicode="L" horiz-adv-x="1171" d="M170 0v1364h238v-1147h733v-217h-971z" />
<glyph unicode="M" horiz-adv-x="1816" d="M170 0v1364h352l389 -1065l389 1065h347v-1364h-234v1112l-405 -1112h-201l-404 1110v-1110h-233z" />
<glyph unicode="N" horiz-adv-x="1497" d="M170 0v1364h303l625 -1032v1032h229v-1364h-287l-641 1057v-1057h-229z" />
<glyph unicode="O" horiz-adv-x="1527" d="M86 682q0 149 47.5 278.5t134 224.5t214.5 149.5t282 54.5t282 -54.5t214.5 -149.5t134 -224.5t47.5 -278.5t-47.5 -278.5t-134 -224.5t-214.5 -149.5t-282 -54.5t-282 54.5t-214.5 149.5t-134 224.5t-47.5 278.5zM336 682q0 -215 114.5 -350t313.5 -135q197 0 312.5 135 t115.5 350t-115.5 350t-312.5 135q-199 0 -313.5 -135t-114.5 -350z" />
<glyph unicode="P" horiz-adv-x="1310" d="M170 0v1364h594q232 0 364 -119t132 -319t-132 -318.5t-364 -118.5h-354v-489h-240zM410 698h352q122 0 187 60t65 168q0 109 -65 169t-187 60h-352v-457z" />
<glyph unicode="Q" horiz-adv-x="1527" d="M86 684q0 148 47.5 277.5t134 224t215 149t281.5 54.5t281.5 -54.5t215 -149t134 -224t47.5 -277.5q0 -160 -55 -297t-156 -233l151 -181l-157 -131l-162 197q-137 -64 -299 -64q-153 0 -281.5 55t-215 150t-134 225t-47.5 279zM336 684q0 -216 115 -351.5t313 -135.5 q84 0 145 30l-135 166l150 121l149 -178q119 132 119 348q0 214 -115.5 348.5t-312.5 134.5q-198 0 -313 -134.5t-115 -348.5z" />
<glyph unicode="R" horiz-adv-x="1363" d="M170 0v1364h612q223 0 350.5 -112.5t127.5 -299.5q0 -139 -76.5 -239t-196.5 -146l309 -567h-268l-274 522h-344v-522h-240zM410 723h370q105 0 169.5 58.5t64.5 156.5q0 101 -66 159t-172 58h-366v-432z" />
<glyph unicode="S" horiz-adv-x="1261" d="M57 279l193 112q66 -109 171.5 -161t231.5 -52q129 0 207 53.5t78 147.5q0 99 -101 147q-59 28 -228 61l-1 1h-1h-2h-1l-1 1h-1h-1h-1h-1l-1 1h-1h-1q-83 17 -145 35.5t-127.5 50.5t-106.5 72.5t-67.5 102.5t-26.5 140q0 184 137 291t358 107q164 0 304 -63.5t231 -190.5 l-180 -121q-63 85 -157.5 128.5t-205.5 43.5q-110 0 -179 -42.5t-69 -131.5q0 -24 5.5 -44t19.5 -36t26.5 -28.5t39.5 -24t43 -18.5t53 -16.5t55 -13.5t62 -14q77 -16 132.5 -31t119.5 -38.5t106.5 -53t80 -70t55.5 -95.5t18 -123q0 -192 -146 -311.5t-393 -119.5 q-199 0 -351 81t-231 223z" />
<glyph unicode="T" horiz-adv-x="1249" d="M55 1155v209h1139v-209h-451v-1155h-239v1155h-449z" />
<glyph unicode="U" horiz-adv-x="1456" d="M156 518v846h239v-846q0 -150 87.5 -235.5t244.5 -85.5q155 0 245.5 86t90.5 235v846h237v-846q0 -251 -158.5 -397t-414.5 -146q-257 0 -414 145.5t-157 397.5z" />
<glyph unicode="V" horiz-adv-x="1318" d="M14 1364h260l385 -1083l390 1083h256l-517 -1364h-256z" />
<glyph unicode="W" horiz-adv-x="1945" d="M47 1364h256l258 -1042l303 1042h221l301 -1047l259 1047h258l-381 -1364h-265l-286 1016l-289 -1016h-266z" />
<glyph unicode="X" horiz-adv-x="1351" d="M2 0l522 711l-479 653h289l344 -494l346 494h281l-476 -653l521 -711h-291l-385 537l-383 -537h-289z" />
<glyph unicode="Y" horiz-adv-x="1294" d="M4 1364h281l364 -602l367 602h276l-526 -819v-545h-240v545z" />
<glyph unicode="Z" horiz-adv-x="1255" d="M80 0v188l758 967h-727v209h1042v-180l-762 -975h780v-209h-1091z" />
<glyph unicode="[" horiz-adv-x="630" d="M154 -221v1683h456v-159h-260v-1364h260v-160h-456z" />
<glyph unicode="\" horiz-adv-x="763" d="M61 1462h187l450 -1683h-186z" />
<glyph unicode="]" horiz-adv-x="632" d="M20 -61h263v1364h-263v159h459v-1683h-459v160z" />
<glyph unicode="^" d="M45 893l471 471h172l471 -471l-133 -135l-422 424l-426 -424z" />
<glyph unicode="_" horiz-adv-x="1222" d="M0 -154h1223v-102h-1223v102z" />
<glyph unicode="`" horiz-adv-x="657" d="M123 1462l201 33q50 -105 176 -258l-86 -59q-90 49 -174 129.5t-117 154.5z" />
<glyph unicode="a" horiz-adv-x="1177" d="M72 307q0 55 14 100.5t36.5 77t57.5 56.5t68.5 40t80 26.5t81.5 17t82 10.5q41 4 65 7t56.5 8.5t51.5 11.5t40.5 16t32.5 22.5t18.5 30t7.5 39.5q0 72 -65 104.5t-154 32.5q-86 0 -174.5 -27.5t-161.5 -80.5l-90 170q203 131 442 131q201 0 316.5 -88t115.5 -273v-489 q0 -52 18 -75t58 -23q39 0 59 14l25 -156q-53 -26 -139 -26q-81 0 -140 39.5t-75 119.5q-61 -89 -156.5 -128.5t-202.5 -39.5q-168 0 -268 88t-100 244zM299 311q0 -81 54 -120t143 -39q115 0 192.5 64.5t77.5 191.5v163q-15 -19 -34.5 -33t-35.5 -22.5t-44.5 -15.5 t-45 -9.5t-54 -7.5t-54.5 -8q-98 -15 -148.5 -50.5t-50.5 -113.5z" />
<glyph unicode="b" horiz-adv-x="1312" d="M150 0v1462h225v-544q138 182 364 182q149 0 262 -74.5t171.5 -201t58.5 -285.5q0 -160 -59 -287.5t-172 -202t-261 -74.5q-225 0 -364 183v-158h-225zM375 537q0 -157 82 -258t231 -101q147 0 225 100.5t78 258.5q0 157 -78 258.5t-225 101.5q-148 0 -230.5 -102.5 t-82.5 -257.5z" />
<glyph unicode="c" horiz-adv-x="1120" d="M80 537q0 161 64.5 288.5t186.5 201t281 73.5q147 0 259.5 -64.5t185.5 -175.5l-170 -121q-43 76 -110 119t-154 43q-139 0 -221.5 -102t-82.5 -260q0 -161 83.5 -263t222.5 -102q166 0 268 156l170 -117q-72 -109 -185.5 -173.5t-263.5 -64.5q-160 0 -282.5 74t-187 201 t-64.5 287z" />
<glyph unicode="d" horiz-adv-x="1314" d="M82 537q0 160 59 287t172 201.5t262 74.5q228 0 363 -182v544h227v-1462h-227v158q-136 -183 -363 -183q-149 0 -262 74.5t-172 201.5t-59 286zM322 537q0 -158 78 -258.5t225 -100.5q149 0 231 101.5t82 257.5q0 157 -82 258.5t-231 101.5q-147 0 -225 -101t-78 -259z " />
<glyph unicode="e" horiz-adv-x="1222" d="M82 532q0 160 64 288.5t188 204t289 75.5q159 0 279.5 -71t182.5 -193t62 -277q0 -42 -4 -78h-819q7 -146 95.5 -225.5t233.5 -79.5q186 0 312 135l147 -141q-185 -195 -467 -195q-264 0 -413.5 156t-149.5 401zM328 645h592q-12 131 -93.5 202t-201.5 71 q-126 0 -207 -76t-90 -197z" />
<glyph unicode="f" horiz-adv-x="743" d="M45 901v174h178v96q0 150 90.5 232t255.5 82q109 0 174 -23l-26 -180q-81 21 -129 21q-70 0 -103.5 -29t-33.5 -96v-103h241v-174h-241v-901h-228v901h-178z" />
<glyph unicode="g" horiz-adv-x="1316" d="M84 575q0 226 138 375.5t353 149.5q240 0 367 -182v157h227v-887q0 -132 -26.5 -227.5t-91.5 -167.5q-151 -170 -471 -170q-266 0 -455 125l98 180q148 -106 357 -106q79 0 143.5 17.5t114 54.5t77 98.5t27.5 144.5v101q-63 -89 -161.5 -135t-211.5 -46q-142 0 -253 68 t-171.5 185.5t-60.5 264.5zM324 580q0 -142 79.5 -235t225.5 -93t230.5 93t84.5 235q0 141 -83 232t-232 91q-147 0 -226 -91t-79 -232z" />
<glyph unicode="h" horiz-adv-x="1234" d="M150 0v1462h225v-544q137 182 352 182q175 0 273 -108t98 -292v-700h-226v649q0 244 -213 244q-122 0 -203 -80t-81 -211v-602h-225z" />
<glyph unicode="i" horiz-adv-x="524" d="M150 0v1075h225v-1075h-225zM150 1249v213h225v-213h-225z" />
<glyph unicode="j" horiz-adv-x="526" d="M-184 -332l61 176q53 -24 111 -24q86 0 124 47t38 137v1071h227v-1065q0 -189 -100 -286t-269 -97q-112 0 -192 41zM150 1249v213h227v-213h-227z" />
<glyph unicode="k" horiz-adv-x="1198" d="M150 0v1462h225v-905l491 518h277l-420 -432l473 -643h-278l-351 492l-192 -197v-295h-225z" />
<glyph unicode="l" horiz-adv-x="528" d="M152 0v1462h225v-1462h-225z" />
<glyph unicode="m" horiz-adv-x="1896" d="M150 0v1075h225v-153q133 178 336 178q118 0 197.5 -53t115.5 -152q71 100 167 152.5t208 52.5q174 0 267 -105.5t93 -287.5v-707h-225v653q0 50 -8.5 88.5t-29 75t-62.5 56.5t-103 20q-115 0 -189.5 -78.5t-74.5 -208.5v-606h-225v653q0 50 -8.5 88.5t-29 75t-62.5 56.5 t-103 20q-116 0 -190 -78.5t-74 -208.5v-606h-225z" />
<glyph unicode="n" horiz-adv-x="1234" d="M150 0v1075h225v-157q137 182 352 182q175 0 273 -108t98 -292v-700h-226v649q0 244 -213 244q-122 0 -203 -80t-81 -211v-602h-225z" />
<glyph unicode="o" horiz-adv-x="1253" d="M82 537q0 250 148.5 406.5t396.5 156.5t396 -156.5t148 -406.5q0 -249 -148 -405.5t-396 -156.5t-396.5 156.5t-148.5 405.5zM322 537q0 -160 81.5 -262.5t223.5 -102.5t222.5 102.5t80.5 262.5q0 162 -80.5 264t-222.5 102q-143 0 -224 -102.5t-81 -263.5z" />
<glyph unicode="p" horiz-adv-x="1312" d="M150 -356v1431h225v-157q138 182 364 182q149 0 262 -75t171.5 -201.5t58.5 -284.5q0 -160 -59 -287.5t-172 -202t-261 -74.5q-224 0 -364 181v-512h-225zM375 537q0 -156 83 -257.5t230 -101.5t225 101.5t78 257.5q0 158 -78 259t-225 101q-148 0 -230.5 -102 t-82.5 -258z" />
<glyph unicode="q" horiz-adv-x="1314" d="M82 537q0 159 59 286t172 202t262 75q228 0 363 -182v157h227v-1431h-227v512q-137 -181 -363 -181q-149 0 -262 74.5t-172 201.5t-59 286zM322 539q0 -157 78 -259t225 -102q148 0 230.5 102.5t82.5 258.5t-82.5 257t-230.5 101q-147 0 -225 -100.5t-78 -257.5z" />
<glyph unicode="r" horiz-adv-x="831" d="M150 0v1075h225v-174q57 89 135 142t168 53q86 0 143 -37l-65 -221q-62 32 -123 32q-108 0 -183 -87.5t-75 -235.5v-547h-225z" />
<glyph unicode="s" horiz-adv-x="1093" d="M55 217l160 113q60 -84 152.5 -127t199.5 -43q102 0 163 37t61 106q0 29 -13 50.5t-32 35.5t-58 26t-73.5 19t-96.5 17q-75 13 -129.5 27.5t-109.5 39.5t-89 58t-55.5 83.5t-21.5 114.5q0 107 60 182.5t153 109.5t209 34q150 0 268.5 -54t193.5 -135l-143 -131 q-55 63 -139 99t-183 36q-84 0 -142 -30.5t-58 -89.5q0 -23 8 -41t28 -31.5t38 -23t54 -18.5t59.5 -13.5t68.5 -12.5q78 -14 133 -28t114.5 -39.5t95.5 -58t59.5 -84t23.5 -117.5q0 -160 -123 -256.5t-336 -96.5q-165 0 -294.5 62t-205.5 180z" />
<glyph unicode="t" horiz-adv-x="843" d="M37 901v174h180v289h227v-289h332v-174h-332v-565q0 -160 146 -160q77 0 135 47l90 -168q-107 -80 -256 -80q-204 0 -291 138q-51 76 -51 225v563h-180z" />
<glyph unicode="u" horiz-adv-x="1234" d="M137 375v700h225v-649q0 -244 213 -244q123 0 204 80t81 211v602h225v-1075h-225v156q-139 -181 -352 -181q-175 0 -273 108t-98 292z" />
<glyph unicode="v" horiz-adv-x="1120" d="M18 1075h254l291 -807l289 807h250l-426 -1075h-234z" />
<glyph unicode="w" horiz-adv-x="1644" d="M49 1075h244l194 -786l236 786h207l233 -786l193 786h239l-299 -1075h-241l-232 782l-237 -782h-240z" />
<glyph unicode="x" horiz-adv-x="1138" d="M20 0l404 561l-367 514h271l245 -370l244 370h266l-364 -516l397 -559h-274l-273 408l-276 -408h-273z" />
<glyph unicode="y" horiz-adv-x="1122" d="M16 1075h260l308 -776l274 776h244l-426 -1118q-33 -87 -67 -146t-79 -103t-103 -64.5t-134 -20.5q-138 0 -244 74l92 160q59 -43 127 -43q61 0 98.5 36t71.5 105l29 59z" />
<glyph unicode="z" horiz-adv-x="1067" d="M80 0v174l577 703h-553v198h861v-172l-576 -704h594v-199h-903z" />
<glyph unicode="{" horiz-adv-x="757" d="M39 541v159h74q93 0 131.5 49t38.5 138v239q0 163 94 253.5t250 90.5h114v-159h-82q-178 0 -178 -199v-197q0 -226 -180 -294q180 -65 180 -293v-199q0 -199 178 -199h82v-159h-114q-156 0 -250 90.5t-94 253.5v239q0 89 -38.5 138t-131.5 49h-74z" />
<glyph unicode="|" horiz-adv-x="481" d="M154 -221v1683h174v-1683h-174z" />
<glyph unicode="}" horiz-adv-x="757" d="M16 -70h82q97 0 139 51.5t42 147.5v197q0 227 180 295q-180 65 -180 292v199q0 96 -42 147.5t-139 51.5h-82v159h117q156 0 249 -90.5t93 -253.5v-239q0 -187 172 -187h72v-159h-72q-172 0 -172 -187v-239q0 -163 -93 -253.5t-249 -90.5h-117v159z" />
<glyph unicode="~" horiz-adv-x="1253" d="M92 553q92 132 172.5 191t188.5 59q92 0 186 -64q72 -49 108 -66.5t78 -17.5q55 0 108.5 33t119.5 115l114 -92q-92 -132 -172 -191t-188 -59q-93 0 -186 63q-72 49 -108.5 66.5t-78.5 17.5q-55 0 -108 -32.5t-119 -114.5z" />
<glyph unicode="&#xa1;" horiz-adv-x="573" d="M162 23l65 620h119l66 -620v-314h-250v314zM162 819v256h250v-256h-250z" />
<glyph unicode="&#xa2;" d="M109 537q0 230 131 386t348 175v168h114v-170q124 -12 220.5 -74t162.5 -162l-170 -121q-75 134 -213 158v-721q134 22 220 154l170 -117q-65 -98 -163.5 -160t-226.5 -73v-173h-114v173q-218 19 -348.5 173.5t-130.5 383.5zM344 539q0 -143 63.5 -239.5t180.5 -119.5 v715q-117 -21 -180.5 -117.5t-63.5 -238.5z" />
<glyph unicode="&#xa3;" d="M43 569v154h156q-25 65 -36 96t-19.5 73t-8.5 83q0 189 136.5 301.5t349.5 112.5q323 0 495 -279l-198 -106q-100 165 -285 165q-109 0 -178.5 -56.5t-69.5 -158.5q0 -20 3.5 -43t6.5 -37t13 -42l12.5 -35t16.5 -40t14 -34h385v-154h-342q18 -56 18 -108t-27 -117 t-77 -111q64 29 147 29q67 0 162.5 -30.5t136.5 -30.5q52 0 86 28t57 90l183 -106q-100 -238 -301 -238q-69 0 -204 45.5t-208 45.5q-65 0 -150.5 -23t-162.5 -68l-84 177q213 115 213 278q0 62 -27 139h-213z" />
<glyph unicode="&#xa4;" d="M106 266l154 150q-59 94 -59 205q0 112 59 206l-154 152l138 137l153 -153q88 57 203 57t203 -57l155 153l136 -137l-152 -154q57 -96 57 -204q0 -107 -57 -203l152 -152l-136 -137l-153 152q-92 -60 -205 -60q-109 0 -205 60l-151 -152zM367 621q0 -97 68 -165.5 t165 -68.5q98 0 167 68.5t69 165.5q0 98 -69 166.5t-167 68.5q-97 0 -165 -68.5t-68 -166.5z" />
<glyph unicode="&#xa5;" d="M39 1364h276l291 -594l285 594h272l-350 -645h264v-117h-327l-31 -51v-113h358v-119h-358v-319h-238v319h-360v119h360v111l-30 53h-330v117h268z" />
<glyph unicode="&#xa6;" horiz-adv-x="464" d="M158 -221v647h149v-647h-149zM158 815v647h149v-647h-149z" />
<glyph unicode="&#xa7;" horiz-adv-x="1142" d="M76 836q0 117 39 218.5t110 176t177 117.5t233 43q238 0 405 -144l-127 -162q-115 109 -278 109q-91 0 -162.5 -34.5t-114.5 -98.5l269 -160q76 -45 136 -89t117.5 -101.5t95 -118.5t60.5 -138.5t23 -162.5q0 -117 -39 -218.5t-110 -176t-177 -117.5t-233 -43 q-240 0 -404 141l125 162q115 -109 281 -109q90 0 165.5 34t116.5 95l-276 166q-76 46 -136 90t-117.5 101.5t-95 118.5t-60.5 138.5t-23 162.5zM285 852q0 -84 23.5 -152.5t78 -132.5t116.5 -115.5t167 -125.5l176 -125q8 36 8 73q0 68 -17.5 127t-46 106t-81 99t-105 94 t-135.5 101l-174 125q-10 -45 -10 -74z" />
<glyph unicode="&#xa8;" horiz-adv-x="657" d="M16 1217v186h183v-186h-183zM459 1217v186h180v-186h-180z" />
<glyph unicode="&#xa9;" horiz-adv-x="1599" d="M80 682q0 146 57.5 279.5t154 229.5t230 153t279.5 57q117 0 226.5 -36.5t198 -103t155 -154.5t103 -198t36.5 -227q0 -116 -36.5 -226t-103 -198.5t-155 -155t-198.5 -103t-226 -36.5q-146 0 -279.5 57t-230 153.5t-154 230t-57.5 278.5zM203 682q0 -122 47.5 -232 t127.5 -190t190.5 -127t232.5 -47q161 0 298 79.5t216.5 217t79.5 299.5q0 122 -47 232.5t-126.5 190t-189.5 126.5t-231 47t-231.5 -47t-191 -126.5t-128 -190t-47.5 -232.5zM383 682q0 174 123 297t295 123q113 0 206.5 -54.5t157.5 -158.5l-137 -90q-38 65 -97 99 t-128 34q-103 0 -176.5 -73.5t-73.5 -176.5q0 -102 74 -176t176 -74q69 0 128 35.5t99 101.5l139 -90q-63 -104 -159 -159.5t-209 -55.5q-172 0 -295 122.5t-123 295.5z" />
<glyph unicode="&#xaa;" horiz-adv-x="903" d="M88 872q0 73 33.5 119.5t83.5 63t108.5 26.5t108.5 12.5t83.5 19t33.5 48.5q0 40 -41 58t-97 18q-120 0 -221 -70l-65 123q131 88 301 88q150 0 222.5 -64t72.5 -202v-270q0 -28 9 -39.5t32 -11.5q26 0 43 10l22 -119q-35 -18 -102 -18q-119 0 -146 88q-81 -95 -235 -95 q-109 0 -177.5 57.5t-68.5 157.5zM252 879q0 -45 33.5 -68t83.5 -23q74 0 124 38.5t50 111.5v84q-27 -22 -59 -31.5t-93 -17.5q-30 -5 -46 -8t-37 -9.5t-31 -15.5t-17.5 -24.5t-7.5 -36.5z" />
<glyph unicode="&#xab;" horiz-adv-x="987" d="M55 498v80l310 401l120 -92l-241 -350l241 -351l-120 -92zM465 498v80l307 401l123 -92l-242 -350l242 -351l-123 -92z" />
<glyph unicode="&#xac;" horiz-adv-x="1236" d="M106 526v193h1004v-598h-190v405h-814z" />
<glyph unicode="&#xad;" horiz-adv-x="819" d="M119 475v201h581v-201h-581z" />
<glyph unicode="&#xae;" horiz-adv-x="946" d="M82 997q0 162 114.5 277t276.5 115q161 0 276 -115.5t115 -276.5q0 -162 -114.5 -276.5t-276.5 -114.5q-163 0 -277 114t-114 277zM135 997q0 -139 99.5 -238.5t238.5 -99.5q138 0 237 99.5t99 238.5t-99 238.5t-237 99.5q-139 0 -238.5 -99.5t-99.5 -238.5zM313 797v403 h189q64 0 103.5 -35t39.5 -92q0 -44 -21 -75.5t-57 -43.5l88 -157h-100l-68 143h-86v-143h-88zM401 1010h97q24 0 40.5 17t16.5 44q0 26 -16.5 41.5t-40.5 15.5h-97v-118z" />
<glyph unicode="&#xaf;" horiz-adv-x="692" d="M20 1237v137h637v-137h-637z" />
<glyph unicode="&#xb0;" horiz-adv-x="780" d="M76 1071q0 131 92.5 224.5t222.5 93.5q129 0 222.5 -94t93.5 -224q0 -129 -93.5 -222t-222.5 -93q-130 0 -222.5 93t-92.5 222zM217 1071q0 -69 52 -120.5t122 -51.5t121 51.5t51 120.5q0 71 -51 122.5t-121 51.5q-71 0 -122.5 -51.5t-51.5 -122.5z" />
<glyph unicode="&#xb1;" d="M98 0v193h1006v-193h-1006zM98 696v193h406v381h194v-381h406v-193h-406v-377h-194v377h-406z" />
<glyph unicode="&#xb2;" horiz-adv-x="794" d="M45 1380q126 191 336 191q142 0 231.5 -74.5t89.5 -202.5q0 -74 -34 -138.5t-105.5 -134.5t-210.5 -179h383v-158h-661v131q259 197 351.5 292.5t92.5 176.5q0 59 -44 93t-107 34q-56 0 -104 -29.5t-79 -81.5z" />
<glyph unicode="&#xb3;" horiz-adv-x="806" d="M45 879l154 53q57 -107 204 -107q71 0 112.5 33.5t41.5 85.5q0 49 -37 77t-100 28h-115v151h109q46 0 84.5 26.5t38.5 78.5q0 54 -43 81t-107 27q-130 0 -192 -98l-136 74q118 182 340 182q134 0 223 -64.5t89 -181.5q0 -125 -101 -184q67 -26 97 -81.5t30 -121.5 q0 -118 -92.5 -194t-241.5 -76q-259 0 -358 211z" />
<glyph unicode="&#xb4;" horiz-adv-x="657" d="M186 1237q126 153 176 258l201 -33q-33 -74 -117 -154.5t-174 -129.5z" />
<glyph unicode="&#x3bc;" d="M123 -356v1431h225v-647q0 -121 51.5 -187.5t157.5 -66.5q113 0 188.5 77t75.5 214v610h226v-827q0 -51 14.5 -73.5t50.5 -22.5t51 12l21 -158q-45 -22 -123 -22q-84 0 -141.5 41.5t-69.5 121.5q-55 -85 -136 -128.5t-167 -43.5q-65 0 -117.5 25.5t-81.5 67.5v-424h-225z " />
<glyph unicode="&#xb5;" d="M123 -356v1431h225v-647q0 -121 51.5 -187.5t157.5 -66.5q113 0 188.5 77t75.5 214v610h226v-827q0 -51 14.5 -73.5t50.5 -22.5t51 12l21 -158q-45 -22 -123 -22q-84 0 -141.5 41.5t-69.5 121.5q-55 -85 -136 -128.5t-167 -43.5q-65 0 -117.5 25.5t-81.5 67.5v-424h-225z " />
<glyph unicode="&#xb6;" horiz-adv-x="1153" d="M72 936q0 192 123.5 310t306.5 118h493v-1550h-106v1409h-127v-1409h-156v692h-104q-187 0 -308.5 118t-121.5 312z" />
<glyph unicode="&#xb7;" horiz-adv-x="540" d="M119 623q0 63 45 108t108 45q62 0 106 -45t44 -108q0 -62 -44.5 -107t-105.5 -45q-63 0 -108 45t-45 107z" />
<glyph unicode="&#xb8;" horiz-adv-x="657" d="M92 -154q61 -61 144 -61q44 0 73 23t29 63q0 77 -105 139l62 35q88 -31 141 -88.5t53 -128.5q0 -81 -64.5 -130.5t-162.5 -49.5q-113 0 -170 53v145z" />
<glyph unicode="&#xb9;" horiz-adv-x="684" d="M59 1446q205 35 283 108h131v-716h186v-154h-577v154h217v520q-96 -34 -217 -49z" />
<glyph unicode="&#xba;" horiz-adv-x="886" d="M78 1018q0 160 99 260t265 100t266.5 -100t100.5 -260q0 -159 -101 -260t-266 -101t-264.5 101t-99.5 260zM254 1018q0 -92 50.5 -151.5t137.5 -59.5q89 0 139 59t50 152q0 95 -49.5 154t-139.5 59q-87 0 -137.5 -59.5t-50.5 -153.5z" />
<glyph unicode="&#xbb;" horiz-adv-x="987" d="M92 186l242 351l-242 350l123 92l307 -401v-80l-307 -404zM500 186l243 351l-243 350l123 92l307 -401v-80l-307 -404z" />
<glyph unicode="&#xbc;" horiz-adv-x="2004" d="M109 1255q202 35 282 109h131v-717h187v-153h-578v153h217v520q-96 -34 -217 -49zM430 0l961 1364h170l-961 -1364h-170zM1196 188v136q72 125 118.5 274.5t49.5 271.5h172q-3 -121 -46.5 -262t-113.5 -268h252v330h168v-330h125v-152h-125v-188h-170v188h-430z" />
<glyph unicode="&#xbd;" horiz-adv-x="2004" d="M104 1255q204 35 283 109h131v-717h187v-153h-578v153h217v520q-96 -34 -217 -49zM426 0l960 1364h170l-960 -1364h-170zM1217 696q132 191 335 191q143 0 232.5 -75t89.5 -204q0 -107 -73.5 -200.5t-276.5 -249.5h385v-158h-664v131q259 197 352 293t93 176 q0 59 -43.5 94t-106.5 35q-56 0 -104.5 -30.5t-79.5 -82.5z" />
<glyph unicode="&#xbe;" horiz-adv-x="2004" d="M76 688l153 53q57 -106 205 -106q71 0 112.5 33.5t41.5 85.5q0 49 -36.5 76.5t-100.5 27.5h-115v152h108q46 0 84.5 26t38.5 78q0 54 -42.5 81.5t-104.5 27.5q-132 0 -195 -99l-135 74q118 182 338 182q136 0 224.5 -64t88.5 -181q0 -128 -100 -185q66 -26 96.5 -81.5 t30.5 -120.5q0 -118 -93 -194.5t-241 -76.5q-259 0 -358 211zM451 0l960 1364h170l-960 -1364h-170zM1217 188v136q72 125 118 274t49 272h172q-3 -121 -46 -262t-113 -268h252v330h168v-330h125v-152h-125v-188h-170v188h-430z" />
<glyph unicode="&#xbf;" horiz-adv-x="1083" d="M109 104q0 178 117 291t300 144v108h224v-303q-36 10 -91 10q-137 0 -221 -63.5t-84 -177.5q0 -98 67 -157.5t183 -59.5q174 0 307 124l131 -155q-205 -180 -460 -180q-207 0 -340 113t-133 306zM506 834v241h262v-241h-262z" />
<glyph unicode="&#xc0;" horiz-adv-x="1384" d="M16 0l535 1364h283l534 -1364h-268l-129 348h-565l-130 -348h-260zM434 1720l201 33q50 -105 176 -258l-86 -59q-90 49 -174 129.5t-117 154.5zM469 549h436l-215 604z" />
<glyph unicode="&#xc1;" horiz-adv-x="1384" d="M16 0l535 1364h283l534 -1364h-268l-129 348h-565l-130 -348h-260zM469 549h436l-215 604zM590 1495q126 153 176 258l201 -33q-33 -74 -117 -154.5t-174 -129.5z" />
<glyph unicode="&#xc2;" horiz-adv-x="1384" d="M16 0l535 1364h283l534 -1364h-268l-129 348h-565l-130 -348h-260zM344 1540q146 96 262 203h168q120 -108 262 -203l-57 -96q-79 23 -156.5 64t-132.5 87q-53 -46 -130.5 -87t-158.5 -64zM469 549h436l-215 604z" />
<glyph unicode="&#xc3;" horiz-adv-x="1384" d="M16 0l535 1364h283l534 -1364h-268l-129 348h-565l-130 -348h-260zM342 1528q32 80 90.5 130t128.5 50q51 0 140 -39t128 -39q75 0 140 80l86 -57q-34 -81 -92 -132t-127 -51q-52 0 -141 40t-126 40q-78 0 -141 -80zM469 549h436l-215 604z" />
<glyph unicode="&#xc4;" horiz-adv-x="1384" d="M16 0l535 1364h283l534 -1364h-268l-129 348h-565l-130 -348h-260zM377 1475v186h182v-186h-182zM469 549h436l-215 604zM819 1475v186h180v-186h-180z" />
<glyph unicode="&#xc5;" horiz-adv-x="1372" d="M10 0l508 1290q-84 64 -84 166q0 97 74 165.5t178 68.5q106 0 180 -68.5t74 -165.5q0 -102 -84 -166l506 -1290h-268l-129 348h-566l-129 -348h-260zM463 549h436l-215 604zM571 1454q0 -47 34 -80t83 -33t81 32.5t32 80.5q0 50 -32 84.5t-81 34.5t-83 -34.5t-34 -84.5z " />
<glyph unicode="&#xc6;" horiz-adv-x="1894" d="M-14 0l696 1364h1104v-209h-647v-334h551v-209h-551v-403h667v-209h-909v348h-475l-176 -348h-260zM518 549h379v616h-78z" />
<glyph unicode="&#xc7;" horiz-adv-x="1388" d="M90 684q0 204 83.5 364.5t236.5 250.5t350 90q366 0 559 -297l-189 -121q-128 205 -364 205q-193 0 -309.5 -135.5t-116.5 -354.5q0 -223 116 -360.5t308 -137.5q233 0 364 215l199 -114q-85 -138 -211 -218.5t-289 -93.5q76 -66 76 -149q0 -81 -64.5 -130.5 t-162.5 -49.5q-113 0 -170 53v145q61 -61 143 -61q44 0 73.5 23t29.5 63q0 55 -60 109q-271 23 -436.5 217t-165.5 487z" />
<glyph unicode="&#xc8;" horiz-adv-x="1271" d="M170 0v1364h993v-209h-753v-332h655v-209h-655v-405h774v-209h-1014zM418 1722l200 33q48 -102 177 -258l-86 -59q-90 49 -174 129.5t-117 154.5z" />
<glyph unicode="&#xc9;" horiz-adv-x="1271" d="M170 0v1364h993v-209h-753v-332h655v-209h-655v-405h774v-209h-1014zM588 1497q126 153 176 258l201 -33q-33 -74 -117 -154.5t-174 -129.5z" />
<glyph unicode="&#xca;" horiz-adv-x="1271" d="M170 0v1364h993v-209h-753v-332h655v-209h-655v-405h774v-209h-1014zM338 1542q146 96 262 203h168q120 -108 262 -203l-57 -96q-79 23 -156.5 64t-132.5 87q-53 -46 -130.5 -87t-158.5 -64z" />
<glyph unicode="&#xcb;" horiz-adv-x="1271" d="M170 0v1364h993v-209h-753v-332h655v-209h-655v-405h774v-209h-1014zM367 1477v186h182v-186h-182zM809 1477v186h180v-186h-180z" />
<glyph unicode="&#xcc;" horiz-adv-x="577" d="M31 1720l200 33q48 -102 177 -258l-86 -59q-90 49 -174 129.5t-117 154.5zM170 0v1364h238v-1364h-238z" />
<glyph unicode="&#xcd;" horiz-adv-x="577" d="M170 0v1364h238v-1364h-238zM172 1495q126 153 176 258l201 -33q-33 -74 -117 -154.5t-174 -129.5z" />
<glyph unicode="&#xce;" horiz-adv-x="577" d="M-57 1540q146 96 262 203h168q120 -108 262 -203l-57 -96q-79 23 -156.5 64t-132.5 87q-53 -46 -130.5 -87t-158.5 -64zM170 0v1364h238v-1364h-238z" />
<glyph unicode="&#xcf;" horiz-adv-x="577" d="M-23 1475v186h183v-186h-183zM170 0v1364h238v-1364h-238zM420 1475v186h180v-186h-180z" />
<glyph unicode="&#xd0;" horiz-adv-x="1501" d="M-20 598v193h215v573h550q159 0 286.5 -51t210 -142t126 -215.5t43.5 -273.5q0 -148 -43.5 -272.5t-126 -216t-210 -142.5t-286.5 -51h-550v598h-215zM436 209h307q198 0 308 125t110 348t-110 348t-308 125h-307v-364h352v-193h-352v-389z" />
<glyph unicode="&#xd1;" horiz-adv-x="1497" d="M170 0v1364h303l625 -1032v1032h229v-1364h-287l-641 1057v-1057h-229zM412 1528q32 80 90.5 130t128.5 50q51 0 140 -39t128 -39q74 0 139 80l86 -57q-34 -81 -92 -132t-127 -51q-53 0 -141 40t-125 40q-78 0 -141 -80z" />
<glyph unicode="&#xd2;" horiz-adv-x="1527" d="M86 682q0 149 47.5 278.5t134 224.5t214.5 149.5t282 54.5t282 -54.5t214.5 -149.5t134 -224.5t47.5 -278.5t-47.5 -278.5t-134 -224.5t-214.5 -149.5t-282 -54.5t-282 54.5t-214.5 149.5t-134 224.5t-47.5 278.5zM336 682q0 -215 114.5 -350t313.5 -135q197 0 312.5 135 t115.5 350t-115.5 350t-312.5 135q-199 0 -313.5 -135t-114.5 -350zM510 1720l201 33q50 -105 176 -258l-86 -59q-90 49 -174 129.5t-117 154.5z" />
<glyph unicode="&#xd3;" horiz-adv-x="1527" d="M86 682q0 149 47.5 278.5t134 224.5t214.5 149.5t282 54.5t282 -54.5t214.5 -149.5t134 -224.5t47.5 -278.5t-47.5 -278.5t-134 -224.5t-214.5 -149.5t-282 -54.5t-282 54.5t-214.5 149.5t-134 224.5t-47.5 278.5zM336 682q0 -215 114.5 -350t313.5 -135q197 0 312.5 135 t115.5 350t-115.5 350t-312.5 135q-199 0 -313.5 -135t-114.5 -350zM664 1495q126 153 176 258l200 -33q-33 -74 -116.5 -154.5t-173.5 -129.5z" />
<glyph unicode="&#xd4;" horiz-adv-x="1527" d="M86 682q0 149 47.5 278.5t134 224.5t214.5 149.5t282 54.5t282 -54.5t214.5 -149.5t134 -224.5t47.5 -278.5t-47.5 -278.5t-134 -224.5t-214.5 -149.5t-282 -54.5t-282 54.5t-214.5 149.5t-134 224.5t-47.5 278.5zM336 682q0 -215 114.5 -350t313.5 -135q197 0 312.5 135 t115.5 350t-115.5 350t-312.5 135q-199 0 -313.5 -135t-114.5 -350zM418 1540q146 96 262 203h168q120 -108 262 -203l-57 -96q-79 23 -156.5 64t-132.5 87q-53 -46 -130.5 -87t-158.5 -64z" />
<glyph unicode="&#xd5;" horiz-adv-x="1527" d="M86 682q0 149 47.5 278.5t134 224.5t214.5 149.5t282 54.5t282 -54.5t214.5 -149.5t134 -224.5t47.5 -278.5t-47.5 -278.5t-134 -224.5t-214.5 -149.5t-282 -54.5t-282 54.5t-214.5 149.5t-134 224.5t-47.5 278.5zM336 682q0 -215 114.5 -350t313.5 -135q197 0 312.5 135 t115.5 350t-115.5 350t-312.5 135q-199 0 -313.5 -135t-114.5 -350zM410 1528q32 80 90.5 130t128.5 50q51 0 140 -39t128 -39q74 0 139 80l86 -57q-34 -81 -92 -132t-127 -51q-53 0 -141 40t-125 40q-78 0 -141 -80z" />
<glyph unicode="&#xd6;" horiz-adv-x="1527" d="M86 682q0 149 47.5 278.5t134 224.5t214.5 149.5t282 54.5t282 -54.5t214.5 -149.5t134 -224.5t47.5 -278.5t-47.5 -278.5t-134 -224.5t-214.5 -149.5t-282 -54.5t-282 54.5t-214.5 149.5t-134 224.5t-47.5 278.5zM336 682q0 -215 114.5 -350t313.5 -135q197 0 312.5 135 t115.5 350t-115.5 350t-312.5 135q-199 0 -313.5 -135t-114.5 -350zM451 1475v186h182v-186h-182zM893 1475v186h180v-186h-180z" />
<glyph unicode="&#xd7;" d="M106 266l359 357l-359 356l138 137l358 -356l356 356l136 -137l-357 -356l357 -357l-136 -137l-356 356l-358 -356z" />
<glyph unicode="&#xd8;" horiz-adv-x="1527" d="M86 682q0 149 47.5 278.5t134 224.5t214.5 149.5t282 54.5q194 0 350 -91l66 93l108 -76l-67 -94q106 -95 163.5 -235t57.5 -304q0 -149 -47.5 -278.5t-134 -224.5t-214.5 -149.5t-282 -54.5q-201 0 -352 91l-64 -93l-108 76l65 92q-106 95 -162.5 235t-56.5 306z M336 682q0 -212 108 -342l537 770q-94 57 -217 57q-199 0 -313.5 -135t-114.5 -350zM545 254q91 -57 219 -57q197 0 312.5 135t115.5 350q0 207 -111 340z" />
<glyph unicode="&#xd9;" horiz-adv-x="1456" d="M156 518v846h239v-846q0 -150 87.5 -235.5t244.5 -85.5q155 0 245.5 86t90.5 235v846h237v-846q0 -251 -158.5 -397t-414.5 -146q-257 0 -414 145.5t-157 397.5zM479 1720l201 33q50 -105 176 -258l-86 -59q-90 49 -174 129.5t-117 154.5z" />
<glyph unicode="&#xda;" horiz-adv-x="1456" d="M156 518v846h239v-846q0 -150 87.5 -235.5t244.5 -85.5q155 0 245.5 86t90.5 235v846h237v-846q0 -251 -158.5 -397t-414.5 -146q-257 0 -414 145.5t-157 397.5zM625 1495q126 153 176 258l200 -33q-33 -74 -116.5 -154.5t-173.5 -129.5z" />
<glyph unicode="&#xdb;" horiz-adv-x="1456" d="M156 518v846h239v-846q0 -150 87.5 -235.5t244.5 -85.5q155 0 245.5 86t90.5 235v846h237v-846q0 -251 -158.5 -397t-414.5 -146q-257 0 -414 145.5t-157 397.5zM383 1540q146 96 262 203h168q120 -108 262 -203l-57 -96q-79 23 -156.5 64t-132.5 87q-53 -46 -130.5 -87 t-158.5 -64z" />
<glyph unicode="&#xdc;" horiz-adv-x="1456" d="M156 518v846h239v-846q0 -150 87.5 -235.5t244.5 -85.5q155 0 245.5 86t90.5 235v846h237v-846q0 -251 -158.5 -397t-414.5 -146q-257 0 -414 145.5t-157 397.5zM418 1475v186h182v-186h-182zM860 1475v186h180v-186h-180z" />
<glyph unicode="&#xdd;" horiz-adv-x="1294" d="M4 1364h281l364 -602l367 602h276l-526 -819v-545h-240v545zM510 1495q126 153 176 258l201 -33q-33 -74 -117 -154.5t-174 -129.5z" />
<glyph unicode="&#xde;" horiz-adv-x="1312" d="M170 0v1364h240v-193h354q232 0 364 -119t132 -319t-132 -318t-364 -118h-354v-297h-240zM410 506h352q122 0 187 59.5t65 167.5q0 110 -65 170t-187 60h-352v-457z" />
<glyph unicode="&#xdf;" horiz-adv-x="1300" d="M150 0v1073q0 191 133 302.5t358 111.5q211 0 347 -100.5t136 -276.5q0 -207 -196 -311q144 -44 218.5 -142.5t74.5 -240.5q0 -204 -132.5 -322.5t-353.5 -118.5q-143 0 -243 41l47 199q65 -39 170 -39q127 0 200.5 69t73.5 189q0 127 -80.5 186.5t-222.5 59.5h-121v192 h88q108 0 177 54t69 155q0 107 -73 159t-187 52t-187 -58.5t-73 -162.5v-1071h-223z" />
<glyph unicode="&#xe0;" horiz-adv-x="1177" d="M72 307q0 55 14 100.5t36.5 77t57.5 56.5t68.5 40t80 26.5t81.5 17t82 10.5q41 4 65 7t56.5 8.5t51.5 11.5t40.5 16t32.5 22.5t18.5 30t7.5 39.5q0 72 -65 104.5t-154 32.5q-86 0 -174.5 -27.5t-161.5 -80.5l-90 170q203 131 442 131q201 0 316.5 -88t115.5 -273v-489 q0 -52 18 -75t58 -23q39 0 59 14l25 -156q-53 -26 -139 -26q-81 0 -140 39.5t-75 119.5q-61 -89 -156.5 -128.5t-202.5 -39.5q-168 0 -268 88t-100 244zM299 311q0 -81 54 -120t143 -39q115 0 192.5 64.5t77.5 191.5v163q-15 -19 -34.5 -33t-35.5 -22.5t-44.5 -15.5 t-45 -9.5t-54 -7.5t-54.5 -8q-98 -15 -148.5 -50.5t-50.5 -113.5zM307 1462l201 33q50 -105 176 -258l-86 -59q-90 49 -174 129.5t-117 154.5z" />
<glyph unicode="&#xe1;" horiz-adv-x="1177" d="M72 307q0 55 14 100.5t36.5 77t57.5 56.5t68.5 40t80 26.5t81.5 17t82 10.5q41 4 65 7t56.5 8.5t51.5 11.5t40.5 16t32.5 22.5t18.5 30t7.5 39.5q0 72 -65 104.5t-154 32.5q-86 0 -174.5 -27.5t-161.5 -80.5l-90 170q203 131 442 131q201 0 316.5 -88t115.5 -273v-489 q0 -52 18 -75t58 -23q39 0 59 14l25 -156q-53 -26 -139 -26q-81 0 -140 39.5t-75 119.5q-61 -89 -156.5 -128.5t-202.5 -39.5q-168 0 -268 88t-100 244zM299 311q0 -81 54 -120t143 -39q115 0 192.5 64.5t77.5 191.5v163q-15 -19 -34.5 -33t-35.5 -22.5t-44.5 -15.5 t-45 -9.5t-54 -7.5t-54.5 -8q-98 -15 -148.5 -50.5t-50.5 -113.5zM412 1237q126 153 176 258l200 -33q-33 -74 -116.5 -154.5t-173.5 -129.5z" />
<glyph unicode="&#xe2;" horiz-adv-x="1177" d="M72 307q0 55 14 100.5t36.5 77t57.5 56.5t68.5 40t80 26.5t81.5 17t82 10.5q41 4 65 7t56.5 8.5t51.5 11.5t40.5 16t32.5 22.5t18.5 30t7.5 39.5q0 72 -65 104.5t-154 32.5q-86 0 -174.5 -27.5t-161.5 -80.5l-90 170q203 131 442 131q201 0 316.5 -88t115.5 -273v-489 q0 -52 18 -75t58 -23q39 0 59 14l25 -156q-53 -26 -139 -26q-81 0 -140 39.5t-75 119.5q-61 -89 -156.5 -128.5t-202.5 -39.5q-168 0 -268 88t-100 244zM201 1282q146 96 262 203h168q120 -108 262 -203l-57 -96q-79 23 -156.5 64t-132.5 87q-53 -46 -130.5 -87t-158.5 -64z M299 311q0 -81 54 -120t143 -39q115 0 192.5 64.5t77.5 191.5v163q-15 -19 -34.5 -33t-35.5 -22.5t-44.5 -15.5t-45 -9.5t-54 -7.5t-54.5 -8q-98 -15 -148.5 -50.5t-50.5 -113.5z" />
<glyph unicode="&#xe3;" horiz-adv-x="1177" d="M72 307q0 55 14 100.5t36.5 77t57.5 56.5t68.5 40t80 26.5t81.5 17t82 10.5q41 4 65 7t56.5 8.5t51.5 11.5t40.5 16t32.5 22.5t18.5 30t7.5 39.5q0 72 -65 104.5t-154 32.5q-86 0 -174.5 -27.5t-161.5 -80.5l-90 170q203 131 442 131q201 0 316.5 -88t115.5 -273v-489 q0 -52 18 -75t58 -23q39 0 59 14l25 -156q-53 -26 -139 -26q-81 0 -140 39.5t-75 119.5q-61 -89 -156.5 -128.5t-202.5 -39.5q-168 0 -268 88t-100 244zM201 1270q32 80 90.5 130t128.5 50q51 0 140 -39t128 -39q74 0 139 80l86 -57q-34 -81 -92 -132t-127 -51 q-52 0 -140 40t-126 40q-78 0 -141 -80zM299 311q0 -81 54 -120t143 -39q115 0 192.5 64.5t77.5 191.5v163q-15 -19 -34.5 -33t-35.5 -22.5t-44.5 -15.5t-45 -9.5t-54 -7.5t-54.5 -8q-98 -15 -148.5 -50.5t-50.5 -113.5z" />
<glyph unicode="&#xe4;" horiz-adv-x="1177" d="M72 307q0 55 14 100.5t36.5 77t57.5 56.5t68.5 40t80 26.5t81.5 17t82 10.5q41 4 65 7t56.5 8.5t51.5 11.5t40.5 16t32.5 22.5t18.5 30t7.5 39.5q0 72 -65 104.5t-154 32.5q-86 0 -174.5 -27.5t-161.5 -80.5l-90 170q203 131 442 131q201 0 316.5 -88t115.5 -273v-489 q0 -52 18 -75t58 -23q39 0 59 14l25 -156q-53 -26 -139 -26q-81 0 -140 39.5t-75 119.5q-61 -89 -156.5 -128.5t-202.5 -39.5q-168 0 -268 88t-100 244zM244 1217v186h182v-186h-182zM299 311q0 -81 54 -120t143 -39q115 0 192.5 64.5t77.5 191.5v163q-15 -19 -34.5 -33 t-35.5 -22.5t-44.5 -15.5t-45 -9.5t-54 -7.5t-54.5 -8q-98 -15 -148.5 -50.5t-50.5 -113.5zM686 1217v186h180v-186h-180z" />
<glyph unicode="&#xe5;" horiz-adv-x="1177" d="M72 307q0 55 14 100.5t36.5 77t57.5 56.5t68.5 40t80 26.5t81.5 17t82 10.5q41 4 65 7t56.5 8.5t51.5 11.5t40.5 16t32.5 22.5t18.5 30t7.5 39.5q0 72 -65 104.5t-154 32.5q-86 0 -174.5 -27.5t-161.5 -80.5l-90 170q203 131 442 131q201 0 316.5 -88t115.5 -273v-489 q0 -52 18 -75t58 -23q39 0 59 14l25 -156q-53 -26 -139 -26q-81 0 -140 39.5t-75 119.5q-61 -89 -156.5 -128.5t-202.5 -39.5q-168 0 -268 88t-100 244zM299 311q0 -81 54 -120t143 -39q115 0 192.5 64.5t77.5 191.5v163q-15 -19 -34.5 -33t-35.5 -22.5t-44.5 -15.5 t-45 -9.5t-54 -7.5t-54.5 -8q-98 -15 -148.5 -50.5t-50.5 -113.5zM324 1386q0 89 66.5 152.5t164.5 63.5q97 0 163 -63.5t66 -152.5q0 -88 -65.5 -149t-163.5 -61q-99 0 -165 61t-66 149zM442 1386q0 -45 33.5 -77.5t79.5 -32.5q45 0 78 32.5t33 77.5q0 46 -33.5 79.5 t-77.5 33.5q-46 0 -79.5 -33.5t-33.5 -79.5z" />
<glyph unicode="&#xe6;" horiz-adv-x="1884" d="M70 307q0 55 14 100.5t36 77t57.5 56.5t69 40t79.5 26.5t81 17t82 10.5q48 5 75.5 8.5t64 10.5t56.5 16t40 22.5t28.5 33t8.5 44.5q0 38 -19.5 66t-52.5 42.5t-69 21.5t-76 7q-188 0 -338 -108l-90 170q198 131 432 131q266 0 366 -168q138 168 373 168 q157 0 276.5 -71.5t181.5 -193.5t62 -276q0 -42 -4 -78h-819q7 -145 96 -225t234 -80q187 0 309 135l150 -141q-188 -195 -467 -195q-140 0 -251 51.5t-179 151.5q-59 -98 -162.5 -150.5t-243.5 -52.5q-184 0 -292.5 87t-108.5 245zM297 311q0 -81 54 -120t143 -39 q115 0 192.5 64.5t77.5 191.5v163q-15 -19 -34.5 -33t-35.5 -22.5t-44.5 -15.5t-45 -9.5t-54 -7.5t-54.5 -8q-98 -15 -148.5 -50.5t-50.5 -113.5zM989 645h592q-12 131 -94 202t-203 71q-125 0 -205.5 -76t-89.5 -197z" />
<glyph unicode="&#xe7;" horiz-adv-x="1124" d="M82 537q0 161 64.5 288.5t186.5 201t281 73.5q147 0 259.5 -64.5t185.5 -175.5l-170 -121q-43 76 -110 119t-154 43q-138 0 -220.5 -102t-82.5 -260q0 -161 83 -263t222 -102q166 0 268 156l170 -117q-63 -95 -159.5 -157t-221.5 -76q78 -68 78 -152q0 -81 -64.5 -130.5 t-162.5 -49.5q-113 0 -170 53v145q61 -61 143 -61q44 0 73 23t29 63q0 56 -59 109q-215 21 -342 175.5t-127 381.5z" />
<glyph unicode="&#xe8;" horiz-adv-x="1222" d="M82 532q0 160 64 288.5t188 204t289 75.5q159 0 279.5 -71t182.5 -193t62 -277q0 -42 -4 -78h-819q7 -146 95.5 -225.5t233.5 -79.5q186 0 312 135l147 -141q-185 -195 -467 -195q-264 0 -413.5 156t-149.5 401zM328 645h592q-12 131 -93.5 202t-201.5 71 q-126 0 -207 -76t-90 -197zM367 1462l200 33q50 -105 176 -258l-86 -59q-90 49 -173.5 129.5t-116.5 154.5z" />
<glyph unicode="&#xe9;" horiz-adv-x="1222" d="M82 532q0 160 64 288.5t188 204t289 75.5q159 0 279.5 -71t182.5 -193t62 -277q0 -42 -4 -78h-819q7 -146 95.5 -225.5t233.5 -79.5q186 0 312 135l147 -141q-185 -195 -467 -195q-264 0 -413.5 156t-149.5 401zM328 645h592q-12 131 -93.5 202t-201.5 71 q-126 0 -207 -76t-90 -197zM504 1237q126 153 176 258l201 -33q-33 -74 -117 -154.5t-174 -129.5z" />
<glyph unicode="&#xea;" horiz-adv-x="1222" d="M82 532q0 160 64 288.5t188 204t289 75.5q159 0 279.5 -71t182.5 -193t62 -277q0 -42 -4 -78h-819q7 -146 95.5 -225.5t233.5 -79.5q186 0 312 135l147 -141q-185 -195 -467 -195q-264 0 -413.5 156t-149.5 401zM270 1282q146 96 262 203h168q117 -105 263 -203l-58 -96 q-79 23 -156.5 64t-132.5 87q-53 -47 -130.5 -87.5t-157.5 -63.5zM328 645h592q-12 131 -93.5 202t-201.5 71q-126 0 -207 -76t-90 -197z" />
<glyph unicode="&#xeb;" horiz-adv-x="1222" d="M82 532q0 160 64 288.5t188 204t289 75.5q159 0 279.5 -71t182.5 -193t62 -277q0 -42 -4 -78h-819q7 -146 95.5 -225.5t233.5 -79.5q186 0 312 135l147 -141q-185 -195 -467 -195q-264 0 -413.5 156t-149.5 401zM309 1217v186h183v-186h-183zM328 645h592 q-12 131 -93.5 202t-201.5 71q-126 0 -207 -76t-90 -197zM752 1217v186h180v-186h-180z" />
<glyph unicode="&#xec;" horiz-adv-x="524" d="M2 1462l201 33q50 -105 176 -258l-86 -59q-90 49 -174 129.5t-117 154.5zM150 0v1075h225v-1075h-225z" />
<glyph unicode="&#xed;" horiz-adv-x="524" d="M147 1237q129 156 177 258l200 -33q-33 -74 -117 -154.5t-174 -129.5zM150 0v1075h225v-1075h-225z" />
<glyph unicode="&#xee;" horiz-adv-x="524" d="M-84 1282q146 96 262 203h168q120 -108 262 -203l-57 -96q-79 23 -156.5 64t-132.5 87q-53 -46 -130.5 -87t-158.5 -64zM150 0v1075h225v-1075h-225z" />
<glyph unicode="&#xef;" horiz-adv-x="524" d="M-14 1217v186h180v-186h-180zM150 0v1075h225v-1075h-225zM358 1217v186h183v-186h-183z" />
<glyph unicode="&#xf0;" horiz-adv-x="1273" d="M84 498q0 225 135.5 372.5t351.5 147.5q184 0 301 -111q-67 137 -213 273l-253 -115l-41 96l194 90q-87 62 -170 101l170 135q131 -74 219 -148l248 111l41 -96l-199 -90q303 -303 303 -693q0 -288 -153 -444q-152 -152 -393 -152t-391 146.5t-150 376.5zM324 496 q0 -141 79.5 -232.5t225.5 -91.5q149 0 232 92t83 232q0 142 -84.5 234.5t-232.5 92.5q-145 0 -224 -93t-79 -234z" />
<glyph unicode="&#xf1;" horiz-adv-x="1234" d="M150 0v1075h225v-157q137 182 352 182q175 0 273 -108t98 -292v-700h-226v649q0 244 -213 244q-122 0 -203 -80t-81 -211v-602h-225zM299 1270q32 80 90.5 130t128.5 50q51 0 140 -39t128 -39q75 0 140 80l86 -57q-34 -81 -92 -132t-127 -51q-53 0 -141 40t-126 40 q-78 0 -141 -80z" />
<glyph unicode="&#xf2;" horiz-adv-x="1253" d="M82 537q0 250 148.5 406.5t396.5 156.5t396 -156.5t148 -406.5q0 -249 -148 -405.5t-396 -156.5t-396.5 156.5t-148.5 405.5zM322 537q0 -160 81.5 -262.5t223.5 -102.5t222.5 102.5t80.5 262.5q0 162 -80.5 264t-222.5 102q-143 0 -224 -102.5t-81 -263.5zM389 1462 l201 33q50 -105 176 -258l-86 -59q-90 49 -174 129.5t-117 154.5z" />
<glyph unicode="&#xf3;" horiz-adv-x="1253" d="M82 537q0 250 148.5 406.5t396.5 156.5t396 -156.5t148 -406.5q0 -249 -148 -405.5t-396 -156.5t-396.5 156.5t-148.5 405.5zM322 537q0 -160 81.5 -262.5t223.5 -102.5t222.5 102.5t80.5 262.5q0 162 -80.5 264t-222.5 102q-143 0 -224 -102.5t-81 -263.5zM489 1237 q129 156 177 258l200 -33q-33 -74 -117 -154.5t-174 -129.5z" />
<glyph unicode="&#xf4;" horiz-adv-x="1253" d="M82 537q0 250 148.5 406.5t396.5 156.5t396 -156.5t148 -406.5q0 -249 -148 -405.5t-396 -156.5t-396.5 156.5t-148.5 405.5zM281 1282q146 96 262 203h168q120 -108 262 -203l-58 -96q-78 23 -155.5 64t-132.5 87q-53 -46 -130.5 -87t-158.5 -64zM322 537 q0 -160 81.5 -262.5t223.5 -102.5t222.5 102.5t80.5 262.5q0 162 -80.5 264t-222.5 102q-143 0 -224 -102.5t-81 -263.5z" />
<glyph unicode="&#xf5;" horiz-adv-x="1253" d="M82 537q0 250 148.5 406.5t396.5 156.5t396 -156.5t148 -406.5q0 -249 -148 -405.5t-396 -156.5t-396.5 156.5t-148.5 405.5zM270 1270q32 80 90.5 130t128.5 50q51 0 140.5 -39t128.5 -39q74 0 139 80l86 -57q-34 -81 -92 -132t-127 -51q-52 0 -140 40t-126 40 q-79 0 -142 -80zM322 537q0 -160 81.5 -262.5t223.5 -102.5t222.5 102.5t80.5 262.5q0 162 -80.5 264t-222.5 102q-143 0 -224 -102.5t-81 -263.5z" />
<glyph unicode="&#xf6;" horiz-adv-x="1253" d="M82 537q0 250 148.5 406.5t396.5 156.5t396 -156.5t148 -406.5q0 -249 -148 -405.5t-396 -156.5t-396.5 156.5t-148.5 405.5zM315 1217v186h183v-186h-183zM322 537q0 -160 81.5 -262.5t223.5 -102.5t222.5 102.5t80.5 262.5q0 162 -80.5 264t-222.5 102 q-143 0 -224 -102.5t-81 -263.5zM758 1217v186h180v-186h-180z" />
<glyph unicode="&#xf7;" d="M98 526v193h1006v-193h-1006zM457 229q0 59 42 102.5t103 43.5q58 0 100.5 -43.5t42.5 -102.5t-42.5 -102t-100.5 -43q-61 0 -103 43t-42 102zM457 1016q0 59 42 102t103 43q58 0 100.5 -43t42.5 -102q0 -60 -42 -103t-101 -43q-61 0 -103 43t-42 103z" />
<glyph unicode="&#xf8;" horiz-adv-x="1253" d="M82 537q0 250 148.5 406.5t396.5 156.5q146 0 272 -66l47 66l101 -70l-48 -65q172 -155 172 -428q0 -249 -148 -405.5t-396 -156.5q-155 0 -275 66l-45 -66l-100 70l45 64q-82 75 -126 185t-44 243zM322 537q0 -147 63 -236l395 563q-68 43 -153 43q-144 0 -224.5 -103.5 t-80.5 -266.5zM471 211q64 -43 156 -43q142 0 223.5 103.5t81.5 265.5q0 143 -66 237z" />
<glyph unicode="&#xf9;" horiz-adv-x="1234" d="M137 375v700h225v-649q0 -244 213 -244q123 0 204 80t81 211v602h225v-1075h-225v156q-139 -181 -352 -181q-175 0 -273 108t-98 292zM342 1462l201 33q50 -105 176 -258l-86 -59q-90 49 -174 129.5t-117 154.5z" />
<glyph unicode="&#xfa;" horiz-adv-x="1234" d="M137 375v700h225v-649q0 -244 213 -244q123 0 204 80t81 211v602h225v-1075h-225v156q-139 -181 -352 -181q-175 0 -273 108t-98 292zM524 1237q126 153 176 258l201 -33q-33 -74 -117 -154.5t-174 -129.5z" />
<glyph unicode="&#xfb;" horiz-adv-x="1234" d="M137 375v700h225v-649q0 -244 213 -244q123 0 204 80t81 211v602h225v-1075h-225v156q-139 -181 -352 -181q-175 0 -273 108t-98 292zM266 1282q146 96 262 203h168q120 -108 262 -203l-57 -96q-79 23 -156.5 64t-132.5 87q-53 -47 -130.5 -87.5t-157.5 -63.5z" />
<glyph unicode="&#xfc;" horiz-adv-x="1234" d="M137 375v700h225v-649q0 -244 213 -244q123 0 204 80t81 211v602h225v-1075h-225v156q-139 -181 -352 -181q-175 0 -273 108t-98 292zM299 1217v186h182v-186h-182zM741 1217v186h181v-186h-181z" />
<glyph unicode="&#xfd;" horiz-adv-x="1122" d="M16 1075h260l308 -776l274 776h244l-426 -1118q-33 -87 -67 -146t-79 -103t-103 -64.5t-134 -20.5q-138 0 -244 74l92 160q59 -43 127 -43q61 0 98.5 36t71.5 105l29 59zM473 1237q126 153 176 258l201 -33q-33 -74 -117 -154.5t-174 -129.5z" />
<glyph unicode="&#xfe;" horiz-adv-x="1312" d="M150 -356v1818h225v-544q138 182 362 182q150 0 263.5 -75t172 -201.5t58.5 -284.5q0 -245 -134.5 -404.5t-359.5 -159.5q-222 0 -362 181v-512h-225zM375 537q0 -156 83.5 -257.5t231.5 -101.5q146 0 223.5 101.5t77.5 257.5q0 158 -77.5 259t-223.5 101 q-151 0 -233 -101.5t-82 -258.5z" />
<glyph unicode="&#xff;" horiz-adv-x="1122" d="M16 1075h260l308 -776l274 776h244l-426 -1118q-33 -87 -67 -146t-79 -103t-103 -64.5t-134 -20.5q-138 0 -244 74l92 160q59 -43 127 -43q61 0 98.5 36t71.5 105l29 59zM260 1217v186h182v-186h-182zM702 1217v186h181v-186h-181z" />
<glyph unicode="&#x100;" horiz-adv-x="1384" d="M16 0l535 1364h283l534 -1364h-268l-129 348h-565l-130 -348h-260zM373 1497v137h637v-137h-637zM469 549h436l-215 604z" />
<glyph unicode="&#x101;" horiz-adv-x="1177" d="M72 307q0 55 14 100.5t36.5 77t57.5 56.5t68.5 40t80 26.5t81.5 17t82 10.5q41 4 65 7t56.5 8.5t51.5 11.5t40.5 16t32.5 22.5t18.5 30t7.5 39.5q0 72 -65 104.5t-154 32.5q-86 0 -174.5 -27.5t-161.5 -80.5l-90 170q203 131 442 131q201 0 316.5 -88t115.5 -273v-489 q0 -52 18 -75t58 -23q39 0 59 14l25 -156q-53 -26 -139 -26q-81 0 -140 39.5t-75 119.5q-61 -89 -156.5 -128.5t-202.5 -39.5q-168 0 -268 88t-100 244zM242 1237v137h637v-137h-637zM299 311q0 -81 54 -120t143 -39q115 0 192.5 64.5t77.5 191.5v163q-15 -19 -34.5 -33 t-35.5 -22.5t-44.5 -15.5t-45 -9.5t-54 -7.5t-54.5 -8q-98 -15 -148.5 -50.5t-50.5 -113.5z" />
<glyph unicode="&#x102;" horiz-adv-x="1384" d="M16 0l535 1364h283l534 -1364h-268l-129 348h-565l-130 -348h-260zM354 1704l119 37q21 -61 76.5 -97t140.5 -36q86 0 141.5 36t75.5 97l119 -37q-18 -107 -107 -175.5t-229 -68.5t-228 68.5t-108 175.5zM469 549h436l-215 604z" />
<glyph unicode="&#x103;" horiz-adv-x="1177" d="M72 307q0 55 14 100.5t36.5 77t57.5 56.5t68.5 40t80 26.5t81.5 17t82 10.5q41 4 65 7t56.5 8.5t51.5 11.5t40.5 16t32.5 22.5t18.5 30t7.5 39.5q0 72 -65 104.5t-154 32.5q-86 0 -174.5 -27.5t-161.5 -80.5l-90 170q203 131 442 131q201 0 316.5 -88t115.5 -273v-489 q0 -52 18 -75t58 -23q39 0 59 14l25 -156q-53 -26 -139 -26q-81 0 -140 39.5t-75 119.5q-61 -89 -156.5 -128.5t-202.5 -39.5q-168 0 -268 88t-100 244zM221 1446l119 37q21 -61 76.5 -97t140.5 -36q86 0 141.5 36t75.5 97l119 -37q-18 -107 -107 -175.5t-229 -68.5 t-228 68.5t-108 175.5zM299 311q0 -81 54 -120t143 -39q115 0 192.5 64.5t77.5 191.5v163q-15 -19 -34.5 -33t-35.5 -22.5t-44.5 -15.5t-45 -9.5t-54 -7.5t-54.5 -8q-98 -15 -148.5 -50.5t-50.5 -113.5z" />
<glyph unicode="&#x104;" horiz-adv-x="1384" d="M16 0l535 1364h283l534 -1364q-252 -20 -252 -133q0 -38 29.5 -62t79.5 -24q83 0 143 67v-155q-26 -24 -72 -41t-102 -17q-99 0 -164 49.5t-65 129.5q0 115 131 194l-125 340h-565l-130 -348h-260zM469 549h436l-215 604z" />
<glyph unicode="&#x105;" horiz-adv-x="1177" d="M72 307q0 55 14 100.5t36.5 77t57.5 56.5t68.5 40t80 26.5t81.5 17t82 10.5q41 4 65 7t56.5 8.5t51.5 11.5t40.5 16t32.5 22.5t18.5 30t7.5 39.5q0 72 -65 104.5t-154 32.5q-86 0 -174.5 -27.5t-161.5 -80.5l-90 170q203 131 442 131q201 0 316.5 -88t115.5 -273v-489 q0 -52 18 -75t58 -23q39 0 59 14l25 -156q-53 -26 -139 -26q-35 0 -62 6q-53 -56 -53 -117q0 -44 30 -68t79 -24q83 0 143 67v-155q-26 -24 -72 -41t-102 -17q-99 0 -164 49.5t-65 133.5q0 118 124 207q-59 40 -73 118q-61 -89 -156.5 -128.5t-202.5 -39.5q-168 0 -268 88 t-100 244zM299 311q0 -81 54 -120t143 -39q115 0 192.5 64.5t77.5 191.5v163q-15 -19 -34.5 -33t-35.5 -22.5t-44.5 -15.5t-45 -9.5t-54 -7.5t-54.5 -8q-98 -15 -148.5 -50.5t-50.5 -113.5z" />
<glyph unicode="&#x106;" horiz-adv-x="1386" d="M88 684q0 204 83.5 364.5t236.5 250.5t350 90q366 0 559 -297l-189 -121q-128 205 -364 205q-193 0 -309.5 -135.5t-116.5 -354.5q0 -223 116 -360.5t308 -137.5q233 0 364 215l199 -114q-93 -151 -235.5 -232.5t-329.5 -81.5q-198 0 -351 90t-237 251.5t-84 367.5z M621 1495q126 153 176 258l200 -33q-33 -74 -116.5 -154.5t-173.5 -129.5z" />
<glyph unicode="&#x107;" horiz-adv-x="1120" d="M80 537q0 161 64.5 288.5t186.5 201t281 73.5q147 0 259.5 -64.5t185.5 -175.5l-170 -121q-43 76 -110 119t-154 43q-139 0 -221.5 -102t-82.5 -260q0 -161 83.5 -263t222.5 -102q166 0 268 156l170 -117q-72 -109 -185.5 -173.5t-263.5 -64.5q-160 0 -282.5 74t-187 201 t-64.5 287zM498 1235q102 128 155 260l201 -33q-32 -74 -107 -151.5t-161 -132.5z" />
<glyph unicode="&#x108;" horiz-adv-x="1386" d="M88 684q0 204 83.5 364.5t236.5 250.5t350 90q366 0 559 -297l-189 -121q-128 205 -364 205q-193 0 -309.5 -135.5t-116.5 -354.5q0 -223 116 -360.5t308 -137.5q233 0 364 215l199 -114q-93 -151 -235.5 -232.5t-329.5 -81.5q-198 0 -351 90t-237 251.5t-84 367.5z M408 1540q146 96 262 203h168q120 -108 262 -203l-58 -96q-78 23 -155.5 64t-132.5 87q-53 -46 -130.5 -87t-158.5 -64z" />
<glyph unicode="&#x109;" horiz-adv-x="1120" d="M80 537q0 161 64.5 288.5t186.5 201t281 73.5q147 0 259.5 -64.5t185.5 -175.5l-170 -121q-43 76 -110 119t-154 43q-139 0 -221.5 -102t-82.5 -260q0 -161 83.5 -263t222.5 -102q166 0 268 156l170 -117q-72 -109 -185.5 -173.5t-263.5 -64.5q-160 0 -282.5 74t-187 201 t-64.5 287zM260 1282q146 96 262 203h168q120 -108 262 -203l-57 -96q-79 23 -156.5 64t-132.5 87q-53 -46 -130.5 -87t-158.5 -64z" />
<glyph unicode="&#x10a;" horiz-adv-x="1386" d="M88 684q0 204 83.5 364.5t236.5 250.5t350 90q366 0 559 -297l-189 -121q-128 205 -364 205q-193 0 -309.5 -135.5t-116.5 -354.5q0 -223 116 -360.5t308 -137.5q233 0 364 215l199 -114q-93 -151 -235.5 -232.5t-329.5 -81.5q-198 0 -351 90t-237 251.5t-84 367.5z M655 1479v182h191v-182h-191z" />
<glyph unicode="&#x10b;" horiz-adv-x="1120" d="M80 537q0 161 64.5 288.5t186.5 201t281 73.5q147 0 259.5 -64.5t185.5 -175.5l-170 -121q-43 76 -110 119t-154 43q-139 0 -221.5 -102t-82.5 -260q0 -161 83.5 -263t222.5 -102q166 0 268 156l170 -117q-72 -109 -185.5 -173.5t-263.5 -64.5q-160 0 -282.5 74t-187 201 t-64.5 287zM506 1221v182h190v-182h-190z" />
<glyph unicode="&#x10c;" horiz-adv-x="1386" d="M88 684q0 204 83.5 364.5t236.5 250.5t350 90q366 0 559 -297l-189 -121q-128 205 -364 205q-193 0 -309.5 -135.5t-116.5 -354.5q0 -223 116 -360.5t308 -137.5q233 0 364 215l199 -114q-93 -151 -235.5 -232.5t-329.5 -81.5q-198 0 -351 90t-237 251.5t-84 367.5z M406 1655l57 96q80 -23 157.5 -64t131.5 -88q55 47 132.5 88t155.5 64l58 -96q-142 -95 -262 -203h-168q-116 107 -262 203z" />
<glyph unicode="&#x10d;" horiz-adv-x="1120" d="M80 537q0 161 64.5 288.5t186.5 201t281 73.5q147 0 259.5 -64.5t185.5 -175.5l-170 -121q-43 76 -110 119t-154 43q-139 0 -221.5 -102t-82.5 -260q0 -161 83.5 -263t222.5 -102q166 0 268 156l170 -117q-72 -109 -185.5 -173.5t-263.5 -64.5q-160 0 -282.5 74t-187 201 t-64.5 287zM262 1397l57 96q80 -23 157.5 -64t131.5 -88q122 103 289 152l57 -96q-142 -95 -262 -203h-168q-116 107 -262 203z" />
<glyph unicode="&#x10e;" horiz-adv-x="1476" d="M170 0v1364h541q160 0 289 -52t213 -143.5t128.5 -216t44.5 -270.5t-45 -270t-128.5 -216t-212.5 -144t-289 -52h-541zM383 1655l57 96q80 -23 157.5 -64t131.5 -88q122 103 289 152l57 -96q-142 -95 -262 -203h-168q-116 107 -262 203zM412 217h299q206 0 316 124.5 t110 340.5t-110 340.5t-316 124.5h-299v-930z" />
<glyph unicode="&#x10f;" horiz-adv-x="1445" d="M82 537q0 160 59 287t172 201.5t262 74.5q228 0 363 -182v544h227v-1462h-227v158q-136 -183 -363 -183q-149 0 -262 74.5t-172 201.5t-59 286zM322 537q0 -158 78 -258.5t225 -100.5q149 0 231 101.5t82 257.5q0 157 -82 258.5t-231 101.5q-147 0 -225 -101t-78 -259z M1300 1018q101 94 101 203q-1 38 -27 96t-26 106v39h217v-159q0 -113 -45.5 -200.5t-143.5 -170.5z" />
<glyph unicode="&#x110;" horiz-adv-x="1529" d="M8 598v193h215v573h551q159 0 286.5 -51t210 -142t126 -215.5t43.5 -273.5q0 -148 -43.5 -272.5t-126 -216t-210 -142.5t-286.5 -51h-551v598h-215zM465 209h307q198 0 308 125t110 348t-110 348t-308 125h-307v-364h352v-193h-352v-389z" />
<glyph unicode="&#x111;" horiz-adv-x="1314" d="M82 537q0 160 59 287t172 201.5t262 74.5q228 0 363 -182v317h-270v131h270v96h227v-96h142v-131h-142v-1235h-227v158q-136 -183 -363 -183q-149 0 -262 74.5t-172 201.5t-59 286zM322 537q0 -157 77.5 -258t223.5 -101q151 0 233 101t82 258t-82.5 258.5t-232.5 101.5 q-146 0 -223.5 -101t-77.5 -259z" />
<glyph unicode="&#x112;" horiz-adv-x="1271" d="M170 0v1364h993v-209h-753v-332h655v-209h-655v-405h774v-209h-1014zM354 1497v137h637v-137h-637z" />
<glyph unicode="&#x113;" horiz-adv-x="1222" d="M82 532q0 160 64 288.5t188 204t289 75.5q159 0 279.5 -71t182.5 -193t62 -277q0 -42 -4 -78h-819q7 -146 95.5 -225.5t233.5 -79.5q186 0 312 135l147 -141q-185 -195 -467 -195q-264 0 -413.5 156t-149.5 401zM303 1237v137h637v-137h-637zM328 645h592 q-12 131 -93.5 202t-201.5 71q-126 0 -207 -76t-90 -197z" />
<glyph unicode="&#x114;" horiz-adv-x="1271" d="M170 0v1364h993v-209h-753v-332h655v-209h-655v-405h774v-209h-1014zM338 1704l119 37q21 -61 76.5 -97t140.5 -36q86 0 141.5 36t75.5 97l119 -37q-18 -107 -107 -175.5t-229 -68.5t-228 68.5t-108 175.5z" />
<glyph unicode="&#x115;" horiz-adv-x="1222" d="M82 532q0 160 64 288.5t188 204t289 75.5q159 0 279.5 -71t182.5 -193t62 -277q0 -42 -4 -78h-819q7 -146 95.5 -225.5t233.5 -79.5q186 0 312 135l147 -141q-185 -195 -467 -195q-264 0 -413.5 156t-149.5 401zM281 1446l118 37q21 -61 76.5 -97t140.5 -36 q86 0 142.5 36t75.5 97l118 -37q-18 -107 -107 -175.5t-229 -68.5t-227.5 68.5t-107.5 175.5zM328 645h592q-12 131 -93.5 202t-201.5 71q-126 0 -207 -76t-90 -197z" />
<glyph unicode="&#x116;" horiz-adv-x="1271" d="M170 0v1364h993v-209h-753v-332h655v-209h-655v-405h774v-209h-1014zM578 1479v182h190v-182h-190z" />
<glyph unicode="&#x117;" horiz-adv-x="1222" d="M82 532q0 160 64 288.5t188 204t289 75.5q159 0 279.5 -71t182.5 -193t62 -277q0 -42 -4 -78h-819q7 -146 95.5 -225.5t233.5 -79.5q186 0 312 135l147 -141q-185 -195 -467 -195q-264 0 -413.5 156t-149.5 401zM328 645h592q-12 131 -93.5 202t-201.5 71 q-126 0 -207 -76t-90 -197zM520 1221v182h191v-182h-191z" />
<glyph unicode="&#x118;" horiz-adv-x="1273" d="M170 0v1364h993v-217h-753v-330h655v-201h-655v-399h774v-217h-189q-63 -63 -63 -127q0 -44 29.5 -68t78.5 -24q84 0 144 67v-155q-26 -24 -72 -41t-102 -17q-100 0 -165 49.5t-65 133.5q0 101 94 182h-704z" />
<glyph unicode="&#x119;" horiz-adv-x="1222" d="M82 532q0 160 64 288.5t188 204t289 75.5q159 0 279.5 -71t182.5 -193t62 -277q0 -42 -4 -78h-819q7 -146 95.5 -225.5t233.5 -79.5q186 0 312 135l147 -141q-33 -36 -61.5 -58t-79.5 -55q-135 -86 -135 -178q0 -48 30.5 -73t79.5 -25q81 0 141 67v-155 q-26 -24 -72.5 -41t-103.5 -17q-98 0 -162.5 49.5t-64.5 133.5q0 92 76 168q-68 -11 -119 -11q-174 0 -302 73.5t-192.5 198.5t-64.5 285zM328 645h592q-12 131 -93.5 202t-201.5 71q-126 0 -207 -76t-90 -197z" />
<glyph unicode="&#x11a;" horiz-adv-x="1271" d="M170 0v1364h993v-209h-753v-332h655v-209h-655v-405h774v-209h-1014zM334 1655l57 96q80 -23 157.5 -64t131.5 -88q122 103 289 152l57 -96q-142 -95 -262 -203h-168q-116 107 -262 203z" />
<glyph unicode="&#x11b;" horiz-adv-x="1222" d="M82 532q0 160 64 288.5t188 204t289 75.5q159 0 279.5 -71t182.5 -193t62 -277q0 -42 -4 -78h-819q7 -146 95.5 -225.5t233.5 -79.5q186 0 312 135l147 -141q-185 -195 -467 -195q-264 0 -413.5 156t-149.5 401zM272 1397l58 96q80 -23 157 -64t131 -88q122 103 289 152 l58 -96q-146 -98 -263 -203h-167q-113 104 -263 203zM328 645h592q-12 131 -93.5 202t-201.5 71q-126 0 -207 -76t-90 -197z" />
<glyph unicode="&#x11c;" horiz-adv-x="1478" d="M88 684q0 207 83.5 367t237.5 249t355 89q181 0 322.5 -76.5t232.5 -216.5l-197 -119q-58 98 -150 148.5t-210 50.5q-198 0 -311 -135.5t-113 -356.5q0 -230 115 -363t315 -133q162 0 271 87t122 239h-377v209h613q10 -48 10 -111q0 -131 -43 -246.5t-122.5 -202.5 t-203 -137.5t-274.5 -50.5q-202 0 -356 90.5t-237 251.5t-83 367zM410 1542q146 96 262 203h168q120 -108 262 -203l-58 -96q-78 23 -155.5 64t-132.5 87q-53 -46 -130.5 -87t-158.5 -64z" />
<glyph unicode="&#x11d;" horiz-adv-x="1316" d="M84 575q0 226 138 375.5t353 149.5q240 0 367 -182v157h227v-887q0 -132 -26.5 -227.5t-91.5 -167.5q-151 -170 -471 -170q-266 0 -455 125l98 180q148 -106 357 -106q79 0 143.5 17.5t114 54.5t77 98.5t27.5 144.5v101q-63 -89 -161.5 -135t-211.5 -46q-142 0 -253 68 t-171.5 185.5t-60.5 264.5zM281 1282q146 96 262 203h168q120 -108 262 -203l-58 -96q-78 23 -155.5 64t-132.5 87q-53 -46 -130.5 -87t-158.5 -64zM324 580q0 -142 79.5 -235t225.5 -93t230.5 93t84.5 235q0 141 -83 232t-232 91q-147 0 -226 -91t-79 -232z" />
<glyph unicode="&#x11e;" horiz-adv-x="1478" d="M88 684q0 207 83.5 367t237.5 249t355 89q181 0 322.5 -76.5t232.5 -216.5l-197 -119q-58 98 -150 148.5t-210 50.5q-198 0 -311 -135.5t-113 -356.5q0 -230 115 -363t315 -133q162 0 271 87t122 239h-377v209h613q10 -48 10 -111q0 -131 -43 -246.5t-122.5 -202.5 t-203 -137.5t-274.5 -50.5q-202 0 -356 90.5t-237 251.5t-83 367zM420 1706l119 37q21 -61 76.5 -97t140.5 -36q86 0 141.5 36t75.5 97l119 -37q-18 -107 -107 -175.5t-229 -68.5t-228 68.5t-108 175.5z" />
<glyph unicode="&#x11f;" horiz-adv-x="1316" d="M84 575q0 226 138 375.5t353 149.5q240 0 367 -182v157h227v-887q0 -132 -26.5 -227.5t-91.5 -167.5q-151 -170 -471 -170q-266 0 -455 125l98 180q148 -106 357 -106q79 0 143.5 17.5t114 54.5t77 98.5t27.5 144.5v101q-63 -89 -161.5 -135t-211.5 -46q-142 0 -253 68 t-171.5 185.5t-60.5 264.5zM285 1446l118 37q21 -61 77 -97t141 -36q86 0 141.5 36t75.5 97l118 -37q-18 -107 -106.5 -175.5t-228.5 -68.5t-228 68.5t-108 175.5zM324 580q0 -142 79.5 -235t225.5 -93t230.5 93t84.5 235q0 141 -83 232t-232 91q-147 0 -226 -91t-79 -232z " />
<glyph unicode="&#x120;" horiz-adv-x="1478" d="M88 684q0 207 83.5 367t237.5 249t355 89q181 0 322.5 -76.5t232.5 -216.5l-197 -119q-58 98 -150 148.5t-210 50.5q-198 0 -311 -135.5t-113 -356.5q0 -230 115 -363t315 -133q162 0 271 87t122 239h-377v209h613q10 -48 10 -111q0 -131 -43 -246.5t-122.5 -202.5 t-203 -137.5t-274.5 -50.5q-202 0 -356 90.5t-237 251.5t-83 367zM664 1481v182h190v-182h-190z" />
<glyph unicode="&#x121;" horiz-adv-x="1316" d="M84 575q0 226 138 375.5t353 149.5q240 0 367 -182v157h227v-887q0 -132 -26.5 -227.5t-91.5 -167.5q-151 -170 -471 -170q-266 0 -455 125l98 180q148 -106 357 -106q79 0 143.5 17.5t114 54.5t77 98.5t27.5 144.5v101q-63 -89 -161.5 -135t-211.5 -46q-142 0 -253 68 t-171.5 185.5t-60.5 264.5zM324 580q0 -142 79.5 -235t225.5 -93t230.5 93t84.5 235q0 141 -83 232t-232 91q-147 0 -226 -91t-79 -232zM522 1221v182h191v-182h-191z" />
<glyph unicode="&#x122;" horiz-adv-x="1478" d="M88 684q0 207 83.5 367t237.5 249t355 89q181 0 322.5 -76.5t232.5 -216.5l-197 -119q-58 98 -150 148.5t-210 50.5q-198 0 -311 -135.5t-113 -356.5q0 -230 115 -363t315 -133q162 0 271 87t122 239h-377v209h613q10 -48 10 -111q0 -131 -43 -246.5t-122.5 -202.5 t-203 -137.5t-274.5 -50.5q-202 0 -356 90.5t-237 251.5t-83 367zM551 -354q104 138 149 258l203 -25q-31 -75 -106 -155t-158 -134z" />
<glyph unicode="&#x123;" horiz-adv-x="1316" d="M84 575q0 226 138 375.5t353 149.5q240 0 367 -182v157h227v-887q0 -132 -26.5 -227.5t-91.5 -167.5q-151 -170 -471 -170q-266 0 -455 125l98 180q148 -106 357 -106q79 0 143.5 17.5t114 54.5t77 98.5t27.5 144.5v101q-63 -89 -161.5 -135t-211.5 -46q-142 0 -253 68 t-171.5 185.5t-60.5 264.5zM324 580q0 -142 79.5 -235t225.5 -93t230.5 93t84.5 235q0 141 -83 232t-232 91q-147 0 -226 -91t-79 -232zM471 1206q31 75 106 155t158 134l88 -55q-104 -138 -149 -258z" />
<glyph unicode="&#x124;" horiz-adv-x="1497" d="M170 0v1364h240v-537h675v537h242v-1364h-242v612h-675v-612h-240zM399 1542q150 99 263 203h167q117 -105 263 -203l-58 -96q-79 23 -156.5 64t-132.5 87q-53 -47 -130.5 -87.5t-157.5 -63.5z" />
<glyph unicode="&#x125;" horiz-adv-x="1234" d="M-80 1626q146 96 262 203h168q120 -108 262 -203l-57 -96q-79 23 -156.5 64t-132.5 87q-53 -46 -130.5 -87t-158.5 -64zM150 0v1462h225v-544q137 182 352 182q175 0 273 -108t98 -292v-700h-226v649q0 244 -213 244q-122 0 -203 -80t-81 -211v-602h-225z" />
<glyph unicode="&#x126;" horiz-adv-x="1497" d="M61 1081v131h109v152h240v-152h675v152h242v-152h109v-131h-109v-1081h-242v614h-675v-614h-240v1081h-109zM410 823h675v258h-675v-258z" />
<glyph unicode="&#x127;" horiz-adv-x="1234" d="M6 1233v131h144v98h225v-98h270v-131h-270v-315q137 182 352 182q175 0 273 -108t98 -292v-700h-226v649q0 244 -213 244q-122 0 -203 -80t-81 -211v-602h-225v1233h-144z" />
<glyph unicode="&#x128;" horiz-adv-x="577" d="M-68 1528q32 80 91 130t129 50q51 0 140 -39t128 -39q74 0 139 80l86 -57q-34 -81 -92 -132t-127 -51q-52 0 -140 40t-126 40q-79 0 -142 -80zM170 0v1364h238v-1364h-238z" />
<glyph unicode="&#x129;" horiz-adv-x="524" d="M-94 1270q32 80 90.5 130t128.5 50q51 0 140 -39t128 -39q74 0 139 80l86 -57q-34 -81 -92 -132t-127 -51q-53 0 -141 40t-125 40q-78 0 -141 -80zM150 0v1075h225v-1075h-225z" />
<glyph unicode="&#x12a;" horiz-adv-x="577" d="M-31 1499v137h637v-137h-637zM170 0v1364h238v-1364h-238z" />
<glyph unicode="&#x12b;" horiz-adv-x="524" d="M-57 1237v137h637v-137h-637zM150 0v1075h225v-1075h-225z" />
<glyph unicode="&#x12c;" horiz-adv-x="577" d="M-47 1704l119 37q21 -61 76.5 -97t140.5 -36q86 0 141.5 36t75.5 97l119 -37q-18 -107 -107 -175.5t-229 -68.5t-228 68.5t-108 175.5zM170 0v1364h238v-1364h-238z" />
<glyph unicode="&#x12d;" horiz-adv-x="524" d="M-74 1446l119 37q21 -61 76.5 -97t140.5 -36q86 0 141.5 36t75.5 97l119 -37q-18 -107 -107 -175.5t-229 -68.5t-228 68.5t-108 175.5zM150 0v1075h225v-1075h-225z" />
<glyph unicode="&#x12e;" horiz-adv-x="577" d="M63 -180q0 53 29.5 101.5t77.5 78.5v1364h238v-1364q-34 -4 -64.5 -12t-62.5 -22.5t-51 -39t-19 -55.5q0 -39 26.5 -60.5t67.5 -21.5q38 0 76 16t61 39v-155q-53 -49 -153 -49q-97 0 -161.5 51t-64.5 129z" />
<glyph unicode="&#x12f;" horiz-adv-x="524" d="M37 -176q0 104 113 176v1075h225v-1075q-44 -5 -84.5 -17t-75.5 -42t-35 -72q0 -37 25.5 -58.5t66.5 -21.5q39 0 78 16t60 39v-155q-53 -49 -152 -49q-96 0 -158.5 52.5t-62.5 131.5zM150 1249v213h225v-213h-225z" />
<glyph unicode="&#x130;" horiz-adv-x="577" d="M170 0v1364h238v-1364h-238zM195 1479v182h190v-182h-190z" />
<glyph unicode="&#x131;" horiz-adv-x="524" d="M150 0v1075h225v-1075h-225z" />
<glyph unicode="&#x134;" horiz-adv-x="1052" d="M12 211l195 117q80 -138 229 -138q112 0 165.5 65.5t53.5 184.5v924h240v-920q0 -225 -125 -347t-336 -122q-294 0 -422 236zM424 1540q146 96 262 203h168q120 -108 262 -203l-57 -96q-79 23 -156.5 64t-132.5 87q-53 -46 -130.5 -87t-158.5 -64z" />
<glyph unicode="&#x135;" horiz-adv-x="526" d="M-184 -332l61 176q53 -24 107 -24q89 0 127.5 47t38.5 137v1071h227v-1065q0 -189 -100 -286t-273 -97q-108 0 -188 41zM-86 1282q146 96 262 203h168q120 -108 262 -203l-57 -96q-79 23 -156.5 64t-132.5 87q-53 -46 -130.5 -87t-158.5 -64z" />
<glyph unicode="&#x136;" horiz-adv-x="1345" d="M170 0v1364h238v-682l608 682h289l-508 -567l561 -797h-285l-440 623l-225 -252v-371h-238zM506 -354q104 138 149 258l203 -25q-31 -75 -106 -155t-158 -134z" />
<glyph unicode="&#x137;" horiz-adv-x="1196" d="M150 0v1462h225v-905l491 518h277l-420 -432l473 -643h-278l-351 492l-192 -197v-295h-225zM430 -354q106 141 150 258l202 -25q-31 -75 -106 -155t-158 -134z" />
<glyph unicode="&#x138;" horiz-adv-x="1198" d="M150 0v1075h225v-518l491 518h277l-420 -432l473 -643h-278l-351 492l-192 -197v-295h-225z" />
<glyph unicode="&#x139;" horiz-adv-x="1171" d="M145 1499q129 156 177 258l200 -33q-33 -74 -117 -154.5t-174 -129.5zM170 0v1364h238v-1147h733v-217h-971z" />
<glyph unicode="&#x13a;" horiz-adv-x="528" d="M127 1581q126 153 176 258l201 -33q-33 -74 -117 -154.5t-174 -129.5zM152 0v1462h225v-1462h-225z" />
<glyph unicode="&#x13b;" horiz-adv-x="1171" d="M170 0v1364h238v-1147h733v-217h-971zM461 -354q104 138 149 258l203 -25q-31 -75 -106 -155t-158 -134z" />
<glyph unicode="&#x13c;" horiz-adv-x="528" d="M20 -354q106 141 150 258l203 -25q-31 -75 -106 -155t-158 -134zM152 0v1462h225v-1462h-225z" />
<glyph unicode="&#x13d;" horiz-adv-x="1171" d="M170 0v1364h238v-1147h733v-217h-971zM573 920q101 94 101 202q-1 38 -27 96.5t-26 106.5v39h217v-160q0 -112 -45.5 -199.5t-143.5 -170.5z" />
<glyph unicode="&#x13e;" horiz-adv-x="679" d="M152 0v1462h225v-1462h-225zM528 1018q101 94 101 203q-1 38 -27.5 96t-26.5 106v39h218v-159q0 -113 -45.5 -200.5t-143.5 -170.5z" />
<glyph unicode="&#x13f;" horiz-adv-x="1171" d="M170 0v1364h238v-1147h733v-217h-971zM739 750q0 63 45.5 108t108.5 45q61 0 105 -45t44 -108q0 -62 -44 -107t-105 -45q-63 0 -108.5 45t-45.5 107z" />
<glyph unicode="&#x140;" horiz-adv-x="1007" d="M152 0v1462h225v-1462h-225zM612 623q0 63 45.5 108t108.5 45q61 0 105 -45t44 -108q0 -62 -44 -107t-105 -45q-63 0 -108.5 45t-45.5 107z" />
<glyph unicode="&#x141;" horiz-adv-x="1206" d="M-18 428v195l221 96v645h239v-545l432 191v-195l-432 -190v-408h734v-217h-973v526z" />
<glyph unicode="&#x142;" horiz-adv-x="663" d="M4 614v189l219 94v565h228v-477l223 96v-188l-223 -96v-797h-228v711z" />
<glyph unicode="&#x143;" horiz-adv-x="1497" d="M170 0v1364h303l625 -1032v1032h229v-1364h-287l-641 1057v-1057h-229zM639 1495q126 153 176 258l201 -33q-33 -74 -117 -154.5t-174 -129.5z" />
<glyph unicode="&#x144;" horiz-adv-x="1234" d="M150 0v1075h225v-157q137 182 352 182q175 0 273 -108t98 -292v-700h-226v649q0 244 -213 244q-122 0 -203 -80t-81 -211v-602h-225zM528 1235q104 130 156 260l201 -33q-32 -73 -107.5 -151t-161.5 -133z" />
<glyph unicode="&#x145;" horiz-adv-x="1497" d="M170 0v1364h303l625 -1032v1032h229v-1364h-287l-641 1057v-1057h-229zM528 -354q106 141 150 258l203 -25q-31 -74 -106.5 -154.5t-158.5 -134.5z" />
<glyph unicode="&#x146;" horiz-adv-x="1236" d="M150 0v1075h225v-157q137 182 352 182q175 0 273 -108t98 -292v-700h-226v649q0 244 -213 244q-122 0 -203 -80t-81 -211v-602h-225zM406 -354q104 138 149 258l203 -25q-31 -75 -106 -155t-158 -134z" />
<glyph unicode="&#x147;" horiz-adv-x="1497" d="M170 0v1364h303l625 -1032v1032h229v-1364h-287l-641 1057v-1057h-229zM401 1655l58 96q80 -23 157.5 -64t131.5 -88q55 47 132.5 88t155.5 64l58 -96q-146 -98 -263 -203h-167q-113 104 -263 203z" />
<glyph unicode="&#x148;" horiz-adv-x="1234" d="M150 0v1075h225v-157q137 182 352 182q175 0 273 -108t98 -292v-700h-226v649q0 244 -213 244q-122 0 -203 -80t-81 -211v-602h-225zM283 1397l57 96q80 -23 157.5 -64t131.5 -88q122 103 289 152l57 -96q-142 -95 -262 -203h-168q-116 107 -262 203z" />
<glyph unicode="&#x14a;" horiz-adv-x="1497" d="M170 0v1364h297l631 -973v973h229v-1272q0 -225 -123.5 -346t-331.5 -121q-118 0 -206 45l75 193q55 -27 125 -27q182 0 211 170l-678 1051v-1057h-229z" />
<glyph unicode="&#x14b;" horiz-adv-x="1234" d="M150 0v1075h225v-157q137 182 352 182q175 0 273 -108t98 -292v-690q0 -182 -96 -282.5t-269 -100.5q-116 0 -196 41l63 176q50 -24 107 -24q165 0 165 176v653q0 244 -213 244q-122 0 -203 -80t-81 -211v-602h-225z" />
<glyph unicode="&#x14c;" horiz-adv-x="1527" d="M86 682q0 149 47.5 278.5t134 224.5t214.5 149.5t282 54.5t282 -54.5t214.5 -149.5t134 -224.5t47.5 -278.5t-47.5 -278.5t-134 -224.5t-214.5 -149.5t-282 -54.5t-282 54.5t-214.5 149.5t-134 224.5t-47.5 278.5zM336 682q0 -215 114.5 -350t313.5 -135q197 0 312.5 135 t115.5 350t-115.5 350t-312.5 135q-199 0 -313.5 -135t-114.5 -350zM444 1497v137h637v-137h-637z" />
<glyph unicode="&#x14d;" horiz-adv-x="1253" d="M82 537q0 250 148.5 406.5t396.5 156.5t396 -156.5t148 -406.5q0 -249 -148 -405.5t-396 -156.5t-396.5 156.5t-148.5 405.5zM307 1237v137h637v-137h-637zM322 537q0 -160 81.5 -262.5t223.5 -102.5t222.5 102.5t80.5 262.5q0 162 -80.5 264t-222.5 102 q-143 0 -224 -102.5t-81 -263.5z" />
<glyph unicode="&#x14e;" horiz-adv-x="1527" d="M86 682q0 149 47.5 278.5t134 224.5t214.5 149.5t282 54.5t282 -54.5t214.5 -149.5t134 -224.5t47.5 -278.5t-47.5 -278.5t-134 -224.5t-214.5 -149.5t-282 -54.5t-282 54.5t-214.5 149.5t-134 224.5t-47.5 278.5zM336 682q0 -215 114.5 -350t313.5 -135q197 0 312.5 135 t115.5 350t-115.5 350t-312.5 135q-199 0 -313.5 -135t-114.5 -350zM428 1704l119 37q21 -61 76.5 -97t140.5 -36q86 0 141.5 36t75.5 97l119 -37q-18 -107 -107 -175.5t-229 -68.5t-228 68.5t-108 175.5z" />
<glyph unicode="&#x14f;" horiz-adv-x="1253" d="M82 537q0 250 148.5 406.5t396.5 156.5t396 -156.5t148 -406.5q0 -249 -148 -405.5t-396 -156.5t-396.5 156.5t-148.5 405.5zM291 1446l119 37q21 -61 76.5 -97t140.5 -36q86 0 141.5 36t75.5 97l119 -37q-18 -107 -107 -175.5t-229 -68.5t-228 68.5t-108 175.5zM322 537 q0 -160 81.5 -262.5t223.5 -102.5t222.5 102.5t80.5 262.5q0 162 -80.5 264t-222.5 102q-143 0 -224 -102.5t-81 -263.5z" />
<glyph unicode="&#x150;" horiz-adv-x="1527" d="M86 682q0 149 47.5 278.5t134 224.5t214.5 149.5t282 54.5t282 -54.5t214.5 -149.5t134 -224.5t47.5 -278.5t-47.5 -278.5t-134 -224.5t-214.5 -149.5t-282 -54.5t-282 54.5t-214.5 149.5t-134 224.5t-47.5 278.5zM336 682q0 -215 114.5 -350t313.5 -135q197 0 312.5 135 t115.5 350t-115.5 350t-312.5 135q-199 0 -313.5 -135t-114.5 -350zM506 1495q119 139 178 258l190 -33q-32 -73 -116.5 -153.5t-173.5 -130.5zM846 1495q119 139 178 258l190 -33q-32 -73 -116.5 -153.5t-173.5 -130.5z" />
<glyph unicode="&#x151;" horiz-adv-x="1253" d="M82 537q0 250 148.5 406.5t396.5 156.5t396 -156.5t148 -406.5q0 -249 -148 -405.5t-396 -156.5t-396.5 156.5t-148.5 405.5zM322 537q0 -160 81.5 -262.5t223.5 -102.5t222.5 102.5t80.5 262.5q0 162 -80.5 264t-222.5 102q-143 0 -224 -102.5t-81 -263.5zM371 1237 q119 139 178 258l190 -33q-32 -73 -116.5 -153.5t-173.5 -130.5zM711 1237q119 139 178 258l190 -33q-32 -73 -117 -153.5t-174 -130.5z" />
<glyph unicode="&#x152;" horiz-adv-x="2023" d="M90 682q0 197 77 349.5t232 242.5t367 90h1149v-209h-692v-332h596v-209h-596v-405h712v-209h-1169q-160 0 -289 52t-213 144t-129 216t-45 270zM340 682q0 -219 110 -346t316 -127h217v946h-217q-206 0 -316 -127t-110 -346z" />
<glyph unicode="&#x153;" horiz-adv-x="2050" d="M82 537q0 246 144.5 404.5t387.5 158.5q140 0 248 -57.5t174 -161.5q67 103 174 161t246 58q237 0 378.5 -153t141.5 -392q0 -20 -6 -74h-817q7 -145 96 -225t234 -80q187 0 307 133l152 -139q-188 -195 -469 -195q-293 0 -437 218q-68 -102 -176 -160t-246 -58 q-161 0 -283 74t-185.5 201t-63.5 287zM322 537q0 -160 80 -262.5t219 -102.5t219 102.5t80 262.5q0 161 -80 263.5t-219 102.5t-219 -102.5t-80 -263.5zM1155 645h592q-12 131 -93 202t-202 71q-126 0 -206 -75.5t-91 -197.5z" />
<glyph unicode="&#x154;" horiz-adv-x="1363" d="M170 0v1364h612q223 0 350.5 -112.5t127.5 -299.5q0 -139 -76.5 -239t-196.5 -146l309 -567h-268l-274 522h-344v-522h-240zM410 723h370q105 0 169.5 58.5t64.5 156.5q0 101 -66 159t-172 58h-366v-432zM555 1495q126 153 176 258l201 -33q-33 -74 -117 -154.5 t-174 -129.5z" />
<glyph unicode="&#x155;" horiz-adv-x="831" d="M150 0v1075h225v-174q57 89 135 142t168 53q86 0 143 -37l-65 -221q-62 32 -123 32q-108 0 -183 -87.5t-75 -235.5v-547h-225zM305 1237q126 153 176 258l201 -33q-33 -74 -117 -154.5t-174 -129.5z" />
<glyph unicode="&#x156;" horiz-adv-x="1363" d="M170 0v1364h612q223 0 350.5 -112.5t127.5 -299.5q0 -139 -76.5 -239t-196.5 -146l309 -567h-268l-274 522h-344v-522h-240zM410 723h370q105 0 169.5 58.5t64.5 156.5q0 101 -66 159t-172 58h-366v-432zM475 -354q106 141 150 258l202 -25q-31 -75 -106 -155t-158 -134z " />
<glyph unicode="&#x157;" horiz-adv-x="831" d="M16 -354q106 141 150 258l203 -25q-31 -74 -106.5 -154.5t-158.5 -134.5zM150 0v1075h225v-174q57 89 135 142t168 53q86 0 143 -37l-65 -221q-62 32 -123 32q-108 0 -183 -87.5t-75 -235.5v-547h-225z" />
<glyph unicode="&#x158;" horiz-adv-x="1363" d="M170 0v1364h612q223 0 350.5 -112.5t127.5 -299.5q0 -139 -76.5 -239t-196.5 -146l309 -567h-268l-274 522h-344v-522h-240zM330 1655l57 96q80 -23 157.5 -64t131.5 -88q122 103 289 152l57 -96q-142 -95 -262 -203h-168q-116 107 -262 203zM410 723h370 q105 0 169.5 58.5t64.5 156.5q0 101 -66 159t-172 58h-366v-432z" />
<glyph unicode="&#x159;" horiz-adv-x="831" d="M127 1397l57 96q80 -23 157.5 -64t131.5 -88q122 103 289 152l57 -96q-142 -95 -262 -203h-168q-116 107 -262 203zM150 0v1075h225v-174q57 89 135 142t168 53q86 0 143 -37l-65 -221q-62 32 -123 32q-108 0 -183 -87.5t-75 -235.5v-547h-225z" />
<glyph unicode="&#x15a;" horiz-adv-x="1261" d="M57 279l193 112q66 -109 171.5 -161t231.5 -52q129 0 207 53.5t78 147.5q0 99 -101 147q-59 28 -228 61l-1 1h-1h-2h-1l-1 1h-1h-1h-1h-1l-1 1h-1h-1q-83 17 -145 35.5t-127.5 50.5t-106.5 72.5t-67.5 102.5t-26.5 140q0 184 137 291t358 107q164 0 304 -63.5t231 -190.5 l-180 -121q-63 85 -157.5 128.5t-205.5 43.5q-110 0 -179 -42.5t-69 -131.5q0 -24 5.5 -44t19.5 -36t26.5 -28.5t39.5 -24t43 -18.5t53 -16.5t55 -13.5t62 -14q77 -16 132.5 -31t119.5 -38.5t106.5 -53t80 -70t55.5 -95.5t18 -123q0 -192 -146 -311.5t-393 -119.5 q-199 0 -351 81t-231 223zM502 1495q126 153 176 258l201 -33q-33 -74 -117 -154.5t-174 -129.5z" />
<glyph unicode="&#x15b;" horiz-adv-x="1093" d="M55 217l160 113q60 -84 152.5 -127t199.5 -43q102 0 163 37t61 106q0 29 -13 50.5t-32 35.5t-58 26t-73.5 19t-96.5 17q-75 13 -129.5 27.5t-109.5 39.5t-89 58t-55.5 83.5t-21.5 114.5q0 107 60 182.5t153 109.5t209 34q150 0 268.5 -54t193.5 -135l-143 -131 q-55 63 -139 99t-183 36q-84 0 -142 -30.5t-58 -89.5q0 -23 8 -41t28 -31.5t38 -23t54 -18.5t59.5 -13.5t68.5 -12.5q78 -14 133 -28t114.5 -39.5t95.5 -58t59.5 -84t23.5 -117.5q0 -160 -123 -256.5t-336 -96.5q-165 0 -294.5 62t-205.5 180zM436 1235q104 130 156 260 l201 -33q-32 -73 -107.5 -151t-161.5 -133z" />
<glyph unicode="&#x15c;" horiz-adv-x="1261" d="M57 279l193 112q66 -109 171.5 -161t231.5 -52q129 0 207 53.5t78 147.5q0 99 -101 147q-59 28 -228 61l-1 1h-1h-2h-1l-1 1h-1h-1h-1h-1l-1 1h-1h-1q-83 17 -145 35.5t-127.5 50.5t-106.5 72.5t-67.5 102.5t-26.5 140q0 184 137 291t358 107q164 0 304 -63.5t231 -190.5 l-180 -121q-63 85 -157.5 128.5t-205.5 43.5q-110 0 -179 -42.5t-69 -131.5q0 -24 5.5 -44t19.5 -36t26.5 -28.5t39.5 -24t43 -18.5t53 -16.5t55 -13.5t62 -14q77 -16 132.5 -31t119.5 -38.5t106.5 -53t80 -70t55.5 -95.5t18 -123q0 -192 -146 -311.5t-393 -119.5 q-199 0 -351 81t-231 223zM274 1540q150 99 263 203h168q120 -108 262 -203l-58 -96q-78 23 -155.5 64t-132.5 87q-53 -46 -130.5 -87t-158.5 -64z" />
<glyph unicode="&#x15d;" horiz-adv-x="1093" d="M55 217l160 113q60 -84 152.5 -127t199.5 -43q102 0 163 37t61 106q0 29 -13 50.5t-32 35.5t-58 26t-73.5 19t-96.5 17q-75 13 -129.5 27.5t-109.5 39.5t-89 58t-55.5 83.5t-21.5 114.5q0 107 60 182.5t153 109.5t209 34q150 0 268.5 -54t193.5 -135l-143 -131 q-55 63 -139 99t-183 36q-84 0 -142 -30.5t-58 -89.5q0 -23 8 -41t28 -31.5t38 -23t54 -18.5t59.5 -13.5t68.5 -12.5q78 -14 133 -28t114.5 -39.5t95.5 -58t59.5 -84t23.5 -117.5q0 -160 -123 -256.5t-336 -96.5q-165 0 -294.5 62t-205.5 180zM197 1282q146 96 262 203h168 q120 -108 262 -203l-58 -96q-78 23 -155.5 64t-132.5 87q-53 -46 -130.5 -87t-158.5 -64z" />
<glyph unicode="&#x15e;" horiz-adv-x="1265" d="M61 279l193 112q66 -109 171.5 -161t231.5 -52q129 0 207 53.5t78 147.5q0 99 -101 147q-59 28 -228 61l-1 1h-1h-2h-1l-1 1h-1h-1h-1h-1l-1 1h-1h-1q-83 17 -145 35.5t-127.5 50.5t-106.5 72.5t-67.5 102.5t-26.5 140q0 184 137.5 291t358.5 107q164 0 303.5 -63.5 t230.5 -190.5l-180 -121q-63 85 -157.5 128.5t-205.5 43.5q-110 0 -178.5 -42.5t-68.5 -131.5q0 -21 5.5 -39.5t13 -32.5t24 -27.5t28.5 -22.5t38 -19t41 -15.5t48.5 -14t49.5 -12t55 -12.5q77 -16 132.5 -31t119.5 -38.5t106.5 -53t80 -70t55.5 -95.5t18 -123 q0 -176 -125.5 -292.5t-341.5 -133.5q78 -65 78 -152q0 -81 -65 -130.5t-163 -49.5q-113 0 -170 53v145q61 -61 144 -61q44 0 73 23t29 63q0 56 -57 106q-179 12 -314.5 91.5t-208.5 210.5z" />
<glyph unicode="&#x15f;" horiz-adv-x="1095" d="M57 217l160 113q60 -84 152.5 -127t199.5 -43q102 0 163 37t61 106q0 29 -13 50.5t-32 35.5t-58 26t-73.5 19t-96.5 17q-75 13 -129.5 27.5t-109.5 39.5t-89 58t-55.5 83.5t-21.5 114.5q0 107 60 182.5t153 109.5t209 34q150 0 268.5 -54t193.5 -135l-143 -131 q-55 63 -138.5 99t-182.5 36q-84 0 -142.5 -30.5t-58.5 -89.5q0 -23 8 -41t28 -31.5t38 -23t54 -18.5t59.5 -13.5t68.5 -12.5q78 -14 133 -28t114.5 -39.5t95.5 -58t59.5 -84t23.5 -117.5q0 -146 -102.5 -239.5t-284.5 -108.5q78 -65 78 -152q0 -81 -65 -130.5t-163 -49.5 q-113 0 -170 53v145q61 -61 144 -61q44 0 73 23t29 63q0 56 -57 106q-145 11 -258.5 72t-182.5 168z" />
<glyph unicode="&#x160;" horiz-adv-x="1261" d="M57 279l193 112q66 -109 171.5 -161t231.5 -52q129 0 207 53.5t78 147.5q0 99 -101 147q-59 28 -228 61l-1 1h-1h-2h-1l-1 1h-1h-1h-1h-1l-1 1h-1h-1q-83 17 -145 35.5t-127.5 50.5t-106.5 72.5t-67.5 102.5t-26.5 140q0 184 137 291t358 107q164 0 304 -63.5t231 -190.5 l-180 -121q-63 85 -157.5 128.5t-205.5 43.5q-110 0 -179 -42.5t-69 -131.5q0 -24 5.5 -44t19.5 -36t26.5 -28.5t39.5 -24t43 -18.5t53 -16.5t55 -13.5t62 -14q77 -16 132.5 -31t119.5 -38.5t106.5 -53t80 -70t55.5 -95.5t18 -123q0 -192 -146 -311.5t-393 -119.5 q-199 0 -351 81t-231 223zM281 1657l57 96q81 -23 158.5 -64t130.5 -87q55 46 132.5 87t155.5 64l58 -96q-142 -95 -262 -203h-168q-116 107 -262 203z" />
<glyph unicode="&#x161;" horiz-adv-x="1093" d="M55 217l160 113q60 -84 152.5 -127t199.5 -43q102 0 163 37t61 106q0 29 -13 50.5t-32 35.5t-58 26t-73.5 19t-96.5 17q-75 13 -129.5 27.5t-109.5 39.5t-89 58t-55.5 83.5t-21.5 114.5q0 107 60 182.5t153 109.5t209 34q150 0 268.5 -54t193.5 -135l-143 -131 q-55 63 -139 99t-183 36q-84 0 -142 -30.5t-58 -89.5q0 -23 8 -41t28 -31.5t38 -23t54 -18.5t59.5 -13.5t68.5 -12.5q78 -14 133 -28t114.5 -39.5t95.5 -58t59.5 -84t23.5 -117.5q0 -160 -123 -256.5t-336 -96.5q-165 0 -294.5 62t-205.5 180zM195 1397l57 96 q80 -23 157.5 -64t131.5 -88q55 47 132.5 88t155.5 64l58 -96q-142 -95 -262 -203h-168q-116 107 -262 203z" />
<glyph unicode="&#x21a;" horiz-adv-x="1249" d="M55 1155v209h1139v-209h-451v-1155h-239v1155h-449zM379 -354q104 138 149 258l203 -25q-31 -75 -106 -155t-158 -134z" />
<glyph unicode="&#x162;" horiz-adv-x="1249" d="M55 1155v209h1139v-209h-451v-1155h-239v1155h-449zM379 -354q104 138 149 258l203 -25q-31 -75 -106 -155t-158 -134z" />
<glyph unicode="&#x21b;" horiz-adv-x="845" d="M39 901v174h180v289h227v-289h332v-174h-332v-565q0 -160 146 -160q77 0 135 47l90 -168q-107 -80 -256 -80q-204 0 -291 138q-51 76 -51 225v563h-180zM272 -354q106 141 150 258l203 -25q-31 -74 -106.5 -154.5t-158.5 -134.5z" />
<glyph unicode="&#x163;" horiz-adv-x="845" d="M39 901v174h180v289h227v-289h332v-174h-332v-565q0 -160 146 -160q77 0 135 47l90 -168q-107 -80 -256 -80q-204 0 -291 138q-51 76 -51 225v563h-180zM272 -354q106 141 150 258l203 -25q-31 -74 -106.5 -154.5t-158.5 -134.5z" />
<glyph unicode="&#x164;" horiz-adv-x="1249" d="M55 1155v209h1139v-209h-451v-1155h-239v1155h-449zM276 1655l58 96q80 -23 157.5 -64t131.5 -88q55 47 132.5 88t155.5 64l58 -96q-142 -95 -262 -203h-168q-113 104 -263 203z" />
<glyph unicode="&#x165;" horiz-adv-x="843" d="M37 901v174h180v289h227v-289h332v-174h-332v-565q0 -160 146 -160q77 0 135 47l90 -168q-107 -80 -256 -80q-204 0 -291 138q-51 76 -51 225v563h-180zM598 1204q84 74 84 158q-1 30 -23 76t-22 84v30h182v-125q0 -89 -37.5 -157t-119.5 -133z" />
<glyph unicode="&#x166;" horiz-adv-x="1249" d="M55 1155v209h1139v-209h-451v-414h213v-131h-213v-610h-239v610h-213v131h213v414h-449z" />
<glyph unicode="&#x167;" horiz-adv-x="843" d="M37 532v132h180v237h-180v174h180v289h227v-289h332v-174h-332v-237h236v-132h-236v-196q0 -160 144 -160q79 0 137 47l90 -168q-107 -80 -258 -80q-204 0 -291 138q-49 77 -49 225v194h-180z" />
<glyph unicode="&#x168;" horiz-adv-x="1456" d="M156 518v846h239v-846q0 -150 87.5 -235.5t244.5 -85.5q155 0 245.5 86t90.5 235v846h237v-846q0 -251 -158.5 -397t-414.5 -146q-257 0 -414 145.5t-157 397.5zM371 1528q32 80 90.5 130t128.5 50q51 0 140 -39t128 -39q74 0 139 80l86 -57q-34 -81 -92 -132t-127 -51 q-52 0 -140 40t-126 40q-78 0 -141 -80z" />
<glyph unicode="&#x169;" horiz-adv-x="1234" d="M137 375v700h225v-649q0 -244 213 -244q123 0 204 80t81 211v602h225v-1075h-225v156q-139 -181 -352 -181q-175 0 -273 108t-98 292zM260 1270q32 80 90.5 130t128.5 50q51 0 140.5 -39t128.5 -39q74 0 139 80l86 -57q-34 -81 -92 -132t-127 -51q-52 0 -141 40t-126 40 q-78 0 -141 -80z" />
<glyph unicode="&#x16a;" horiz-adv-x="1456" d="M156 518v846h239v-846q0 -150 87.5 -235.5t244.5 -85.5q155 0 245.5 86t90.5 235v846h237v-846q0 -251 -158.5 -397t-414.5 -146q-257 0 -414 145.5t-157 397.5zM410 1497v137h637v-137h-637z" />
<glyph unicode="&#x16b;" horiz-adv-x="1234" d="M137 375v700h225v-649q0 -244 213 -244q123 0 204 80t81 211v602h225v-1075h-225v156q-139 -181 -352 -181q-175 0 -273 108t-98 292zM297 1237v137h637v-137h-637z" />
<glyph unicode="&#x16c;" horiz-adv-x="1456" d="M156 518v846h239v-846q0 -150 87.5 -235.5t244.5 -85.5q155 0 245.5 86t90.5 235v846h237v-846q0 -251 -158.5 -397t-414.5 -146q-257 0 -414 145.5t-157 397.5zM393 1704l119 37q21 -61 76.5 -97t140.5 -36q86 0 141.5 36t75.5 97l119 -37q-18 -107 -107 -175.5 t-229 -68.5t-228 68.5t-108 175.5z" />
<glyph unicode="&#x16d;" horiz-adv-x="1234" d="M137 375v700h225v-649q0 -244 213 -244q123 0 204 80t81 211v602h225v-1075h-225v156q-139 -181 -352 -181q-175 0 -273 108t-98 292zM276 1446l119 37q21 -61 76.5 -97t140.5 -36q86 0 141.5 36t75.5 97l119 -37q-18 -107 -107 -175.5t-229 -68.5t-228 68.5t-108 175.5z " />
<glyph unicode="&#x16e;" horiz-adv-x="1456" d="M156 518v846h239v-846q0 -150 87.5 -235.5t244.5 -85.5q155 0 245.5 86t90.5 235v846h237v-846q0 -251 -158.5 -397t-414.5 -146q-257 0 -414 145.5t-157 397.5zM498 1591q0 89 66.5 152t164.5 63q97 0 163 -63t66 -152q0 -88 -65.5 -149.5t-163.5 -61.5q-99 0 -165 61 t-66 150zM616 1591q0 -45 33.5 -77.5t79.5 -32.5q45 0 78 32.5t33 77.5q0 46 -33.5 79.5t-77.5 33.5q-46 0 -79.5 -33.5t-33.5 -79.5z" />
<glyph unicode="&#x16f;" horiz-adv-x="1234" d="M137 375v700h225v-649q0 -244 213 -244q123 0 204 80t81 211v602h225v-1075h-225v156q-139 -181 -352 -181q-175 0 -273 108t-98 292zM381 1386q0 89 66.5 152.5t164.5 63.5q97 0 163.5 -63.5t66.5 -152.5q0 -88 -66 -149t-164 -61q-99 0 -165 61t-66 149zM500 1386 q0 -46 33 -78t79 -32q45 0 78 32.5t33 77.5q0 46 -33.5 79.5t-77.5 33.5q-46 0 -79 -33.5t-33 -79.5z" />
<glyph unicode="&#x170;" horiz-adv-x="1456" d="M156 518v846h239v-846q0 -150 87.5 -235.5t244.5 -85.5q155 0 245.5 86t90.5 235v846h237v-846q0 -251 -158.5 -397t-414.5 -146q-257 0 -414 145.5t-157 397.5zM451 1495q119 139 178 258l190 -33q-32 -73 -117 -153.5t-174 -130.5zM791 1495q119 139 178 258l190 -33 q-32 -73 -117 -153.5t-174 -130.5z" />
<glyph unicode="&#x171;" horiz-adv-x="1234" d="M137 375v700h225v-649q0 -244 213 -244q123 0 204 80t81 211v602h225v-1075h-225v156q-139 -181 -352 -181q-175 0 -273 108t-98 292zM354 1237q119 139 178 258l191 -33q-32 -73 -117 -153.5t-174 -130.5zM694 1237q119 139 178 258l191 -33q-32 -73 -117 -153.5 t-174 -130.5z" />
<glyph unicode="&#x172;" horiz-adv-x="1456" d="M156 518v846h239v-846q0 -150 87.5 -235.5t244.5 -85.5q156 0 245 85.5t89 235.5v846h239v-846q0 -115 -34 -206t-89.5 -151.5t-138.5 -111.5q-129 -78 -129 -172q0 -44 29 -68t76 -24q77 0 147 74v-160q-63 -59 -178 -59q-97 0 -161 48t-64 132q0 96 84 166 q-72 -11 -117 -11q-256 0 -412.5 145.5t-156.5 397.5z" />
<glyph unicode="&#x173;" horiz-adv-x="1234" d="M137 375v700h225v-649q0 -244 213 -244q123 0 204 80t81 211v602h225v-1075q-84 -7 -146 -42.5t-62 -90.5q0 -36 28.5 -59t75.5 -23q74 0 125 59v-155q-53 -49 -150 -49q-99 0 -163 51t-64 129q0 57 34 106.5t97 73.5v156q-139 -181 -352 -181q-175 0 -273 108t-98 292z " />
<glyph unicode="&#x174;" horiz-adv-x="1945" d="M47 1364h256l258 -1042l303 1042h221l301 -1047l259 1047h258l-381 -1364h-265l-286 1016l-289 -1016h-266zM627 1540q146 96 262 203h168q120 -108 262 -203l-57 -96q-79 23 -156.5 64t-132.5 87q-53 -46 -130.5 -87t-158.5 -64z" />
<glyph unicode="&#x175;" horiz-adv-x="1644" d="M49 1075h244l194 -786l236 786h207l233 -786l193 786h239l-299 -1075h-241l-232 782l-237 -782h-240zM473 1282q146 96 262 203h168q120 -108 262 -203l-57 -96q-79 23 -156.5 64t-132.5 87q-53 -46 -130.5 -87t-158.5 -64z" />
<glyph unicode="&#x176;" horiz-adv-x="1294" d="M4 1364h281l364 -602l367 602h276l-526 -819v-545h-240v545zM299 1540q146 96 262 203h168q120 -108 262 -203l-57 -96q-79 23 -156.5 64t-132.5 87q-53 -46 -130.5 -87t-158.5 -64z" />
<glyph unicode="&#x177;" horiz-adv-x="1122" d="M16 1075h260l308 -776l274 776h244l-426 -1118q-33 -87 -67 -146t-79 -103t-103 -64.5t-134 -20.5q-138 0 -244 74l92 160q59 -43 127 -43q61 0 98.5 36t71.5 105l29 59zM215 1282q146 96 262 203h168q120 -108 262 -203l-57 -96q-79 23 -156.5 64t-132.5 87 q-53 -46 -130.5 -87t-158.5 -64z" />
<glyph unicode="&#x178;" horiz-adv-x="1294" d="M4 1364h281l364 -602l367 602h276l-526 -819v-545h-240v545zM334 1475v186h182v-186h-182zM776 1475v186h180v-186h-180z" />
<glyph unicode="&#x179;" horiz-adv-x="1255" d="M80 0v188l758 967h-727v209h1042v-180l-762 -975h780v-209h-1091zM492 1495q126 153 176 258l200 -33q-33 -74 -116.5 -154.5t-173.5 -129.5z" />
<glyph unicode="&#x17a;" horiz-adv-x="1067" d="M80 0v174l577 703h-553v198h861v-172l-576 -704h594v-199h-903zM424 1235q104 130 156 260l200 -33q-32 -74 -107 -151.5t-161 -132.5z" />
<glyph unicode="&#x17b;" horiz-adv-x="1255" d="M80 0v188l758 967h-727v209h1042v-180l-762 -975h780v-209h-1091zM526 1479v182h191v-182h-191z" />
<glyph unicode="&#x17c;" horiz-adv-x="1067" d="M80 0v174l577 703h-553v198h861v-172l-576 -704h594v-199h-903zM430 1221v182h191v-182h-191z" />
<glyph unicode="&#x17d;" horiz-adv-x="1255" d="M80 0v188l758 967h-727v209h1042v-180l-762 -975h780v-209h-1091zM262 1655l57 96q80 -23 157.5 -64t131.5 -88q122 103 289 152l57 -96q-142 -95 -262 -203h-168q-116 107 -262 203z" />
<glyph unicode="&#x17e;" horiz-adv-x="1067" d="M80 0v174l577 703h-553v198h861v-172l-576 -704h594v-199h-903zM172 1397l57 96q80 -23 157.5 -64t131.5 -88q122 103 289 152l57 -96q-142 -95 -262 -203h-168q-116 107 -262 203z" />
<glyph unicode="&#x192;" d="M-10 -195l73 181q60 -29 121 -29q150 0 178 160l99 563h-211l33 180h211l28 176q28 165 125.5 260t267.5 95q117 0 201 -43l-72 -183q-57 29 -114 29q-84 0 -128.5 -39.5t-56.5 -118.5l-30 -176h262l-33 -180h-262l-96 -563q-28 -165 -124.5 -260t-268.5 -95 q-112 0 -203 43z" />
<glyph unicode="&#x1fa;" horiz-adv-x="1372" d="M10 0l508 1290q-84 64 -84 166q0 97 74 165.5t178 68.5q106 0 180 -68.5t74 -165.5q0 -102 -84 -166l506 -1290h-268l-129 348h-566l-129 -348h-260zM463 549h436l-215 604zM535 1772q126 153 176 258l200 -33q-33 -74 -117 -155t-173 -130zM571 1454q0 -47 34 -80 t83 -33t81 32.5t32 80.5q0 50 -32 84.5t-81 34.5t-83 -34.5t-34 -84.5z" />
<glyph unicode="&#x1fb;" horiz-adv-x="1177" d="M72 307q0 55 14 100.5t36.5 77t57.5 56.5t68.5 40t80 26.5t81.5 17t82 10.5q41 4 65 7t56.5 8.5t51.5 11.5t40.5 16t32.5 22.5t18.5 30t7.5 39.5q0 72 -65 104.5t-154 32.5q-86 0 -174.5 -27.5t-161.5 -80.5l-90 170q203 131 442 131q201 0 316.5 -88t115.5 -273v-489 q0 -52 18 -75t58 -23q39 0 59 14l25 -156q-53 -26 -139 -26q-81 0 -140 39.5t-75 119.5q-61 -89 -156.5 -128.5t-202.5 -39.5q-168 0 -268 88t-100 244zM299 311q0 -81 54 -120t143 -39q115 0 192.5 64.5t77.5 191.5v163q-15 -19 -34.5 -33t-35.5 -22.5t-44.5 -15.5 t-45 -9.5t-54 -7.5t-54.5 -8q-98 -15 -148.5 -50.5t-50.5 -113.5zM324 1350q0 89 66.5 152t164.5 63q97 0 163 -63t66 -152q0 -88 -65.5 -149.5t-163.5 -61.5q-99 0 -165 61t-66 150zM406 1651q126 153 176 258l200 -33q-33 -74 -117 -155t-173 -130zM442 1350 q0 -46 33.5 -78.5t79.5 -32.5q45 0 78 33t33 78q0 46 -33 79t-78 33q-46 0 -79.5 -33t-33.5 -79z" />
<glyph unicode="&#x1fc;" horiz-adv-x="1894" d="M-14 0l696 1364h1104v-209h-647v-334h551v-209h-551v-403h667v-209h-909v348h-475l-176 -348h-260zM518 549h379v616h-78zM858 1495q126 153 176 258l201 -33q-33 -74 -117 -154.5t-174 -129.5z" />
<glyph unicode="&#x1fd;" horiz-adv-x="1884" d="M70 307q0 55 14 100.5t36 77t57.5 56.5t69 40t79.5 26.5t81 17t82 10.5q48 5 75.5 8.5t64 10.5t56.5 16t40 22.5t28.5 33t8.5 44.5q0 38 -19.5 66t-52.5 42.5t-69 21.5t-76 7q-188 0 -338 -108l-90 170q198 131 432 131q266 0 366 -168q138 168 373 168 q157 0 276.5 -71.5t181.5 -193.5t62 -276q0 -42 -4 -78h-819q7 -145 96 -225t234 -80q187 0 309 135l150 -141q-188 -195 -467 -195q-140 0 -251 51.5t-179 151.5q-59 -98 -162.5 -150.5t-243.5 -52.5q-184 0 -292.5 87t-108.5 245zM297 311q0 -81 54 -120t143 -39 q115 0 192.5 64.5t77.5 191.5v163q-15 -19 -34.5 -33t-35.5 -22.5t-44.5 -15.5t-45 -9.5t-54 -7.5t-54.5 -8q-98 -15 -148.5 -50.5t-50.5 -113.5zM784 1237q129 156 177 258l200 -33q-33 -74 -117 -154.5t-174 -129.5zM989 645h592q-12 131 -94 202t-203 71 q-125 0 -205.5 -76t-89.5 -197z" />
<glyph unicode="&#x1fe;" horiz-adv-x="1527" d="M86 682q0 149 47.5 278.5t134 224.5t214.5 149.5t282 54.5q194 0 350 -91l66 93l108 -76l-67 -94q106 -95 163.5 -235t57.5 -304q0 -149 -47.5 -278.5t-134 -224.5t-214.5 -149.5t-282 -54.5q-201 0 -352 91l-64 -93l-108 76l65 92q-106 95 -162.5 235t-56.5 306z M336 682q0 -212 108 -342l537 770q-94 57 -217 57q-199 0 -313.5 -135t-114.5 -350zM545 254q91 -57 219 -57q197 0 312.5 135t115.5 350q0 207 -111 340zM664 1495q126 153 176 258l200 -33q-33 -74 -116.5 -154.5t-173.5 -129.5z" />
<glyph unicode="&#x1ff;" horiz-adv-x="1253" d="M82 537q0 250 148.5 406.5t396.5 156.5q146 0 272 -66l47 66l101 -70l-48 -65q172 -155 172 -428q0 -249 -148 -405.5t-396 -156.5q-155 0 -275 66l-45 -66l-100 70l45 64q-82 75 -126 185t-44 243zM322 537q0 -147 63 -236l395 563q-68 43 -153 43q-144 0 -224.5 -103.5 t-80.5 -266.5zM471 211q64 -43 156 -43q142 0 223.5 103.5t81.5 265.5q0 143 -66 237zM535 1237q126 153 176 258l200 -33q-33 -74 -116.5 -154.5t-173.5 -129.5z" />
<glyph unicode="&#x218;" horiz-adv-x="1261" d="M57 279l193 112q66 -109 171.5 -161t231.5 -52q129 0 207 53.5t78 147.5q0 99 -101 147q-59 28 -228 61l-1 1h-1h-2h-1l-1 1h-1h-1h-1h-1l-1 1h-1h-1q-83 17 -145 35.5t-127.5 50.5t-106.5 72.5t-67.5 102.5t-26.5 140q0 184 137 291t358 107q164 0 304 -63.5t231 -190.5 l-180 -121q-63 85 -157.5 128.5t-205.5 43.5q-110 0 -179 -42.5t-69 -131.5q0 -24 5.5 -44t19.5 -36t26.5 -28.5t39.5 -24t43 -18.5t53 -16.5t55 -13.5t62 -14q77 -16 132.5 -31t119.5 -38.5t106.5 -53t80 -70t55.5 -95.5t18 -123q0 -192 -146 -311.5t-393 -119.5 q-199 0 -351 81t-231 223zM414 -354q104 138 149 258l203 -25q-31 -75 -106 -155t-158 -134z" />
<glyph unicode="&#x219;" horiz-adv-x="1093" d="M55 217l160 113q60 -84 152.5 -127t199.5 -43q102 0 163 37t61 106q0 29 -13 50.5t-32 35.5t-58 26t-73.5 19t-96.5 17q-75 13 -129.5 27.5t-109.5 39.5t-89 58t-55.5 83.5t-21.5 114.5q0 107 60 182.5t153 109.5t209 34q150 0 268.5 -54t193.5 -135l-143 -131 q-55 63 -139 99t-183 36q-84 0 -142 -30.5t-58 -89.5q0 -23 8 -41t28 -31.5t38 -23t54 -18.5t59.5 -13.5t68.5 -12.5q78 -14 133 -28t114.5 -39.5t95.5 -58t59.5 -84t23.5 -117.5q0 -160 -123 -256.5t-336 -96.5q-165 0 -294.5 62t-205.5 180zM338 -354q104 138 149 258 l203 -25q-31 -75 -106 -155t-158 -134z" />
<glyph unicode="&#x237;" horiz-adv-x="526" d="M-184 -332l61 176q53 -24 107 -24q89 0 127.5 47t38.5 137v1071h227v-1065q0 -189 -100 -286t-273 -97q-108 0 -188 41z" />
<glyph unicode="&#x259;" horiz-adv-x="1220" d="M74 516q0 42 4 78h819q-7 145 -96 225t-234 80q-185 0 -311 -135l-147 141q185 195 466 195q264 0 414 -156t150 -401q0 -160 -64 -288.5t-188 -204t-289 -75.5q-159 0 -279.5 71t-182.5 193t-62 277zM301 430q12 -131 93.5 -201.5t201.5 -70.5q126 0 207 75.5t90 196.5 h-592z" />
<glyph unicode="&#x2c6;" horiz-adv-x="675" d="M-4 1282q146 96 262 203h168q120 -108 262 -203l-57 -96q-79 23 -156.5 64t-132.5 87q-53 -46 -130.5 -87t-158.5 -64z" />
<glyph unicode="&#x2c7;" horiz-adv-x="675" d="M-4 1397l57 96q80 -23 157.5 -64t131.5 -88q122 103 289 152l57 -96q-142 -95 -262 -203h-168q-116 107 -262 203z" />
<glyph unicode="&#x2d8;" horiz-adv-x="675" d="M6 1446l119 37q21 -61 76.5 -97t140.5 -36q86 0 141.5 36t75.5 97l119 -37q-18 -107 -107 -175.5t-229 -68.5t-228 68.5t-108 175.5z" />
<glyph unicode="&#x2d9;" horiz-adv-x="657" d="M233 1221v182h191v-182h-191z" />
<glyph unicode="&#x2da;" horiz-adv-x="657" d="M104 1386q0 89 67 152.5t165 63.5q97 0 163 -63.5t66 -152.5q0 -88 -65.5 -149t-163.5 -61q-99 0 -165.5 61t-66.5 149zM223 1386q0 -45 33.5 -77.5t79.5 -32.5q45 0 77.5 32.5t32.5 77.5q0 46 -33 79.5t-77 33.5q-46 0 -79.5 -33.5t-33.5 -79.5z" />
<glyph unicode="&#x2db;" horiz-adv-x="657" d="M141 -182q0 67 49 133.5t148 116.5h106q-151 -93 -151 -195q0 -44 29.5 -68t78.5 -24q84 0 144 67v-155q-26 -24 -72 -41t-102 -17q-100 0 -165 49.5t-65 133.5z" />
<glyph unicode="&#x2dc;" horiz-adv-x="708" d="M-4 1270q32 80 90.5 130t128.5 50q51 0 140 -39t128 -39q75 0 140 80l86 -57q-34 -81 -92 -132t-128 -51q-53 0 -141 40t-125 40q-78 0 -141 -80z" />
<glyph unicode="&#x2dd;" horiz-adv-x="761" d="M90 1237q119 139 178 258l191 -33q-32 -73 -117 -153.5t-174 -130.5zM430 1237q119 139 178 258l191 -33q-32 -73 -117 -153.5t-174 -130.5z" />
<glyph unicode="&#x2206;" horiz-adv-x="1253" d="M63 0v29l551 1433h25l551 -1433v-29h-1127zM291 162h672l-336 882z" />
<glyph unicode="&#x394;" horiz-adv-x="1253" d="M63 0v29l551 1433h25l551 -1433v-29h-1127zM291 162h672l-336 882z" />
<glyph unicode="&#x2126;" horiz-adv-x="1273" d="M92 819q0 249 151 409.5t394 160.5q242 0 393.5 -161t151.5 -411q0 -63 -9 -122.5t-30.5 -116t-39.5 -97.5t-54 -95.5t-53.5 -80t-59.5 -80.5t-53 -69h274v-156h-428l-35 147q89 111 138.5 180t97.5 154t68 164t20 168q0 188 -104 306t-277 118t-277 -118t-104 -306 q0 -89 20 -168t68 -164t97.5 -154t138.5 -180l-35 -147h-428v156h274q-14 19 -47.5 63t-51.5 68.5t-49 69.5t-48.5 78t-39.5 82t-34 93t-20.5 98.5t-8.5 110.5z" />
<glyph unicode="&#x3a9;" horiz-adv-x="1273" d="M92 819q0 249 151 409.5t394 160.5q242 0 393.5 -161t151.5 -411q0 -63 -9 -122.5t-30.5 -116t-39.5 -97.5t-54 -95.5t-53.5 -80t-59.5 -80.5t-53 -69h274v-156h-428l-35 147q89 111 138.5 180t97.5 154t68 164t20 168q0 188 -104 306t-277 118t-277 -118t-104 -306 q0 -89 20 -168t68 -164t97.5 -154t138.5 -180l-35 -147h-428v156h274q-14 19 -47.5 63t-51.5 68.5t-49 69.5t-48.5 78t-39.5 82t-34 93t-20.5 98.5t-8.5 110.5z" />
<glyph unicode="&#x3c0;" horiz-adv-x="1212" d="M61 913v162h1090v-162h-143v-913h-164v913h-475v-913h-164v913h-144z" />
<glyph unicode="&#x1e80;" horiz-adv-x="1945" d="M47 1364h256l258 -1042l303 1042h221l301 -1047l259 1047h258l-381 -1364h-265l-286 1016l-289 -1016h-266zM735 1720l201 33q50 -105 176 -258l-86 -59q-90 49 -174 129.5t-117 154.5z" />
<glyph unicode="&#x1e81;" horiz-adv-x="1644" d="M49 1075h244l194 -786l236 786h207l233 -786l193 786h239l-299 -1075h-241l-232 782l-237 -782h-240zM578 1462l200 33q50 -105 176 -258l-86 -59q-90 49 -173.5 129.5t-116.5 154.5z" />
<glyph unicode="&#x1e82;" horiz-adv-x="1945" d="M47 1364h256l258 -1042l303 1042h221l301 -1047l259 1047h258l-381 -1364h-265l-286 1016l-289 -1016h-266zM834 1495q126 153 176 258l200 -33q-33 -74 -116.5 -154.5t-173.5 -129.5z" />
<glyph unicode="&#x1e83;" horiz-adv-x="1644" d="M49 1075h244l194 -786l236 786h207l233 -786l193 786h239l-299 -1075h-241l-232 782l-237 -782h-240zM698 1237q126 153 176 258l201 -33q-33 -74 -117 -154.5t-174 -129.5z" />
<glyph unicode="&#x1e84;" horiz-adv-x="1945" d="M47 1364h256l258 -1042l303 1042h221l301 -1047l259 1047h258l-381 -1364h-265l-286 1016l-289 -1016h-266zM664 1475v186h182v-186h-182zM1106 1475v186h180v-186h-180z" />
<glyph unicode="&#x1e85;" horiz-adv-x="1644" d="M49 1075h244l194 -786l236 786h207l233 -786l193 786h239l-299 -1075h-241l-232 782l-237 -782h-240zM508 1217v186h182v-186h-182zM950 1217v186h180v-186h-180z" />
<glyph unicode="&#x1ef2;" horiz-adv-x="1294" d="M4 1364h281l364 -602l367 602h276l-526 -819v-545h-240v545zM395 1720l201 33q50 -105 176 -258l-86 -59q-90 49 -174 129.5t-117 154.5z" />
<glyph unicode="&#x1ef3;" horiz-adv-x="1122" d="M16 1075h260l308 -776l274 776h244l-426 -1118q-33 -87 -67 -146t-79 -103t-103 -64.5t-134 -20.5q-138 0 -244 74l92 160q59 -43 127 -43q61 0 98.5 36t71.5 105l29 59zM315 1462l201 33q50 -105 176 -258l-86 -59q-90 49 -174 129.5t-117 154.5z" />
<glyph unicode="&#x2000;" horiz-adv-x="1021" />
<glyph unicode="&#x2001;" horiz-adv-x="2042" />
<glyph unicode="&#x2002;" horiz-adv-x="1021" />
<glyph unicode="&#x2003;" horiz-adv-x="2042" />
<glyph unicode="&#x2004;" horiz-adv-x="680" />
<glyph unicode="&#x2005;" horiz-adv-x="510" />
<glyph unicode="&#x2006;" horiz-adv-x="340" />
<glyph unicode="&#x2007;" horiz-adv-x="340" />
<glyph unicode="&#x2008;" horiz-adv-x="255" />
<glyph unicode="&#x2009;" horiz-adv-x="408" />
<glyph unicode="&#x200a;" horiz-adv-x="113" />
<glyph unicode="&#x2010;" horiz-adv-x="819" d="M119 475v201h581v-201h-581z" />
<glyph unicode="&#x2011;" horiz-adv-x="819" d="M119 475v201h581v-201h-581z" />
<glyph unicode="&#x2012;" horiz-adv-x="819" d="M119 475v201h581v-201h-581z" />
<glyph unicode="&#x2013;" d="M98 526v193h1006v-193h-1006z" />
<glyph unicode="&#x2014;" horiz-adv-x="1892" d="M117 526v193h1659v-193h-1659z" />
<glyph unicode="&#x2018;" horiz-adv-x="487" d="M111 809v211q0 111 46 198.5t144 170.5l78 -89q-129 -95 -129 -215v-41h123v-235h-262z" />
<glyph unicode="&#x2019;" horiz-adv-x="458" d="M102 874q127 94 127 216v38h-120v236h262v-209q0 -112 -46 -200t-145 -171z" />
<glyph unicode="&#x201a;" horiz-adv-x="532" d="M129 -240q60 43 93.5 99t33.5 116v39h-121v236h262v-209q0 -113 -46 -200.5t-144 -168.5z" />
<glyph unicode="&#x201c;" horiz-adv-x="907" d="M111 809v211q0 111 46 198.5t144 170.5l78 -89q-129 -95 -129 -215v-41h123v-235h-262zM530 809v209q0 112 46.5 200t146.5 171l76 -89q-127 -94 -127 -215v-41h121v-235h-263z" />
<glyph unicode="&#x201d;" horiz-adv-x="878" d="M102 874q127 94 127 216v38h-120v236h262v-209q0 -112 -46 -200t-145 -171zM524 874q127 96 127 216v38h-121v236h261v-209q0 -112 -46 -200t-145 -171z" />
<glyph unicode="&#x201e;" horiz-adv-x="952" d="M129 -240q60 43 93.5 99t33.5 116v39h-121v236h262v-209q0 -113 -46 -200.5t-144 -168.5zM551 -240q59 43 93 99.5t34 115.5v39h-121v236h260v-209q0 -113 -46 -200.5t-144 -168.5z" />
<glyph unicode="&#x2020;" horiz-adv-x="1007" d="M72 883v192h323v289h217v-289h324v-192h-324v-883h-217v883h-323z" />
<glyph unicode="&#x2021;" horiz-adv-x="1052" d="M94 289v192h324v404h-324v190h324v289h217v-289h323v-190h-323v-404h323v-192h-323v-289h-217v289h-324z" />
<glyph unicode="&#x2022;" horiz-adv-x="774" d="M88 682q0 124 87 211.5t210 87.5t211 -87.5t88 -211.5q0 -123 -88 -210t-211 -87t-210 87t-87 210z" />
<glyph unicode="&#x2025;" horiz-adv-x="1034" d="M133 0v258h262v-258h-262zM641 0v258h260v-258h-260z" />
<glyph unicode="&#x2026;" horiz-adv-x="1521" d="M133 0v258h262v-258h-262zM631 0v258h260v-258h-260zM1128 0v258h261v-258h-261z" />
<glyph unicode="&#x202f;" horiz-adv-x="408" />
<glyph unicode="&#x2030;" horiz-adv-x="2330" d="M72 1042q0 144 94.5 242t239.5 98t239 -98t94 -242q0 -149 -94 -247.5t-239 -98.5t-239.5 98.5t-94.5 247.5zM225 1042q0 -83 50 -136.5t131 -53.5q79 0 128.5 54t49.5 136q0 79 -50 133t-128 54q-80 0 -130.5 -53.5t-50.5 -133.5zM352 0l715 1364h176l-717 -1364h-174z M856 326q0 146 95 244t239 98q145 0 239.5 -98t94.5 -244q0 -147 -94.5 -245.5t-239.5 -98.5q-144 0 -239 98.5t-95 245.5zM1012 326q0 -81 50 -136t128 -55t129 55t51 136q0 80 -50.5 134t-129.5 54t-128.5 -53.5t-49.5 -134.5zM1595 326q0 146 94.5 244t239.5 98 q144 0 238 -98t94 -244q0 -147 -94 -245.5t-238 -98.5q-145 0 -239.5 98.5t-94.5 245.5zM1751 326q0 -81 50 -136t128 -55t128 55t50 136t-49.5 134.5t-128.5 53.5t-128.5 -53.5t-49.5 -134.5z" />
<glyph unicode="&#x2039;" horiz-adv-x="577" d="M55 498v80l310 401l120 -92l-241 -350l241 -351l-120 -92z" />
<glyph unicode="&#x203a;" horiz-adv-x="579" d="M92 186l242 351l-242 350l123 92l307 -401v-80l-307 -404z" />
<glyph unicode="&#x2044;" horiz-adv-x="485" d="M-322 0l963 1364h170l-963 -1364h-170z" />
<glyph unicode="&#x205f;" horiz-adv-x="510" />
<glyph unicode="&#x2070;" horiz-adv-x="831" d="M76 1120q0 100 16 177.5t53 141.5t104.5 98t164.5 34q98 0 167 -34t106.5 -98t54 -141.5t16.5 -177.5q0 -79 -9.5 -144t-34 -123.5t-62.5 -98.5t-98.5 -63t-139.5 -23q-97 0 -164.5 34t-104.5 98.5t-53 142t-16 177.5zM252 1120q0 -71 7 -122.5t24 -94.5t50 -64.5 t81 -21.5q66 0 104 41t50 103.5t12 158.5q0 72 -7 123t-24.5 93.5t-51 63.5t-83.5 21q-93 0 -127.5 -76.5t-34.5 -224.5z" />
<glyph unicode="&#x2074;" horiz-adv-x="800" d="M39 872v136q72 126 119.5 275t50.5 271h170q-1 -120 -45 -260.5t-115 -269.5h252v330h168v-330h125v-152h-125v-188h-170v188h-430z" />
<glyph unicode="&#x2075;" horiz-adv-x="790" d="M45 838l137 84q66 -99 203 -99q69 0 117.5 39.5t48.5 108.5q0 68 -46 107.5t-128 39.5q-105 0 -176 -80l-103 45l29 471h555v-159h-410q-5 -68 -20 -189q70 49 172 49q138 0 222.5 -77t84.5 -211q0 -55 -20 -106.5t-60 -95.5t-108 -70.5t-156 -26.5q-224 0 -342 170z" />
<glyph unicode="&#x2076;" horiz-adv-x="798" d="M66 1008q0 289 280 546h248q-227 -164 -305 -337q33 29 81 43t89 14q131 0 215 -80t84 -213q0 -138 -95.5 -225.5t-248.5 -87.5q-161 0 -254.5 89t-93.5 251zM246 977q0 -70 44 -113t122 -43q80 0 123 43t43 115t-43 115t-123 43q-78 0 -122 -44t-44 -116z" />
<glyph unicode="&#x2077;" horiz-adv-x="720" d="M27 1395v159h682v-129q-61 -75 -115.5 -153.5t-112 -178.5t-92 -207t-35.5 -202h-194q3 80 29 168t58 157t82.5 150.5t83.5 127.5t81 108h-467z" />
<glyph unicode="&#x2078;" horiz-adv-x="829" d="M70 928q0 151 139 219q-109 56 -109 186q0 112 86 175t230 63q145 0 230 -63t85 -175q0 -119 -113 -186q70 -34 107 -92t37 -127q0 -124 -94.5 -192t-251.5 -68q-158 0 -252 68t-94 192zM246 940q0 -66 48 -98.5t122 -32.5q73 0 120.5 32.5t47.5 98.5q0 67 -47.5 101 t-120.5 34t-121.5 -34t-48.5 -101zM276 1323q0 -57 39.5 -86t98.5 -29q60 0 101.5 29t41.5 86q0 53 -41 80t-100 27q-60 0 -100 -26.5t-40 -80.5z" />
<glyph unicode="&#x2079;" horiz-adv-x="798" d="M41 1255q0 140 96 228t248 88q161 0 254.5 -89t93.5 -251q0 -290 -280 -547h-246q228 163 303 334q-34 -28 -81 -41.5t-87 -13.5q-132 0 -216.5 80t-84.5 212zM221 1257q0 -72 43 -113.5t121 -41.5q80 0 125 43t45 115t-45 114.5t-125 42.5q-78 0 -121 -43.5t-43 -116.5z " />
<glyph unicode="&#x2080;" horiz-adv-x="827" d="M74 246q0 100 16 177.5t53 141t104.5 97.5t164.5 34q98 0 167 -34t106.5 -97.5t54 -141t16.5 -177.5t-16.5 -178t-54 -142t-106.5 -98.5t-167 -34.5q-97 0 -164.5 34.5t-104.5 98.5t-53 142t-16 178zM250 246q0 -72 7 -123.5t24 -94t50 -64t81 -21.5q50 0 83.5 21.5 t51 64t24.5 94t7 123.5q0 96 -12 158.5t-50 103.5t-104 41q-48 0 -81 -21.5t-50 -64.5t-24 -94.5t-7 -122.5z" />
<glyph unicode="&#x2081;" horiz-adv-x="681" d="M57 569q206 42 283 111h131v-717h186v-153h-577v153h217v520q-100 -35 -217 -47z" />
<glyph unicode="&#x2082;" horiz-adv-x="792" d="M43 506q128 190 336 190q143 0 232 -74.5t89 -203.5q0 -107 -74 -200.5t-276 -250.5h383v-157h-661v131q258 196 351 292.5t93 176.5q0 59 -44 94t-107 35q-56 0 -103.5 -30.5t-79.5 -82.5z" />
<glyph unicode="&#x2083;" horiz-adv-x="804" d="M45 4l154 53q57 -106 204 -106q71 0 112.5 33t41.5 86q0 49 -36.5 76.5t-100.5 27.5h-115v152h109q46 0 84.5 26t38.5 78q0 54 -43 81.5t-107 27.5q-129 0 -192 -97l-136 72q116 182 340 182q134 0 223 -64t89 -181q0 -126 -101 -185q66 -26 96.5 -82t30.5 -121 q0 -119 -92 -194.5t-242 -75.5q-259 0 -358 211z" />
<glyph unicode="&#x2084;" horiz-adv-x="800" d="M39 -2v135q72 126 119.5 275.5t50.5 271.5h170q-1 -120 -45 -260.5t-115 -269.5h252v329h168v-329h125v-152h-125v-188h-170v188h-430z" />
<glyph unicode="&#x2085;" horiz-adv-x="788" d="M45 -37l137 84q65 -96 203 -96q69 0 117.5 38.5t48.5 106.5t-46 108t-128 40q-105 0 -176 -80l-103 43l29 473h555v-160h-410q-5 -73 -20 -188q71 47 172 47q138 0 222.5 -76.5t84.5 -210.5q0 -54 -20 -105.5t-59.5 -95.5t-108 -71t-156.5 -27q-222 0 -342 170z" />
<glyph unicode="&#x2086;" horiz-adv-x="798" d="M66 133q0 290 280 547h248q-226 -163 -305 -336q34 28 82.5 42.5t87.5 14.5q131 0 215 -81t84 -214q0 -138 -95.5 -225.5t-248.5 -87.5q-161 0 -254.5 89t-93.5 251zM246 102q0 -71 44 -114t122 -43q80 0 123 43.5t43 115.5t-43 115t-123 43q-78 0 -122 -44t-44 -116z " />
<glyph unicode="&#x2087;" horiz-adv-x="720" d="M27 520v160h682v-129q-350 -432 -355 -741h-194q3 81 29 169t58 156.5t83 150.5t83 126t81 108h-467z" />
<glyph unicode="&#x2088;" horiz-adv-x="827" d="M68 55q0 149 139 217q-109 56 -109 185q0 115 86 177t230 62q145 0 230 -62t85 -177q0 -120 -113 -183q70 -34 107 -92t37 -127q0 -124 -94.5 -193t-251.5 -69q-158 0 -252 69t-94 193zM244 66q0 -65 48.5 -98.5t121.5 -33.5t120.5 32t47.5 97q0 68 -48 104t-120 36 q-73 0 -121.5 -35t-48.5 -102zM274 449q0 -57 39.5 -86t98.5 -29q60 0 101.5 29t41.5 86q0 53 -40.5 79.5t-100.5 26.5q-61 0 -100.5 -26t-39.5 -80z" />
<glyph unicode="&#x2089;" horiz-adv-x="798" d="M41 381q0 139 96 227t248 88q161 0 254.5 -89t93.5 -251q0 -289 -280 -546h-246q229 164 303 333q-63 -53 -168 -53q-132 0 -216.5 79.5t-84.5 211.5zM221 383q0 -72 43 -114t121 -42q80 0 125 43.5t45 114.5q0 72 -45 115t-125 43q-78 0 -121 -43.5t-43 -116.5z" />
<glyph unicode="&#x20ac;" horiz-adv-x="1499" d="M80 492v116h145q-4 40 -4 76q0 30 4 70h-145v114h162q50 238 218.5 379.5t413.5 141.5q171 0 309.5 -75t231.5 -222l-184 -121q-125 205 -350 205q-145 0 -246.5 -83t-142.5 -225h491v-114h-512q-4 -40 -4 -70q0 -36 4 -76h512v-116h-487q39 -141 140.5 -222.5 t244.5 -81.5q222 0 348 213l192 -112q-88 -151 -227 -232.5t-320 -81.5q-243 0 -411.5 140.5t-220.5 376.5h-162z" />
<glyph unicode="&#x2113;" horiz-adv-x="1040" d="M68 485q92 37 208 107v409q0 57 7.5 107.5t29 103.5t55.5 91t91 62t131 24q149 0 228 -86.5t79 -219.5q0 -154 -108 -305t-312 -280v-164q0 -86 39.5 -129t110.5 -43q123 0 198 119l138 -123q-128 -183 -355 -183q-161 0 -246.5 91t-85.5 260v63q-106 -58 -141 -70z M477 721q108 88 169 182t61 182q0 59 -27.5 94t-81.5 35q-65 0 -93 -48.5t-28 -123.5v-321z" />
<glyph unicode="&#x2116;" horiz-adv-x="2543" d="M53 61l103 117q36 -39 84 -39q31 0 53.5 16t35.5 43t20.5 72.5t10 93t2.5 115.5v885h185l575 -1002q-18 350 -18 539q0 125 12.5 209.5t46.5 144.5q78 134 230 134q133 0 206 -89l-102 -116q-30 41 -84 41q-31 0 -53.5 -16t-36 -43.5t-21 -72.5t-10 -92.5t-2.5 -115.5 v-885h-182l-576 1001q17 -396 17 -538q0 -249 -60 -354q-75 -134 -229 -134q-131 0 -207 86zM1546 694q0 198 127 325.5t314 127.5t314.5 -127.5t127.5 -325.5t-127 -323t-315 -125t-314.5 125t-126.5 323zM1573 0v129h829v-129h-829zM1731 694q0 -125 69.5 -205.5 t186.5 -80.5t185.5 80t68.5 206t-68.5 207.5t-185.5 81.5q-116 0 -186 -81.5t-70 -207.5z" />
<glyph unicode="&#x2117;" horiz-adv-x="1599" d="M80 682q0 146 57.5 279.5t154 229.5t230 153t279.5 57q117 0 226.5 -36.5t198 -103t155 -154.5t103 -198t36.5 -227q0 -116 -36.5 -226t-103 -198.5t-155 -155t-198.5 -103t-226 -36.5q-146 0 -279.5 57t-230 153.5t-154 230t-57.5 278.5zM203 682q0 -122 47.5 -232 t127.5 -190t190.5 -127t232.5 -47q161 0 298 79.5t216.5 217t79.5 299.5q0 122 -47 232.5t-126.5 190t-189.5 126.5t-231 47t-231.5 -47t-191 -126.5t-128 -190t-47.5 -232.5zM526 285v788h357q134 0 210 -72t76 -184t-73.5 -185t-214.5 -73h-181v-274h-174zM700 690h134 q81 0 121 29.5t40 95.5q0 64 -40.5 93.5t-120.5 29.5h-134v-248z" />
<glyph unicode="&#x2122;" horiz-adv-x="1472" d="M90 1245v119h518v-119h-196v-471h-129v471h-193zM698 774v590h181l147 -451l150 451h176v-590h-121v445l-148 -445h-114l-148 445v-445h-123z" />
<glyph unicode="&#x212e;" horiz-adv-x="1257" d="M90 559q0 122 39 229.5t108.5 186t172.5 123.5t225 45q243 0 394 -163t153 -421h-854v-383q128 -125 307 -125q133 0 231.5 60.5t175.5 193.5l74 -45q-98 -153 -207.5 -219t-273.5 -66q-162 0 -287.5 78t-191.5 210.5t-66 295.5zM328 635h616v307q-136 127 -311 127 t-305 -127v-307z" />
<glyph unicode="&#x2139;" horiz-adv-x="1880" d="M82 682q0 174 68 333t183 274t274 183t333 68t333 -68t274 -183t183 -274t68 -333t-68 -333t-183 -274t-274 -183t-333 -68t-333 68t-274 183t-183 274t-68 333zM678 303q0 -111 72.5 -172t197.5 -61q151 0 289 77l-39 84q-69 -38 -139 -38q-66 0 -106 34.5t-40 104.5 q0 59 33 172l107 356h-250l-70 -270q-55 -211 -55 -287zM836 985h194q69 0 117.5 49t48.5 121q0 71 -47 117.5t-123 46.5q-145 0 -168 -184q-14 -108 -22 -150z" />
<glyph unicode="&#x2153;" horiz-adv-x="2004" d="M111 1255q202 35 282 109h131v-717h187v-153h-578v153h217v520q-96 -34 -217 -49zM432 0l961 1364h170l-961 -1364h-170zM1212 195l156 53q57 -107 205 -107q70 0 110.5 33t40.5 86q0 49 -36 77t-101 28h-114v151h110q44 0 82.5 26.5t38.5 78.5q0 54 -43 81t-105 27 q-131 0 -194 -96l-135 72q116 182 338 182q135 0 224 -64.5t89 -181.5q0 -127 -100 -184q66 -26 96.5 -82t30.5 -121q0 -119 -92 -194.5t-242 -75.5q-260 0 -359 211z" />
<glyph unicode="&#x2154;" horiz-adv-x="2004" d="M82 1192q126 188 336 188q143 0 232 -73.5t89 -202.5q0 -107 -74 -200.5t-276 -250.5h383v-159h-661v131q258 196 351 293t93 178q0 59 -44.5 93t-107.5 34q-56 0 -103.5 -29.5t-78.5 -81.5zM455 0l960 1364h170l-960 -1364h-170zM1235 195l156 53q57 -107 204 -107 q70 0 111 33t41 86q0 49 -36 77t-101 28h-115v151h111q44 0 82 26.5t38 78.5q0 54 -42.5 81t-104.5 27q-132 0 -195 -96l-135 72q116 182 338 182q135 0 224.5 -64.5t89.5 -181.5q0 -126 -101 -184q66 -26 96.5 -82t30.5 -121q0 -119 -92 -194.5t-242 -75.5q-259 0 -358 211 z" />
<glyph unicode="&#x2155;" horiz-adv-x="2004" d="M104 1255q204 35 283 109h131v-717h187v-153h-578v153h217v520q-96 -34 -217 -49zM426 0l960 1364h170l-960 -1364h-170zM1221 154l137 84q63 -97 203 -97q68 0 115.5 38.5t47.5 107.5q0 68 -46 107.5t-128 39.5q-107 0 -174 -80l-102 43l29 473h552v-159h-407 q-2 -33 -10.5 -100t-10.5 -89q71 47 172 47q137 0 221.5 -76t84.5 -210q0 -55 -20 -106t-59.5 -95t-108 -71t-156.5 -27q-107 0 -194.5 43t-145.5 127z" />
<glyph unicode="&#x2156;" horiz-adv-x="2004" d="M76 1192q126 188 336 188q143 0 232 -73.5t89 -202.5q0 -107 -74 -200.5t-276 -250.5h383v-159h-662v131q259 197 352 293.5t93 177.5q0 59 -44.5 93t-107.5 34q-56 0 -103.5 -29.5t-78.5 -81.5zM449 0l960 1364h170l-961 -1364h-169zM1243 154l137 84q63 -97 203 -97 q69 0 116.5 38.5t47.5 107.5q0 68 -46 107.5t-128 39.5q-107 0 -174 -80l-103 43l29 473h553v-159h-408q-2 -34 -10 -102.5t-10 -86.5q71 47 172 47q136 0 220.5 -76t84.5 -210q0 -55 -20 -106t-59.5 -95t-108 -71t-156.5 -27q-107 0 -194.5 43t-145.5 127z" />
<glyph unicode="&#x2157;" horiz-adv-x="2004" d="M72 688l153 55q58 -108 205 -108q71 0 112.5 34t41.5 87q0 49 -37 76.5t-101 27.5h-114v150h108q45 0 84 27t39 79q0 54 -42 80.5t-105 26.5q-132 0 -195 -97l-135 74q117 180 338 180q136 0 224.5 -63t88.5 -180q0 -127 -100 -187q66 -26 96.5 -81t30.5 -119 q0 -119 -93 -196t-241 -77q-259 0 -358 211zM446 0l961 1364h170l-961 -1364h-170zM1241 154l137 84q63 -97 203 -97q69 0 116.5 38.5t47.5 107.5q0 68 -46 107.5t-128 39.5q-107 0 -174 -80l-103 43l29 473h553v-159h-408q-2 -34 -10 -102.5t-10 -86.5q71 47 172 47 q136 0 220.5 -76t84.5 -210q0 -55 -20 -106t-59.5 -95t-108 -71t-156.5 -27q-107 0 -194.5 43t-145.5 127z" />
<glyph unicode="&#x2158;" horiz-adv-x="2004" d="M63 682v135q72 126 119.5 275.5t50.5 271.5h170q-1 -120 -45 -261t-114 -269h252v329h168v-329h124v-152h-124v-188h-170v188h-431zM451 0l960 1364h170l-960 -1364h-170zM1245 154l137 84q63 -97 203 -97q69 0 116.5 38.5t47.5 107.5q0 68 -46 107.5t-128 39.5 q-107 0 -174 -80l-103 43l29 473h553v-159h-407q-2 -33 -10.5 -100t-10.5 -89q71 47 172 47q136 0 220.5 -76t84.5 -210q0 -55 -20 -106t-59.5 -95t-108 -71t-156.5 -27q-107 0 -194.5 43t-145.5 127z" />
<glyph unicode="&#x2159;" horiz-adv-x="2004" d="M121 1255q202 35 282 109h132v-717h186v-153h-578v153h217v520q-96 -34 -217 -49zM442 0l961 1364h170l-961 -1364h-170zM1217 324q0 293 280 546h248q-227 -163 -305 -335q32 28 80.5 42.5t87.5 14.5q131 0 215 -81t84 -214q0 -138 -95 -225.5t-247 -87.5 q-161 0 -254.5 89t-93.5 251zM1395 293q0 -70 45 -114t123 -44t122 44t44 116t-44 115t-122 43t-123 -44t-45 -116z" />
<glyph unicode="&#x215a;" horiz-adv-x="2004" d="M86 647l137 86q65 -98 203 -98q69 0 117.5 38.5t48.5 108.5q0 68 -45.5 107t-128.5 39q-108 0 -176 -80l-103 45l29 471h555v-158h-410q-5 -73 -20 -188q71 47 172 47q138 0 222.5 -77t84.5 -212q0 -54 -20 -105.5t-59.5 -95.5t-108 -71t-156.5 -27q-222 0 -342 170z M461 0l960 1364h170l-960 -1364h-170zM1235 324q0 292 281 546h247q-227 -163 -305 -335q32 28 80.5 42.5t87.5 14.5q131 0 215 -81t84 -214q0 -138 -95 -225.5t-247 -87.5q-161 0 -254.5 89t-93.5 251zM1413 293q0 -70 45 -114t123 -44t122 44t44 116t-44 115t-122 43 t-123 -44t-45 -116z" />
<glyph unicode="&#x215b;" horiz-adv-x="2004" d="M106 1255q204 38 283 109h131v-717h187v-153h-578v153h217v522q-93 -37 -217 -49zM428 0l961 1364h170l-961 -1364h-170zM1214 246q0 148 140 217q-107 55 -107 184q0 115 85.5 177.5t228.5 62.5q147 0 231 -62.5t84 -177.5q0 -117 -111 -182q69 -35 105.5 -92.5 t36.5 -126.5q0 -124 -94 -193t-252 -69q-157 0 -252 69t-95 193zM1393 256q0 -65 47.5 -98t120.5 -33q74 0 122 32t48 97q0 68 -48.5 103.5t-121.5 35.5q-72 0 -120 -35t-48 -102zM1421 639q0 -56 40.5 -85.5t99.5 -29.5q60 0 100.5 29t40.5 86q0 53 -40 79.5t-99 26.5 q-61 0 -101.5 -26.5t-40.5 -79.5z" />
<glyph unicode="&#x215c;" horiz-adv-x="2004" d="M74 688l153 55q58 -108 205 -108q71 0 112.5 34t41.5 87q0 49 -36.5 76.5t-100.5 27.5h-115v150h108q45 0 84 27t39 79q0 54 -42 80.5t-105 26.5q-132 0 -195 -97l-135 74q117 180 338 180q136 0 224.5 -63t88.5 -180q0 -127 -100 -187q66 -26 96.5 -81t30.5 -119 q0 -119 -93 -196t-241 -77q-259 0 -358 211zM449 0l960 1364h170l-961 -1364h-169zM1235 246q0 149 139 217q-106 54 -106 184q0 115 85 177.5t228 62.5q147 0 231 -62.5t84 -177.5q0 -117 -110 -182q69 -34 105 -92t36 -127q0 -124 -94 -193t-252 -69q-157 0 -251.5 69 t-94.5 193zM1413 256q0 -65 47.5 -98t120.5 -33q74 0 122 32t48 97q0 68 -48.5 103.5t-121.5 35.5q-72 0 -120 -35t-48 -102zM1442 639q0 -57 40 -86t99 -29q60 0 100.5 29t40.5 86q0 53 -40 79.5t-99 26.5q-61 0 -101 -26t-40 -80z" />
<glyph unicode="&#x215d;" horiz-adv-x="2004" d="M74 647l137 86q65 -98 203 -98q69 0 117.5 38.5t48.5 108.5q0 68 -46.5 107t-127.5 39q-112 0 -177 -80l-102 45l29 471h553v-158h-408q-2 -34 -10 -101.5t-10 -86.5q71 47 172 47q136 0 220.5 -77t84.5 -212q0 -55 -20 -106t-59.5 -95t-108 -71t-156.5 -27 q-220 0 -340 170zM442 0l961 1364h170l-961 -1364h-170zM1229 246q0 149 139 217q-106 54 -106 184q0 115 85 177.5t228 62.5q147 0 231 -62.5t84 -177.5q0 -117 -110 -182q69 -34 105 -92t36 -127q0 -124 -94 -193t-252 -69q-157 0 -251.5 69t-94.5 193zM1407 256 q0 -65 47.5 -98t120.5 -33q74 0 122 32t48 97q0 68 -48.5 103.5t-121.5 35.5q-72 0 -120 -35t-48 -102zM1436 639q0 -57 40 -86t99 -29q60 0 100.5 29t40.5 86q0 53 -40 79.5t-99 26.5q-61 0 -101 -26t-40 -80z" />
<glyph unicode="&#x215e;" horiz-adv-x="2004" d="M119 1206v158h682v-129q-62 -75 -116 -153t-111.5 -178t-92.5 -207t-37 -203h-192q4 81 30 169t58 157.5t82 150t83.5 127t80.5 108.5h-467zM387 0l961 1364h170l-961 -1364h-170zM1174 246q0 149 139 217q-107 55 -107 184q0 115 85.5 177.5t228.5 62.5q147 0 231 -62.5 t84 -177.5q0 -117 -111 -182q69 -35 105.5 -92.5t36.5 -126.5q0 -124 -94 -193t-252 -69q-157 0 -251.5 69t-94.5 193zM1352 256q0 -65 47.5 -98t120.5 -33q74 0 122 32t48 97q0 68 -48.5 103.5t-121.5 35.5q-72 0 -120 -35t-48 -102zM1380 639q0 -56 40.5 -85.5t99.5 -29.5 q60 0 100.5 29t40.5 86q0 53 -40 79.5t-99 26.5q-61 0 -101.5 -26.5t-40.5 -79.5z" />
<glyph unicode="&#x2190;" horiz-adv-x="1880" d="M180 682l684 686l131 -131l-460 -461h1138v-188h-1138l460 -461l-131 -131z" />
<glyph unicode="&#x2191;" horiz-adv-x="1880" d="M229 782l711 711l711 -711l-129 -131l-488 486v-1137h-188v1137l-488 -486z" />
<glyph unicode="&#x2192;" horiz-adv-x="1880" d="M207 588v188h1136l-458 461l131 131l684 -686l-684 -686l-131 131l458 461h-1136z" />
<glyph unicode="&#x2193;" horiz-adv-x="1880" d="M229 680l129 129l488 -485v1138h188v-1138l488 485l129 -129l-711 -711z" />
<glyph unicode="&#x2196;" horiz-adv-x="1880" d="M391 225v1006h1006v-182h-688l807 -805l-136 -135l-807 804v-688h-182z" />
<glyph unicode="&#x2197;" horiz-adv-x="1880" d="M365 244l806 805h-688v182h1006v-1006h-182v688l-807 -804z" />
<glyph unicode="&#x2198;" horiz-adv-x="1880" d="M365 1122l135 135l807 -806v688h182v-1006h-1006v184h688z" />
<glyph unicode="&#x2199;" horiz-adv-x="1880" d="M391 133v1006h182v-688l807 806l136 -135l-807 -805h688v-184h-1006z" />
<glyph unicode="&#x2202;" horiz-adv-x="1249" d="M72 504q0 144 60.5 261t173 185t255.5 68q182 0 299 -111q-68 137 -198 252.5t-285 192.5l170 135q127 -67 235 -158.5t194 -206.5t134.5 -257.5t48.5 -295.5q0 -275 -149.5 -434.5t-399.5 -159.5q-241 0 -389.5 147t-148.5 382zM311 496q0 -141 79 -232.5t226 -91.5 q149 0 232.5 91.5t83.5 232.5t-85 234t-231 93t-225.5 -92.5t-79.5 -234.5z" />
<glyph unicode="&#x220f;" horiz-adv-x="1253" d="M82 1200v164h1089v-164h-143v-1200h-164v1200h-475v-1200h-164v1200h-143z" />
<glyph unicode="&#x2211;" horiz-adv-x="1169" d="M72 0v49l602 633l-602 633v49h1001v-164h-674l498 -518l-498 -520h674v-162h-1001z" />
<glyph unicode="&#x2212;" d="M98 526v193h1006v-193h-1006z" />
<glyph unicode="&#x2217;" horiz-adv-x="1196" d="M76 449q0 61 55 92q22 13 53 22t77.5 19t74.5 18q93 25 203 82q-105 55 -203 82q-28 8 -74 18t-77.5 19t-53.5 22q-55 30 -55 92q0 31 16 60q36 55 94 55q31 0 56 -14q20 -11 41 -31t55.5 -57.5t56.5 -59.5q74 -74 172 -135q-3 114 -28 217q-7 27 -21.5 72t-22.5 77 t-8 56q0 50 31.5 80.5t79.5 30.5t79.5 -30.5t31.5 -80.5q0 -24 -8 -56t-22.5 -77t-21.5 -72q-24 -94 -30 -217q98 59 174 135q19 19 53 56t56.5 58.5t43.5 33.5q25 14 56 14q58 0 94 -55q16 -29 16 -60q0 -62 -55 -92q-22 -13 -54 -22.5t-80 -20t-71 -16.5q-94 -25 -205 -82 q119 -61 205 -82q34 -9 83 -20t75.5 -19t46.5 -20q55 -31 55 -92q0 -31 -16 -60q-36 -55 -94 -55q-31 0 -56 14q-20 11 -41 31t-55.5 57.5t-56.5 59.5q-68 68 -174 135q6 -117 30 -217q8 -31 23 -77.5t22 -74t7 -51.5q0 -51 -31.5 -82t-79.5 -31t-79.5 31t-31.5 82 q0 24 7 51.5t22 74t23 77.5q25 99 28 217q-109 -72 -172 -135q-18 -18 -52.5 -55.5t-57.5 -59.5t-43 -33q-25 -14 -56 -14q-58 0 -94 55q-16 29 -16 60z" />
<glyph unicode="&#x221a;" horiz-adv-x="1185" d="M27 664l145 73l252 -510l635 1289l145 -72l-766 -1555h-24z" />
<glyph unicode="&#x221e;" horiz-adv-x="1613" d="M90 563q0 142 100.5 242t243.5 100q142 0 238 -96l137 -135l133 135q96 96 238 96q143 0 243.5 -100t100.5 -242q0 -143 -101 -243.5t-243 -100.5q-140 0 -238 98l-133 136l-137 -136q-98 -98 -238 -98q-142 0 -243 100.5t-101 243.5zM252 563q0 -75 53.5 -128.5 t128.5 -53.5q31 0 60.5 10.5t58.5 33.5t48 41t50.5 52t44.5 47l-129 125q-55 55 -133 55q-75 0 -128.5 -53.5t-53.5 -128.5zM920 563l129 -127q55 -55 131 -55t130 53.5t54 128.5t-54 128.5t-130 53.5q-30 0 -59 -10.5t-58.5 -33.5t-48 -40.5t-50.5 -51.5t-44 -46z" />
<glyph unicode="&#x222b;" horiz-adv-x="651" d="M45 -176l90 104q35 -41 80 -41q84 0 84 115q0 76 -55 608q-51 475 -51 621q0 122 59 188t166 66q114 0 194 -80l-88 -105q-38 41 -82 41q-84 0 -84 -114q0 -67 56 -609q51 -475 51 -620q0 -122 -59 -188t-164 -66q-117 0 -197 80z" />
<glyph unicode="&#x2248;" d="M78 393q139 189 293 189q37 0 78.5 -10t68.5 -21t94 -39q83 -35 131.5 -50.5t94.5 -15.5q110 0 221 99l71 -80q-141 -191 -292 -191q-37 0 -78 10.5t-69 21.5t-95 40q-83 36 -131.5 51t-93.5 15q-106 0 -221 -99zM78 784q139 189 293 189q37 0 78.5 -10t68.5 -21t94 -39 q81 -35 130.5 -50t95.5 -15q111 0 221 98l71 -80q-140 -190 -292 -190q-37 0 -77 9.5t-70 21.5t-95 40q-83 36 -131.5 51t-93.5 15q-108 0 -221 -98z" />
<glyph unicode="&#x2260;" d="M57 307v172h441l57 174h-498v172h555l111 330h149l-110 -330h383v-172h-440l-60 -174h500v-172h-555l-109 -327h-149l110 327h-385z" />
<glyph unicode="&#x2264;" d="M98 0v180h1006v-180h-1006zM113 799l858 524l90 -166l-610 -358l610 -359l-90 -166z" />
<glyph unicode="&#x2265;" d="M96 0v180h1006v-180h-1006zM139 440l611 359l-611 358l92 166l859 -524l-859 -525z" />
<glyph unicode="&#x229b;" horiz-adv-x="1880" d="M82 682q0 174 68 333t183 274t274 183t333 68t333 -68t274 -183t183 -274t68 -333t-68 -333t-183 -274t-274 -183t-333 -68t-333 68t-274 183t-183 274t-68 333zM184 682q0 -153 60 -293t161.5 -241.5t241.5 -161.5t293 -60t293 60t241.5 161.5t161.5 241.5t60 293 t-60 293t-161.5 241.5t-241.5 161.5t-293 60t-293 -60t-241.5 -161.5t-161.5 -241.5t-60 -293zM418 449q0 61 55 92q22 13 53 22t77.5 19t74.5 18q93 25 203 82q-105 55 -203 82q-28 8 -74 18t-77.5 19t-53.5 22q-55 30 -55 92q0 31 16 60q36 55 94 55q31 0 56 -14 q20 -11 41 -31t55.5 -57.5t56.5 -59.5q74 -74 172 -135q-3 114 -28 217q-7 27 -21.5 72t-22.5 77t-8 56q0 50 31.5 80.5t79.5 30.5t79.5 -30.5t31.5 -80.5q0 -24 -8 -56t-22.5 -77t-21.5 -72q-24 -94 -30 -217q98 59 174 135q19 19 53 56t56.5 58.5t43.5 33.5q25 14 56 14 q58 0 94 -55q16 -29 16 -60q0 -62 -55 -92q-22 -13 -54 -22.5t-80 -20t-71 -16.5q-94 -25 -205 -82q119 -61 205 -82q34 -9 83 -20t75.5 -19t46.5 -20q55 -31 55 -92q0 -31 -16 -60q-36 -55 -94 -55q-31 0 -56 14q-20 11 -41 31t-55.5 57.5t-56.5 59.5q-68 68 -174 135 q6 -117 30 -217q8 -31 23 -77.5t22 -74t7 -51.5q0 -51 -31.5 -82t-79.5 -31t-79.5 31t-31.5 82q0 24 7 51.5t22 74t23 77.5q25 99 28 217q-109 -72 -172 -135q-18 -18 -52.5 -55.5t-57.5 -59.5t-43 -33q-25 -14 -56 -14q-58 0 -94 55q-16 29 -16 60z" />
<glyph unicode="&#x25a0;" horiz-adv-x="1568" d="M102 0v1364h1364v-1364h-1364z" />
<glyph unicode="&#x25a1;" horiz-adv-x="1568" d="M102 0v1364h1364v-1364h-1364zM205 102h1159v1160h-1159v-1160z" />
<glyph unicode="&#x25b2;" horiz-adv-x="1089" d="M66 0l479 1475l479 -1475h-958z" />
<glyph unicode="&#x25b6;" horiz-adv-x="960" d="M143 -41v1446l723 -723z" />
<glyph unicode="&#x25b7;" horiz-adv-x="960" d="M143 -41v1446l723 -723zM233 176l506 506l-506 506v-1012z" />
<glyph unicode="&#x25ba;" horiz-adv-x="1699" d="M143 203v958l1475 -479z" />
<glyph unicode="&#x25bb;" horiz-adv-x="1699" d="M143 203v958l1475 -479zM225 315l1131 367l-1131 367v-734z" />
<glyph unicode="&#x25bc;" horiz-adv-x="1089" d="M66 1364h958l-479 -1475z" />
<glyph unicode="&#x25c0;" horiz-adv-x="960" d="M94 682l723 723v-1446z" />
<glyph unicode="&#x25c1;" horiz-adv-x="960" d="M94 682l723 723v-1446zM221 682l506 -506v1012z" />
<glyph unicode="&#x25c4;" horiz-adv-x="1699" d="M82 682l1474 479v-958z" />
<glyph unicode="&#x25c5;" horiz-adv-x="1699" d="M82 682l1474 479v-958zM344 682l1131 -367v734z" />
<glyph unicode="&#x25ca;" horiz-adv-x="1243" d="M72 682l530 780h25l530 -780l-530 -780h-25zM268 682l346 -512l347 512l-347 510z" />
<glyph unicode="&#x25cb;" horiz-adv-x="1568" d="M61 682q0 196 97 362.5t263.5 263.5t362.5 97t362.5 -97t263.5 -263.5t97 -362.5t-97 -362.5t-263.5 -263.5t-362.5 -97t-362.5 97t-263.5 263.5t-97 362.5zM164 682q0 -168 83 -311t226 -226.5t311 -83.5t311 83.5t226.5 226.5t83.5 311t-83.5 311t-226.5 226.5 t-311 83.5t-311 -83.5t-226 -226.5t-83 -311z" />
<glyph unicode="&#x25cf;" horiz-adv-x="1568" d="M61 682q0 196 97 362.5t263.5 263.5t362.5 97t362.5 -97t263.5 -263.5t97 -362.5t-97 -362.5t-263.5 -263.5t-362.5 -97t-362.5 97t-263.5 263.5t-97 362.5z" />
<glyph unicode="&#x25fc;" horiz-adv-x="1075" d="M0 0v1075h1075v-1075h-1075z" />
<glyph unicode="&#x2605;" horiz-adv-x="1732" d="M66 889h610l190 581l191 -581h610l-493 -359l188 -583l-496 358l-495 -358l188 583z" />
<glyph unicode="&#x2606;" horiz-adv-x="1732" d="M66 889h610l190 581l191 -581h610l-493 -359l188 -583l-496 358l-495 -358l188 583zM866 346l434 -315l-165 512l432 313h-533l-168 514v-1024z" />
<glyph unicode="&#x271a;" horiz-adv-x="1568" d="M102 455v454h455v455h455v-455h454v-454h-454v-455h-455v455h-455z" />
<glyph unicode="&#x2765;" horiz-adv-x="1130" d="M0 672v20q116 0 276 316q7 13 30 59.5t32.5 64.5t29 51.5t37.5 56.5t39 44q105 105 250 105q146 0 250.5 -104.5t104.5 -250.5t-104 -248t-251 -102v-4q147 0 251 -102t104 -248t-104.5 -250.5t-250.5 -104.5q-145 0 -250 105q-10 10 -20 21.5t-18 21.5t-18 25.5 t-16 24.5t-16.5 28t-15 27t-16 31l-15 30t-17 33.5t-16.5 33.5q-160 316 -276 316z" />
<glyph unicode="&#x3008;" horiz-adv-x="630" d="M29 674v16l389 762l168 -84l-350 -686l350 -686l-168 -84z" />
<glyph unicode="&#x3009;" horiz-adv-x="628" d="M45 -4l350 686l-350 686l166 84l389 -762v-16l-389 -762z" />
<glyph unicode="&#x300a;" horiz-adv-x="1019" d="M29 674v16l389 762l168 -84l-350 -686l350 -686l-168 -84zM418 674v16l389 762l168 -84l-350 -686l350 -686l-168 -84z" />
<glyph unicode="&#x300b;" horiz-adv-x="1019" d="M45 -4l350 686l-350 686l168 84l389 -762v-16l-389 -762zM434 -4l352 686l-352 686l168 84l389 -762v-16l-389 -762z" />
<glyph unicode="&#xfb06;" horiz-adv-x="1914" d="M55 217l164 107q58 -82 149 -123t199 -41q104 0 164 37t60 106q0 15 -2.5 27t-9.5 23t-13 19t-20.5 16t-24.5 13t-31.5 11.5t-34.5 10t-41.5 9t-44.5 8.5t-51 9q-76 13 -132.5 28.5t-110 41t-87.5 58.5t-54.5 82t-20.5 111q0 83 34.5 147.5t94 103.5t134 59t159.5 20 q118 0 221 -41q0 36 10 78q23 150 135.5 249t298.5 99q143 0 228 -61.5t85 -188.5v-160h332v-182h-332v-557q0 -160 144 -160q79 0 137 47l90 -166q-105 -82 -256 -82q-201 0 -291 138q-51 76 -51 225v555h-180v182h180v137q0 56 -34.5 85.5t-100.5 29.5 q-112 0 -169.5 -76.5t-57.5 -183.5q0 -108 53 -188l-148 -95q-109 131 -294 131q-86 0 -144.5 -30.5t-58.5 -89.5q0 -23 8 -41t28 -31.5t38 -23t54 -18.5t59.5 -13.5t68.5 -12.5q78 -14 133 -28t114.5 -39.5t95.5 -58t59.5 -84t23.5 -117.5q0 -160 -123 -256.5t-336 -96.5 q-167 0 -297 62t-203 180z" />
<glyph unicode="&#x1f4d5;" horiz-adv-x="1794" d="M123 1108q0 158 78.5 292.5t213 213t292.5 78.5v-82q-136 0 -251.5 -67.5t-183 -183t-67.5 -251.5h-82zM287 1108q0 173 123.5 296.5t296.5 123.5v-82q-139 0 -238.5 -99t-99.5 -239h-82zM451 74v1034q0 106 75 181t181 75h927v-1462h-1011q-71 0 -121.5 51t-50.5 121z M532 74q0 -37 27 -63.5t64 -26.5h938q-25 42 -25 90t25 90h-938q-37 0 -64 -26.5t-27 -63.5zM686 762q0 -159 98 -259t273 -100q187 0 329 129l-129 117q-86 -80 -188 -80q-74 0 -121 39.5t-51 108.5h498q2 14 2 49q0 164 -91.5 260t-256.5 96q-166 0 -264.5 -101 t-98.5 -259zM899 840q4 64 45.5 99.5t106.5 35.5t105 -34.5t46 -100.5h-303z" />
<glyph unicode="&#x1f4d6;" horiz-adv-x="1880" d="M160 164v1036q0 109 76.5 185.5t185.5 76.5h1036q109 0 185.5 -76.5t76.5 -185.5v-1036q0 -109 -76.5 -185.5t-185.5 -76.5h-1036q-109 0 -185.5 76.5t-76.5 185.5zM422 426q95 0 176.5 -20t135.5 -51t92.5 -68t55.5 -70.5t17 -60.5h21v700q0 34 -30.5 78t-88 88t-158 74 t-221.5 30v-700zM961 156h20q0 27 17 60.5t55.5 70.5t92.5 68t135.5 51t176.5 20v700q-98 0 -183 -20t-141 -51t-96.5 -68t-58.5 -70.5t-18 -60.5v-700z" />
<glyph unicode="&#x1f50c;" horiz-adv-x="1880" d="M82 682q0 174 68 333t183 274t274 183t333 68q211 0 395.5 -96.5t304 -264t148.5 -372.5h-248q-43 211 -211 350t-389 139q-62 0 -117 -12v-237h-346v-240h346v-250h-346v-240h346v-239q62 -10 117 -10q221 0 389 138.5t211 350.5h248q-29 -205 -148.5 -372.5t-304 -264 t-395.5 -96.5q-174 0 -333 68t-274 183t-183 274t-68 333z" />
<glyph unicode="&#x1f697;" horiz-adv-x="2605" d="M102 528q0 176 51 329.5t143 267.5t216 195.5t273 123t311 41.5q311 0 528 -152t301 -432q132 -15 240 -52t188.5 -95t125 -141.5t44.5 -184.5q0 -120 -57.5 -194t-153.5 -74h-31q-27 -86 -98 -139.5t-162 -53.5q-90 0 -162 54t-98 139h-897q-27 -86 -98 -139.5 t-162 -53.5q-90 0 -162 54t-98 139q-128 0 -185 95t-57 273zM469 950q0 -63 83.5 -84.5t274.5 -21.5h537q191 0 274.5 21.5t83.5 84.5q0 36 -20 72q-76 147 -244 233t-362 86t-362.5 -86t-244.5 -233q-20 -36 -20 -72z" />
<glyph unicode="&#x1f698;" horiz-adv-x="1970" d="M119 578q0 215 65 388t181 286t274.5 173t345.5 60t345.5 -60t274.5 -173t181 -286t65 -388q0 -91 -12 -160.5t-35 -117.5t-48 -79t-60 -61v-64q0 -69 -40.5 -95t-131.5 -26t-132.5 26t-41.5 95v64h-729v-64q0 -69 -42 -95t-133 -26t-131.5 26t-40.5 95v64q-35 30 -60 61 t-48 79t-35 117.5t-12 160.5zM315 541q0 -61 43.5 -104.5t104.5 -43.5t104 43t43 105q0 61 -43 104t-104 43q-62 0 -105 -43t-43 -104zM358 950q0 -63 84 -84.5t275 -21.5h536q191 0 275 21.5t84 84.5q0 34 -21 72q-76 147 -244 233t-362 86t-362 -86t-244 -233 q-21 -38 -21 -72zM1360 541q0 -62 43 -105t104 -43t104.5 43.5t43.5 104.5t-43 104t-105 43q-61 0 -104 -43t-43 -104z" />
<glyph horiz-adv-x="1064" d="M25 211l194 117q80 -138 230 -138q112 0 165.5 65.5t53.5 184.5v715h-383v209h622v-920q0 -225 -125 -347t-336 -122q-293 0 -421 236z" />
<glyph horiz-adv-x="1527" d="M86 682q0 149 47.5 278.5t134 224.5t214.5 149.5t282 54.5t282 -54.5t214.5 -149.5t134 -224.5t47.5 -278.5q0 -157 -52.5 -290.5t-150.5 -229.5l158 -178l-172 -142l-162 197q-137 -64 -299 -64q-154 0 -282 54.5t-214.5 149.5t-134 224.5t-47.5 278.5zM336 682 q0 -215 114.5 -350t313.5 -135q197 0 312.5 135t115.5 350t-115.5 350t-312.5 135q-199 0 -313.5 -135t-114.5 -350z" />
<glyph horiz-adv-x="1355" d="M82 537q0 160 59 287t172 201.5t262 74.5q228 0 363 -182v157h227v-825q0 -53 17 -75.5t57 -22.5q39 0 59 14l27 -156q-56 -26 -137 -26q-86 0 -149.5 40.5t-86.5 129.5q-126 -179 -372 -179q-153 0 -267 74.5t-172.5 201.5t-58.5 286zM322 537q0 -158 78 -258.5 t225 -100.5q149 0 231 101.5t82 257.5q0 157 -82 258.5t-231 101.5q-147 0 -225 -101t-78 -259z" />
<glyph horiz-adv-x="608" d="M152 283v1179h225v-1181q0 -63 24 -88t70 -25q57 0 92 22l43 -172q-61 -38 -174 -38q-164 0 -235 98q-45 66 -45 205z" />
<glyph horiz-adv-x="1234" d="M121 -254l98 174q131 -98 322 -98q144 0 231.5 67t87.5 207v142q-139 -181 -352 -181q-175 0 -273 108t-98 292v618h225v-565q0 -246 213 -246q123 0 204 80t81 211v520h225v-930q0 -244 -116 -368q-148 -154 -428 -154q-245 0 -420 123z" />
<glyph horiz-adv-x="1230" d="M27 0l456 1120h265l456 -1120h-241l-109 272h-487l-109 -272h-231zM430 453h361l-179 479z" />
<glyph horiz-adv-x="1200" d="M160 0v1120h536q169 0 269 -74.5t100 -203.5q0 -75 -39 -139t-113 -101q96 -39 145.5 -110.5t49.5 -167.5q0 -145 -101 -234.5t-284 -89.5h-563zM387 186h324q76 0 121 42t45 110q0 70 -44 114t-126 44h-320v-310zM387 672h293q71 0 113.5 38t42.5 97q0 63 -43 95 t-109 32h-297v-262z" />
<glyph horiz-adv-x="1200" d="M86 561q0 257 157.5 421.5t411.5 164.5q315 0 475 -256l-180 -111q-44 85 -120 129.5t-171 44.5q-156 0 -248 -112t-92 -281q0 -170 92 -281.5t248 -111.5q95 0 171.5 45.5t121.5 130.5l183 -104q-70 -126 -194.5 -195.5t-285.5 -69.5q-254 0 -411.5 164.5t-157.5 421.5z " />
<glyph horiz-adv-x="1288" d="M160 0v1120h475q134 0 241.5 -41.5t177.5 -116t107 -176.5t37 -223q0 -253 -148 -408t-415 -155h-475zM387 193h248q158 0 243 101t85 269q0 166 -84.5 265.5t-243.5 99.5h-248v-735z" />
<glyph horiz-adv-x="1120" d="M160 0v1120h852v-192h-625v-252h549v-180h-549v-303h645v-193h-872z" />
<glyph horiz-adv-x="1095" d="M160 0v1120h872v-192h-645v-275h549v-180h-549v-473h-227z" />
<glyph horiz-adv-x="1280" d="M86 561q0 258 159.5 422t418.5 164q156 0 279.5 -66.5t199.5 -185.5l-185 -102q-96 161 -294 161q-159 0 -250.5 -111.5t-91.5 -285.5q0 -176 92 -284.5t256 -108.5q141 0 225 70.5t92 179.5h-299v180h514q8 -33 8 -88q0 -109 -36 -204.5t-103 -168.5t-172 -115.5 t-235 -42.5q-263 0 -420.5 163.5t-157.5 422.5z" />
<glyph horiz-adv-x="1310" d="M160 0v1120h227v-438h537v438h227v-1120h-227v489h-537v-489h-227z" />
<glyph horiz-adv-x="546" d="M160 0v1120h227v-1120h-227z" />
<glyph horiz-adv-x="935" d="M18 178l181 109q62 -119 192 -119q172 0 172 194v758h225v-758q0 -180 -105.5 -283.5t-293.5 -103.5q-259 0 -371 203z" />
<glyph horiz-adv-x="946" d="M29 178l180 109q62 -119 192 -119q172 0 172 194v566h-313v192h539v-758q0 -180 -106 -283.5t-294 -103.5q-258 0 -370 203z" />
<glyph horiz-adv-x="1198" d="M160 0v1120h227v-551l479 551h279l-432 -471l467 -649h-275l-348 496q-65 -69 -170 -191v-305h-227z" />
<glyph horiz-adv-x="1034" d="M160 0v1120h227v-927h608v-193h-835z" />
<glyph horiz-adv-x="1591" d="M160 0v1120h319l320 -841l317 841h316v-1120h-218v864l-333 -864h-174l-332 860v-860h-215z" />
<glyph horiz-adv-x="1314" d="M160 0v1120h284l498 -829v829h213v-1120h-270l-514 846v-846h-211z" />
<glyph horiz-adv-x="1320" d="M86 561q0 164 68 296t200 211t305 79q131 0 240.5 -45.5t182.5 -125t113 -186t40 -227.5q0 -165 -68.5 -297.5t-201 -211.5t-306.5 -79q-173 0 -305 79t-200 211t-68 296zM322 561q0 -167 90.5 -277t246.5 -110q158 0 250 110.5t92 278.5q0 165 -92 274t-250 109 q-156 0 -246.5 -109.5t-90.5 -275.5z" />
<glyph horiz-adv-x="1150" d="M160 0v1120h526q186 0 297 -99.5t111 -266.5t-111 -267t-297 -100h-299v-387h-227zM387 580h283q92 0 144 43.5t52 130.5t-52 130.5t-144 43.5h-283v-348z" />
<glyph horiz-adv-x="1320" d="M86 561q0 163 68 295t200 210.5t305 78.5q131 0 240.5 -45.5t182.5 -124.5t113 -185t40 -227q0 -132 -45 -245t-129 -193l127 -141l-139 -121l-140 164q-113 -52 -250 -52q-174 0 -305.5 78.5t-199.5 210.5t-68 297zM322 557q0 -168 90 -278.5t247 -110.5q61 0 113 25 l-117 135l129 110l127 -145q90 104 90 266q0 166 -92 276.5t-250 110.5q-156 0 -246.5 -111t-90.5 -278z" />
<glyph horiz-adv-x="1325" d="M86 561q0 163 68 295t200 210.5t305 78.5q131 0 240.5 -45.5t182.5 -124.5t113 -185t40 -227q0 -124 -42.5 -233t-121.5 -189l129 -147l-151 -131l-142 166q-111 -54 -248 -54q-174 0 -305.5 78.5t-199.5 210.5t-68 297zM322 561q0 -168 90 -277.5t247 -109.5 q158 0 250 110.5t92 278.5q0 164 -92 273.5t-250 109.5q-156 0 -246.5 -109.5t-90.5 -275.5z" />
<glyph horiz-adv-x="1210" d="M160 0v1120h542q190 0 297 -95.5t107 -252.5q0 -229 -227 -321l254 -451h-250l-226 412h-270v-412h-227zM387 594h305q85 0 135 44t50 122t-49.5 123t-135.5 45h-305v-334z" />
<glyph horiz-adv-x="1118" d="M57 229l172 105q55 -89 149 -132.5t197 -43.5q101 0 165.5 41t64.5 114q0 26 -8 46.5t-27.5 36t-41 27t-60 22t-72.5 17.5t-90 17q-90 17 -156 40t-121 60.5t-83.5 94.5t-28.5 133q0 160 120.5 249t307.5 89q151 0 270 -58t201 -159l-154 -117q-55 70 -140 111t-181 41 q-53 0 -96 -12.5t-73 -44.5t-30 -79q0 -29 12.5 -50.5t29.5 -35t55.5 -26t67 -19t87.5 -18.5q57 -11 96.5 -20.5t89 -25t83.5 -32.5t68.5 -42.5t55.5 -55.5t34 -71.5t13 -90.5q0 -163 -127 -264t-344 -101q-176 0 -303.5 67.5t-202.5 186.5z" />
<glyph horiz-adv-x="1099" d="M61 928v192h977v-192h-376v-928h-226v928h-375z" />
<glyph horiz-adv-x="1271" d="M145 436v684h228v-684q0 -129 69.5 -196.5t192.5 -67.5q122 0 193 67.5t71 196.5v684h227v-684q0 -221 -133.5 -341t-357.5 -120q-222 0 -356 120t-134 341z" />
<glyph horiz-adv-x="1173" d="M25 1120h249l316 -864l311 864h248l-440 -1120h-244z" />
<glyph horiz-adv-x="1689" d="M55 1120h242l209 -835l242 835h202l240 -841l205 841h243l-319 -1120h-246l-229 815l-228 -815h-249z" />
<glyph horiz-adv-x="1212" d="M23 0l440 588l-406 532h277l274 -389l275 389h272l-401 -532l436 -588h-275l-311 424l-309 -424h-272z" />
<glyph horiz-adv-x="1146" d="M14 1120h267l297 -467q42 67 140.5 225.5t151.5 241.5h263l-447 -671v-449h-227v446q-232 353 -445 674z" />
<glyph horiz-adv-x="1107" d="M84 0v168l614 760h-589v192h897v-162l-621 -765h635v-193h-936z" />
<glyph horiz-adv-x="1355" d="M82 537q0 160 59 287t172 201.5t262 74.5q228 0 363 -182v157h227v-825q0 -53 17 -75.5t57 -22.5q39 0 59 14l27 -156q-56 -26 -137 -26q-86 0 -149.5 40.5t-86.5 129.5q-126 -179 -372 -179q-153 0 -267 74.5t-172.5 201.5t-58.5 286zM322 537q0 -158 78 -258.5 t225 -100.5q149 0 231 101.5t82 257.5q0 157 -82 258.5t-231 101.5q-147 0 -225 -101t-78 -259zM514 1237q126 153 176 258l201 -33q-33 -74 -117 -154.5t-174 -129.5z" />
<glyph horiz-adv-x="1230" d="M27 0l456 1120h265l456 -1120h-241l-109 272h-487l-109 -272h-231zM430 453h361l-179 479zM506 1237q126 153 176 258l201 -33q-33 -74 -117 -154.5t-174 -129.5z" />
<glyph horiz-adv-x="1355" d="M82 537q0 160 59 287t172 201.5t262 74.5q228 0 363 -182v157h227v-825q0 -53 17 -75.5t57 -22.5q39 0 59 14l27 -156q-56 -26 -137 -26q-86 0 -149.5 40.5t-86.5 129.5q-126 -179 -372 -179q-153 0 -267 74.5t-172.5 201.5t-58.5 286zM293 1446l119 37q21 -61 76.5 -97 t140.5 -36q86 0 141.5 36t75.5 97l119 -37q-18 -107 -107 -175.5t-229 -68.5t-228 68.5t-108 175.5zM322 537q0 -158 78 -258.5t225 -100.5q149 0 231 101.5t82 257.5q0 157 -82 258.5t-231 101.5q-147 0 -225 -101t-78 -259z" />
<glyph horiz-adv-x="1230" d="M27 0l456 1120h265l456 -1120h-241l-109 272h-487l-109 -272h-231zM276 1446l119 37q21 -61 76.5 -97t140.5 -36q86 0 141.5 36t75.5 97l119 -37q-18 -107 -107 -175.5t-229 -68.5t-228 68.5t-108 175.5zM430 453h361l-179 479z" />
<glyph horiz-adv-x="1355" d="M82 537q0 160 59 287t172 201.5t262 74.5q228 0 363 -182v157h227v-825q0 -53 17 -75.5t57 -22.5q39 0 59 14l27 -156q-56 -26 -137 -26q-86 0 -149.5 40.5t-86.5 129.5q-126 -179 -372 -179q-153 0 -267 74.5t-172.5 201.5t-58.5 286zM279 1282q146 96 262 203h168 q120 -108 262 -203l-58 -96q-78 23 -155.5 64t-132.5 87q-53 -46 -130.5 -87t-158.5 -64zM322 537q0 -158 78 -258.5t225 -100.5q149 0 231 101.5t82 257.5q0 157 -82 258.5t-231 101.5q-147 0 -225 -101t-78 -259z" />
<glyph horiz-adv-x="1230" d="M27 0l456 1120h265l456 -1120h-241l-109 272h-487l-109 -272h-231zM266 1282q146 96 262 203h168q120 -108 262 -203l-57 -96q-79 23 -156.5 64t-132.5 87q-53 -47 -130.5 -87.5t-157.5 -63.5zM430 453h361l-179 479z" />
<glyph horiz-adv-x="1355" d="M82 537q0 160 59 287t172 201.5t262 74.5q228 0 363 -182v157h227v-825q0 -53 17 -75.5t57 -22.5q39 0 59 14l27 -156q-56 -26 -137 -26q-86 0 -149.5 40.5t-86.5 129.5q-126 -179 -372 -179q-153 0 -267 74.5t-172.5 201.5t-58.5 286zM313 1217v186h183v-186h-183z M322 537q0 -158 78 -258.5t225 -100.5q149 0 231 101.5t82 257.5q0 157 -82 258.5t-231 101.5q-147 0 -225 -101t-78 -259zM756 1217v186h180v-186h-180z" />
<glyph horiz-adv-x="1230" d="M27 0l456 1120h265l456 -1120h-241l-109 272h-487l-109 -272h-231zM301 1217v186h182v-186h-182zM430 453h361l-179 479zM743 1217v186h181v-186h-181z" />
<glyph horiz-adv-x="1910" d="M-14 0l696 1364h1120v-209h-647v-334h551v-209h-551v-403h668v-209h-910v606q-82 -12 -158 -40.5t-154 -78t-147.5 -130.5t-121.5 -187l-86 -170h-260zM578 680q149 97 335 127v371h-88z" />
<glyph horiz-adv-x="2062" d="M82 539q0 158 59 285t172 201.5t262 74.5q228 0 363 -182v157h227v-135q133 160 334 160q222 0 356 -153t134 -392q0 -36 -4 -72h-820q7 -146 96 -227.5t232 -81.5q183 0 309 135l150 -139q-185 -195 -467 -195q-155 0 -270 60t-181 170q-63 -106 -174.5 -168t-251.5 -62 q-159 0 -279 72.5t-183.5 200t-63.5 291.5zM322 537q0 -158 78 -258.5t225 -100.5q149 0 231 101.5t82 257.5q0 157 -82 258.5t-231 101.5q-147 0 -225 -101t-78 -259zM1167 641h592q-10 132 -92 204.5t-203 72.5q-125 0 -205.5 -76t-91.5 -201z" />
<glyph horiz-adv-x="1689" d="M6 0l604 1120h971v-190h-551v-254h469v-178h-469v-310h572v-188h-797v283h-406v2l-147 -285h-246zM492 461h313v481h-66z" />
<glyph horiz-adv-x="1712" d="M6 0l604 1120h994v-190h-549v-254h469v-178h-469v-310h569v-188h-797v485q-164 -30 -297.5 -116.5t-197.5 -214.5l-80 -154h-246zM532 549q134 88 295 115v278h-88z" />
<glyph horiz-adv-x="1910" d="M-14 0l696 1364h1120v-209h-647v-334h551v-209h-551v-403h668v-209h-910v606q-82 -12 -158 -40.5t-154 -78t-147.5 -130.5t-121.5 -187l-86 -170h-260zM578 680q149 97 335 127v371h-88zM862 1495q126 153 176 258l201 -33q-33 -74 -117 -154.5t-174 -129.5z" />
<glyph horiz-adv-x="2062" d="M82 539q0 158 59 285t172 201.5t262 74.5q228 0 363 -182v157h227v-135q133 160 334 160q222 0 356 -153t134 -392q0 -36 -4 -72h-820q7 -146 96 -227.5t232 -81.5q183 0 309 135l150 -139q-185 -195 -467 -195q-155 0 -270 60t-181 170q-63 -106 -174.5 -168t-251.5 -62 q-159 0 -279 72.5t-183.5 200t-63.5 291.5zM322 537q0 -158 78 -258.5t225 -100.5q149 0 231 101.5t82 257.5q0 157 -82 258.5t-231 101.5q-147 0 -225 -101t-78 -259zM942 1237q126 153 176 258l201 -33q-33 -74 -117 -154.5t-174 -129.5zM1167 641h592q-10 132 -92 204.5 t-203 72.5q-125 0 -205.5 -76t-91.5 -201z" />
<glyph horiz-adv-x="1689" d="M6 0l604 1120h971v-190h-551v-254h469v-178h-469v-310h572v-188h-797v283h-406v2l-147 -285h-246zM492 461h313v481h-66zM772 1237q126 153 176 258l201 -33q-33 -74 -117 -154.5t-174 -129.5z" />
<glyph horiz-adv-x="1712" d="M6 0l604 1120h994v-190h-549v-254h469v-178h-469v-310h569v-188h-797v485q-164 -30 -297.5 -116.5t-197.5 -214.5l-80 -154h-246zM532 549q134 88 295 115v278h-88zM770 1237q126 153 176 258l201 -33q-33 -74 -117 -154.5t-174 -129.5z" />
<glyph horiz-adv-x="1355" d="M82 537q0 160 59 287t172 201.5t262 74.5q228 0 363 -182v157h227v-825q0 -53 17 -75.5t57 -22.5q39 0 59 14l27 -156q-56 -26 -137 -26q-86 0 -149.5 40.5t-86.5 129.5q-126 -179 -372 -179q-153 0 -267 74.5t-172.5 201.5t-58.5 286zM322 537q0 -158 78 -258.5 t225 -100.5q149 0 231 101.5t82 257.5q0 157 -82 258.5t-231 101.5q-147 0 -225 -101t-78 -259zM383 1462l201 33q50 -105 176 -258l-86 -59q-90 49 -174 129.5t-117 154.5z" />
<glyph horiz-adv-x="1230" d="M27 0l456 1120h265l456 -1120h-241l-109 272h-487l-109 -272h-231zM371 1462l200 33q48 -102 177 -258l-86 -59q-90 49 -174 129.5t-117 154.5zM430 453h361l-179 479z" />
<glyph horiz-adv-x="1355" d="M82 537q0 160 59 287t172 201.5t262 74.5q228 0 363 -182v157h227v-825q0 -53 17 -75.5t57 -22.5q39 0 59 14l27 -156q-56 -26 -137 -26q-86 0 -149.5 40.5t-86.5 129.5q-126 -179 -372 -179q-153 0 -267 74.5t-172.5 201.5t-58.5 286zM313 1237v137h637v-137h-637z M322 537q0 -158 78 -258.5t225 -100.5q149 0 231 101.5t82 257.5q0 157 -82 258.5t-231 101.5q-147 0 -225 -101t-78 -259z" />
<glyph horiz-adv-x="1230" d="M27 0l456 1120h265l456 -1120h-241l-109 272h-487l-109 -272h-231zM295 1237v137h637v-137h-637zM430 453h361l-179 479z" />
<glyph horiz-adv-x="1355" d="M82 537q0 160 59 287t172 201.5t262 74.5q228 0 363 -182v157h227v-825q0 -53 17 -75.5t57 -22.5q39 0 59 14l27 -156q-56 -26 -137 -26q-34 0 -64 6q-53 -59 -53 -117q0 -44 30 -68t79 -24q83 0 143 67v-155q-26 -24 -72 -41t-102 -17q-99 0 -164 49.5t-65 133.5 q0 118 120 205q-66 43 -88 131q-126 -179 -372 -179q-153 0 -267 74.5t-172.5 201.5t-58.5 286zM322 537q0 -158 78 -258.5t225 -100.5q149 0 231 101.5t82 257.5q0 157 -82 258.5t-231 101.5q-147 0 -225 -101t-78 -259z" />
<glyph horiz-adv-x="1230" d="M27 0l456 1120h265l456 -1120q-233 -28 -233 -133q0 -38 29 -62t75 -24q74 0 127 67v-155q-54 -58 -160 -58q-94 0 -158.5 50t-64.5 131q0 112 139 192l-104 264h-487l-109 -272h-231zM430 453h361l-179 479z" />
<glyph horiz-adv-x="1355" d="M82 537q0 160 59 287t172 201.5t262 74.5q228 0 363 -182v157h227v-825q0 -53 17 -75.5t57 -22.5q39 0 59 14l27 -156q-56 -26 -137 -26q-86 0 -149.5 40.5t-86.5 129.5q-126 -179 -372 -179q-153 0 -267 74.5t-172.5 201.5t-58.5 286zM322 537q0 -158 78 -258.5 t225 -100.5q149 0 231 101.5t82 257.5q0 157 -82 258.5t-231 101.5q-147 0 -225 -101t-78 -259zM397 1386q0 89 67 152.5t165 63.5q97 0 163 -63.5t66 -152.5q0 -88 -65.5 -149t-163.5 -61q-99 0 -165.5 61t-66.5 149zM516 1386q0 -45 33.5 -77.5t79.5 -32.5q45 0 77.5 32.5 t32.5 77.5q0 46 -33 79.5t-77 33.5q-46 0 -79.5 -33.5t-33.5 -79.5z" />
<glyph horiz-adv-x="1230" d="M27 0l438 1077q-80 52 -80 158q0 88 65.5 149.5t163.5 61.5q97 0 163.5 -62t66.5 -149q0 -95 -80 -158l440 -1077h-241l-111 283h-483l-111 -283h-231zM432 461h356l-176 471zM502 1233q0 -47 33 -80t79 -33t79.5 33t33.5 80q0 46 -33.5 79.5t-79.5 33.5t-79 -33.5 t-33 -79.5z" />
<glyph horiz-adv-x="1355" d="M82 537q0 160 59 287t172 201.5t262 74.5q228 0 363 -182v157h227v-825q0 -53 17 -75.5t57 -22.5q39 0 59 14l27 -156q-56 -26 -137 -26q-86 0 -149.5 40.5t-86.5 129.5q-126 -179 -372 -179q-153 0 -267 74.5t-172.5 201.5t-58.5 286zM322 537q0 -158 78 -258.5 t225 -100.5q149 0 231 101.5t82 257.5q0 157 -82 258.5t-231 101.5q-147 0 -225 -101t-78 -259zM397 1350q0 89 66.5 152t165.5 63q97 0 163 -63t66 -152q0 -88 -65.5 -149.5t-163.5 -61.5q-99 0 -165.5 61.5t-66.5 149.5zM481 1651q126 153 176 258l201 -33 q-33 -74 -117 -155t-174 -130zM516 1350q0 -46 33.5 -78.5t79.5 -32.5q45 0 77.5 32.5t32.5 78.5t-33 79t-77 33q-46 0 -79.5 -33t-33.5 -79z" />
<glyph horiz-adv-x="1230" d="M27 0l438 1077q-80 52 -80 158q0 88 65.5 149.5t163.5 61.5q97 0 163.5 -62t66.5 -149q0 -95 -80 -158l440 -1077h-241l-111 283h-483l-111 -283h-231zM432 461h356l-176 471zM481 1542q126 153 176 258l201 -33q-33 -74 -117 -154.5t-174 -129.5zM502 1233q0 -47 33 -80 t79 -33t79.5 33t33.5 80q0 46 -33.5 79.5t-79.5 33.5t-79 -33.5t-33 -79.5z" />
<glyph horiz-adv-x="1355" d="M82 537q0 160 59 287t172 201.5t262 74.5q228 0 363 -182v157h227v-825q0 -53 17 -75.5t57 -22.5q39 0 59 14l27 -156q-56 -26 -137 -26q-86 0 -149.5 40.5t-86.5 129.5q-126 -179 -372 -179q-153 0 -267 74.5t-172.5 201.5t-58.5 286zM270 1270q32 80 90.5 130t128.5 50 q51 0 140.5 -39t128.5 -39q74 0 139 80l86 -57q-34 -81 -92 -132t-127 -51q-52 0 -140 40t-126 40q-79 0 -142 -80zM322 537q0 -158 78 -258.5t225 -100.5q149 0 231 101.5t82 257.5q0 157 -82 258.5t-231 101.5q-147 0 -225 -101t-78 -259z" />
<glyph horiz-adv-x="1230" d="M27 0l456 1120h265l456 -1120h-241l-109 272h-487l-109 -272h-231zM256 1270q32 80 90.5 130t128.5 50q51 0 140 -39t128 -39q75 0 140 80l86 -57q-34 -81 -92 -132t-127 -51q-52 0 -141 40t-126 40q-78 0 -141 -80zM430 453h361l-179 479z" />
<glyph horiz-adv-x="1200" d="M86 561q0 257 157.5 421.5t411.5 164.5q315 0 475 -256l-180 -111q-44 85 -120 129.5t-171 44.5q-156 0 -248 -112t-92 -281q0 -170 92 -281.5t248 -111.5q95 0 171.5 45.5t121.5 130.5l183 -104q-70 -126 -194.5 -195.5t-285.5 -69.5q-254 0 -411.5 164.5t-157.5 421.5z M545 1235q102 128 155 260l201 -33q-32 -74 -107 -151.5t-161 -132.5z" />
<glyph horiz-adv-x="1200" d="M86 561q0 257 157.5 421.5t411.5 164.5q315 0 475 -256l-180 -111q-44 85 -120 129.5t-171 44.5q-156 0 -248 -112t-92 -281q0 -170 92 -281.5t248 -111.5q95 0 171.5 45.5t121.5 130.5l183 -104q-70 -126 -194.5 -195.5t-285.5 -69.5q-254 0 -411.5 164.5t-157.5 421.5z M299 1397l57 96q80 -23 157.5 -64t131.5 -88q122 103 289 152l57 -96q-142 -95 -262 -203h-168q-116 107 -262 203z" />
<glyph horiz-adv-x="1200" d="M88 561q0 257 157.5 421.5t411.5 164.5q152 0 274 -64t202 -192l-181 -111q-44 85 -119.5 129.5t-170.5 44.5q-156 0 -248 -112t-92 -281q0 -170 92 -281.5t248 -111.5q95 0 171 45.5t121 130.5l183 -104q-62 -111 -168.5 -179t-243.5 -81q78 -65 78 -152 q0 -81 -65 -130.5t-163 -49.5q-112 0 -169 53v145q61 -61 143 -61q44 0 73 23t29 63q0 56 -59 109q-228 22 -366 182t-138 399z" />
<glyph horiz-adv-x="1200" d="M86 561q0 257 157.5 421.5t411.5 164.5q315 0 475 -256l-180 -111q-44 85 -120 129.5t-171 44.5q-156 0 -248 -112t-92 -281q0 -170 92 -281.5t248 -111.5q95 0 171.5 45.5t121.5 130.5l183 -104q-70 -126 -194.5 -195.5t-285.5 -69.5q-254 0 -411.5 164.5t-157.5 421.5z M549 1221v182h190v-182h-190z" />
<glyph horiz-adv-x="1200" d="M86 561q0 257 157.5 421.5t411.5 164.5q315 0 475 -256l-180 -111q-44 85 -120 129.5t-171 44.5q-156 0 -248 -112t-92 -281q0 -170 92 -281.5t248 -111.5q95 0 171.5 45.5t121.5 130.5l183 -104q-70 -126 -194.5 -195.5t-285.5 -69.5q-254 0 -411.5 164.5t-157.5 421.5z M297 1282q146 96 262 203h168q120 -108 262 -203l-57 -96q-79 23 -156.5 64t-132.5 87q-53 -46 -130.5 -87t-158.5 -64z" />
<glyph horiz-adv-x="1288" d="M160 0v1120h475q134 0 241.5 -41.5t177.5 -116t107 -176.5t37 -223q0 -253 -148 -408t-415 -155h-475zM283 1397l57 96q80 -23 157.5 -64t131.5 -88q122 103 289 152l57 -96q-142 -95 -262 -203h-168q-116 107 -262 203zM387 193h248q158 0 243 101t85 269 q0 166 -84.5 265.5t-243.5 99.5h-248v-735z" />
<glyph horiz-adv-x="1290" d="M37 487v146h123v487h477q134 0 241.5 -41.5t177.5 -116t107 -176.5t37 -223q0 -253 -148 -408t-415 -155h-477v487h-123zM387 193h250q158 0 243 101t85 269q0 166 -84.5 265.5t-243.5 99.5h-250v-295h275v-146h-275v-294z" />
<glyph horiz-adv-x="1120" d="M160 0v1120h852v-192h-625v-252h549v-180h-549v-303h645v-193h-872zM469 1237q126 153 176 258l201 -33q-33 -74 -117 -154.5t-174 -129.5z" />
<glyph horiz-adv-x="1120" d="M160 0v1120h852v-192h-625v-252h549v-180h-549v-303h645v-193h-872zM258 1446l119 37q21 -61 76.5 -97t140.5 -36q86 0 141.5 36t75.5 97l119 -37q-18 -107 -107 -175.5t-229 -68.5t-228 68.5t-108 175.5z" />
<glyph horiz-adv-x="1120" d="M160 0v1120h852v-192h-625v-252h549v-180h-549v-303h645v-193h-872zM242 1397l57 96q80 -23 157.5 -64t131.5 -88q122 103 289 152l57 -96q-142 -95 -262 -203h-168q-116 107 -262 203z" />
<glyph horiz-adv-x="1120" d="M160 0v1120h852v-192h-625v-252h549v-180h-549v-303h645v-193h-872zM254 1282q146 96 262 203h168q120 -108 262 -203l-57 -96q-79 23 -156.5 64t-132.5 87q-53 -46 -130.5 -87t-158.5 -64z" />
<glyph horiz-adv-x="1120" d="M160 0v1120h852v-192h-625v-252h549v-180h-549v-303h645v-193h-872zM283 1217v186h182v-186h-182zM725 1217v186h180v-186h-180z" />
<glyph horiz-adv-x="1120" d="M160 0v1120h852v-192h-625v-252h549v-180h-549v-303h645v-193h-872zM500 1221v182h190v-182h-190z" />
<glyph horiz-adv-x="1120" d="M160 0v1120h852v-192h-625v-252h549v-180h-549v-303h645v-193h-872zM360 1462l201 33q50 -105 176 -258l-86 -59q-90 49 -174 129.5t-117 154.5z" />
<glyph horiz-adv-x="1120" d="M160 0v1120h852v-192h-625v-252h549v-180h-549v-303h645v-193h-872zM283 1237v137h637v-137h-637z" />
<glyph horiz-adv-x="1120" d="M160 0v1120h852v-192h-625v-252h549v-180h-549v-303h645v-193h-188q-64 -64 -64 -127q0 -44 30 -68t79 -24q83 0 143 67v-155q-26 -24 -72 -41t-102 -17q-99 0 -164 49.5t-65 133.5q0 101 94 182h-563z" />
<glyph horiz-adv-x="1290" d="M37 487v146h123v487h477q134 0 241.5 -41.5t177.5 -116t107 -176.5t37 -223q0 -253 -148 -408t-415 -155h-477v487h-123zM387 193h250q158 0 243 101t85 269q0 166 -84.5 265.5t-243.5 99.5h-250v-295h275v-146h-275v-294z" />
<glyph horiz-adv-x="1280" d="M86 561q0 258 159.5 422t418.5 164q156 0 279.5 -66.5t199.5 -185.5l-185 -102q-96 161 -294 161q-159 0 -250.5 -111.5t-91.5 -285.5q0 -176 92 -284.5t256 -108.5q141 0 225 70.5t92 179.5h-299v180h514q8 -33 8 -88q0 -109 -36 -204.5t-103 -168.5t-172 -115.5 t-235 -42.5q-263 0 -420.5 163.5t-157.5 422.5zM324 1446l118 37q21 -61 76.5 -97t140.5 -36q86 0 142.5 36t75.5 97l118 -37q-18 -107 -107 -175.5t-229 -68.5t-227.5 68.5t-107.5 175.5z" />
<glyph horiz-adv-x="1280" d="M86 561q0 258 159.5 422t418.5 164q156 0 279.5 -66.5t199.5 -185.5l-185 -102q-96 161 -294 161q-159 0 -250.5 -111.5t-91.5 -285.5q0 -176 92 -284.5t256 -108.5q141 0 225 70.5t92 179.5h-299v180h514q8 -33 8 -88q0 -109 -36 -204.5t-103 -168.5t-172 -115.5 t-235 -42.5q-263 0 -420.5 163.5t-157.5 422.5zM432 -354q106 141 150 258l202 -25q-31 -75 -106 -155t-158 -134z" />
<glyph horiz-adv-x="1280" d="M86 561q0 258 159.5 422t418.5 164q156 0 279.5 -66.5t199.5 -185.5l-185 -102q-96 161 -294 161q-159 0 -250.5 -111.5t-91.5 -285.5q0 -176 92 -284.5t256 -108.5q141 0 225 70.5t92 179.5h-299v180h514q8 -33 8 -88q0 -109 -36 -204.5t-103 -168.5t-172 -115.5 t-235 -42.5q-263 0 -420.5 163.5t-157.5 422.5zM563 1221v182h191v-182h-191z" />
<glyph horiz-adv-x="1280" d="M86 561q0 258 159.5 422t418.5 164q156 0 279.5 -66.5t199.5 -185.5l-185 -102q-96 161 -294 161q-159 0 -250.5 -111.5t-91.5 -285.5q0 -176 92 -284.5t256 -108.5q141 0 225 70.5t92 179.5h-299v180h514q8 -33 8 -88q0 -109 -36 -204.5t-103 -168.5t-172 -115.5 t-235 -42.5q-263 0 -420.5 163.5t-157.5 422.5zM309 1282q146 96 262 203h168q120 -108 262 -203l-57 -96q-79 23 -156.5 64t-132.5 87q-53 -47 -130.5 -87.5t-157.5 -63.5z" />
<glyph horiz-adv-x="1312" d="M55 854v131h105v135h227v-135h537v135h229v-135h104v-131h-104v-854h-229v489h-537v-489h-227v854h-105zM387 682h537v172h-537v-172z" />
<glyph horiz-adv-x="1310" d="M160 0v1120h227v-438h537v438h227v-1120h-227v489h-537v-489h-227zM307 1282q146 96 262 203h168q120 -108 262 -203l-57 -96q-79 23 -156.5 64t-132.5 87q-53 -47 -130.5 -87.5t-157.5 -63.5z" />
<glyph horiz-adv-x="546" d="M160 0v1120h227v-1120h-227zM162 1237q126 153 176 258l201 -33q-33 -74 -117 -154.5t-174 -129.5z" />
<glyph horiz-adv-x="546" d="M-66 1446l119 37q21 -61 76.5 -97t140.5 -36q86 0 141.5 36t75.5 97l119 -37q-18 -107 -107 -175.5t-229 -68.5t-228 68.5t-108 175.5zM160 0v1120h227v-1120h-227z" />
<glyph horiz-adv-x="546" d="M-74 1282q146 96 262 203h168q120 -108 262 -203l-57 -96q-79 23 -156.5 64t-132.5 87q-53 -47 -130.5 -87.5t-157.5 -63.5zM160 0v1120h227v-1120h-227z" />
<glyph horiz-adv-x="546" d="M-4 1217v186h180v-186h-180zM160 0v1120h227v-1120h-227zM367 1217v186h182v-186h-182z" />
<glyph horiz-adv-x="546" d="M160 0v1120h227v-1120h-227zM178 1221v182h191v-182h-191z" />
<glyph horiz-adv-x="546" d="M14 1462l201 33q50 -105 176 -258l-86 -59q-90 49 -174 129.5t-117 154.5zM160 0v1120h227v-1120h-227z" />
<glyph horiz-adv-x="546" d="M-45 1237v137h637v-137h-637zM160 0v1120h227v-1120h-227z" />
<glyph horiz-adv-x="544" d="M43 -180q0 108 117 180v1120h225v-1120q-45 -5 -86.5 -17.5t-76 -42.5t-34.5 -71q0 -36 27 -58t68 -22q37 0 75.5 16t61.5 39v-155q-53 -49 -154 -49q-97 0 -160 51t-63 129z" />
<glyph horiz-adv-x="546" d="M-86 1270q32 80 90.5 130t128.5 50q51 0 140 -39t128 -39q75 0 140 80l86 -57q-34 -81 -92 -132t-127 -51q-52 0 -141 40t-126 40q-78 0 -141 -80zM160 0v1120h227v-1120h-227z" />
<glyph horiz-adv-x="1067" d="M27 211l194 117q80 -138 230 -138q112 0 165.5 65.5t53.5 184.5v715h-383v209h622v-920q0 -225 -124.5 -347t-335.5 -122q-294 0 -422 236zM254 1540q146 96 262 203h168q120 -108 262 -203l-57 -96q-79 23 -156.5 64t-132.5 87q-53 -46 -130.5 -87t-158.5 -64z" />
<glyph horiz-adv-x="935" d="M18 178l181 109q62 -119 192 -119q172 0 172 194v758h225v-758q0 -180 -105.5 -283.5t-293.5 -103.5q-259 0 -371 203zM315 1282q150 99 263 203h167q117 -105 263 -203l-58 -96q-78 23 -155.5 64t-132.5 87q-53 -46 -130.5 -87t-158.5 -64z" />
<glyph horiz-adv-x="946" d="M29 178l180 109q62 -119 192 -119q172 0 172 194v566h-313v192h539v-758q0 -180 -106 -283.5t-294 -103.5q-258 0 -370 203zM184 1282q146 96 262 203h168q117 -105 263 -203l-58 -96q-79 23 -156.5 64t-132.5 87q-53 -47 -130.5 -87.5t-157.5 -63.5z" />
<glyph horiz-adv-x="1196" d="M160 0v1120h227v-551l479 551h279l-432 -471l467 -649h-275l-348 496q-65 -69 -170 -191v-305h-227zM432 -354q106 141 150 258l202 -25q-31 -75 -106 -155t-158 -134z" />
<glyph horiz-adv-x="608" d="M125 1581q126 153 176 258l201 -33q-33 -74 -117 -154.5t-174 -129.5zM152 283v1179h225v-1181q0 -63 24 -88t70 -25q57 0 92 22l43 -172q-61 -38 -174 -38q-164 0 -235 98q-45 66 -45 205z" />
<glyph horiz-adv-x="1034" d="M133 1237q126 153 176 258l201 -33q-33 -74 -117 -154.5t-174 -129.5zM160 0v1120h227v-927h608v-193h-835z" />
<glyph horiz-adv-x="679" d="M152 283v1179h225v-1181q0 -63 24 -88t70 -25q57 0 92 22l43 -172q-61 -38 -174 -38q-164 0 -235 98q-45 66 -45 205zM530 1018q101 94 101 203q-1 38 -27 96t-26 106v39h217v-159q0 -113 -45.5 -200.5t-143.5 -170.5z" />
<glyph horiz-adv-x="1034" d="M160 0v1120h227v-927h608v-193h-835zM592 705q94 87 94 188q-1 36 -25 90.5t-24 99.5v37h203v-149q0 -106 -42 -188.5t-134 -159.5z" />
<glyph horiz-adv-x="608" d="M143 -354q106 141 150 258l203 -25q-31 -74 -106.5 -154.5t-158.5 -134.5zM152 283v1179h225v-1181q0 -63 24 -88t70 -25q57 0 92 22l43 -172q-61 -38 -174 -38q-164 0 -235 98q-45 66 -45 205z" />
<glyph horiz-adv-x="1036" d="M160 0v1120h227v-927h608v-193h-835zM387 -354q106 141 150 258l202 -25q-31 -75 -106 -155t-158 -134z" />
<glyph horiz-adv-x="956" d="M152 283v1179h225v-1181q0 -63 24 -88t70 -25q57 0 92 22l43 -172q-61 -38 -174 -38q-164 0 -235 98q-45 66 -45 205zM614 623q0 63 45.5 108t108.5 45q62 0 106 -45t44 -108q0 -62 -44.5 -107t-105.5 -45q-63 0 -108.5 45t-45.5 107z" />
<glyph horiz-adv-x="1034" d="M160 0v1120h227v-927h608v-193h-835zM627 623q0 63 45 108t108 45q62 0 106 -45t44 -108q0 -62 -44.5 -107t-105.5 -45q-63 0 -108 45t-45 107z" />
<glyph horiz-adv-x="700" d="M-4 614v189l221 94v565h225v-477l224 96v-188l-224 -96v-516q0 -64 23.5 -88.5t71.5 -24.5q60 0 104 22l43 -172q-78 -38 -188 -38q-161 0 -232 98q-47 62 -47 207v426z" />
<glyph horiz-adv-x="1077" d="M14 340v174l191 80v526h225v-438l365 160v-172l-365 -162v-313h610v-195h-835v422z" />
<glyph horiz-adv-x="1314" d="M160 0v1120h284l498 -829v829h213v-1120h-270l-514 846v-846h-211zM557 1235q104 130 156 260l200 -33q-32 -74 -107 -151.5t-161 -132.5z" />
<glyph horiz-adv-x="1314" d="M160 0v1120h284l498 -829v829h213v-1120h-270l-514 846v-846h-211zM324 1397l57 96q80 -23 157.5 -64t131.5 -88q55 47 132.5 88t155.5 64l58 -96q-142 -95 -262 -203h-168q-116 107 -262 203z" />
<glyph horiz-adv-x="1314" d="M160 0v1120h284l498 -829v829h213v-1120h-270l-514 846v-846h-211zM436 -354q106 141 150 258l202 -25q-31 -75 -106 -155t-158 -134z" />
<glyph horiz-adv-x="1314" d="M160 0v1120h284l498 -829v829h213v-1120h-270l-514 846v-846h-211zM311 1270q32 80 90.5 130t128.5 50q51 0 140.5 -39t128.5 -39q74 0 139 80l86 -57q-34 -81 -92 -132t-127 -51q-52 0 -140.5 40t-125.5 40q-79 0 -142 -80z" />
<glyph horiz-adv-x="1314" d="M160 0v1120h289l493 -745v745h213v-1052q0 -191 -100.5 -295.5t-286.5 -104.5q-125 0 -207 45l82 174q44 -26 109 -26q83 0 129 41t51 104l-561 842v-848h-211z" />
<glyph horiz-adv-x="1320" d="M86 561q0 164 68 296t200 211t305 79q131 0 240.5 -45.5t182.5 -125t113 -186t40 -227.5q0 -165 -68.5 -297.5t-201 -211.5t-306.5 -79q-173 0 -305 79t-200 211t-68 296zM322 561q0 -167 90.5 -277t246.5 -110q158 0 250 110.5t92 278.5q0 165 -92 274t-250 109 q-156 0 -246.5 -109.5t-90.5 -275.5zM567 1237q126 153 176 258l201 -33q-33 -74 -117 -154.5t-174 -129.5z" />
<glyph horiz-adv-x="1320" d="M86 561q0 164 68 296t200 211t305 79q131 0 240.5 -45.5t182.5 -125t113 -186t40 -227.5q0 -165 -68.5 -297.5t-201 -211.5t-306.5 -79q-173 0 -305 79t-200 211t-68 296zM322 561q0 -167 90.5 -277t246.5 -110q158 0 250 110.5t92 278.5q0 165 -92 274t-250 109 q-156 0 -246.5 -109.5t-90.5 -275.5zM324 1446l118 37q21 -61 76.5 -97t140.5 -36q86 0 142.5 36t75.5 97l118 -37q-18 -107 -107 -175.5t-229 -68.5t-227.5 68.5t-107.5 175.5z" />
<glyph horiz-adv-x="1320" d="M86 561q0 164 68 296t200 211t305 79q131 0 240.5 -45.5t182.5 -125t113 -186t40 -227.5q0 -165 -68.5 -297.5t-201 -211.5t-306.5 -79q-173 0 -305 79t-200 211t-68 296zM313 1282q146 96 262 203h168q117 -105 263 -203l-58 -96q-79 23 -156.5 64t-132.5 87 q-53 -47 -130.5 -87.5t-157.5 -63.5zM322 561q0 -167 90.5 -277t246.5 -110q158 0 250 110.5t92 278.5q0 165 -92 274t-250 109q-156 0 -246.5 -109.5t-90.5 -275.5z" />
<glyph horiz-adv-x="1320" d="M86 561q0 164 68 296t200 211t305 79q131 0 240.5 -45.5t182.5 -125t113 -186t40 -227.5q0 -165 -68.5 -297.5t-201 -211.5t-306.5 -79q-173 0 -305 79t-200 211t-68 296zM322 561q0 -167 90.5 -277t246.5 -110q158 0 250 110.5t92 278.5q0 165 -92 274t-250 109 q-156 0 -246.5 -109.5t-90.5 -275.5zM348 1217v186h182v-186h-182zM791 1217v186h180v-186h-180z" />
<glyph horiz-adv-x="2125" d="M86 682q0 149 47.5 278.5t134 224.5t214 149.5t280.5 54.5q102 0 194 -25h1063v-209h-749q126 -129 155 -332h496v-209h-487q-6 -117 -49.5 -223t-114.5 -182h770v-209h-1084q-92 -25 -192 -25q-154 0 -282 54.5t-214.5 149.5t-134 224.5t-47.5 278.5zM338 682 q0 -216 114 -350.5t312 -134.5t313 135.5t115 349.5q0 215 -114.5 350t-313.5 135q-198 0 -312 -134.5t-114 -350.5z" />
<glyph horiz-adv-x="1808" d="M90 557q0 123 38.5 226t110 178t181.5 117t246 42h1034v-192h-608v-252h530v-180h-530v-303h628v-193h-1054q-181 0 -313 72.5t-197.5 197.5t-65.5 287zM324 557q0 -164 90 -264t252 -100h200v735h-200q-162 0 -252 -102.5t-90 -268.5z" />
<glyph horiz-adv-x="1837" d="M86 561q0 164 68 296t200 211t305 79q89 0 185 -27h885v-192h-625q93 -104 115 -252h434v-180h-428q-9 -179 -123 -303h647v-193h-911q-86 -25 -179 -25q-173 0 -305 79t-200 211t-68 296zM319 561q0 -167 92.5 -277t250.5 -110q156 0 247.5 110.5t91.5 276.5 q0 167 -91 277t-248 110q-158 0 -250.5 -110.5t-92.5 -276.5z" />
<glyph horiz-adv-x="1320" d="M86 561q0 164 68 296t200 211t305 79q131 0 240.5 -45.5t182.5 -125t113 -186t40 -227.5q0 -165 -68.5 -297.5t-201 -211.5t-306.5 -79q-173 0 -305 79t-200 211t-68 296zM322 561q0 -167 90.5 -277t246.5 -110q158 0 250 110.5t92 278.5q0 165 -92 274t-250 109 q-156 0 -246.5 -109.5t-90.5 -275.5zM418 1462l200 33q48 -102 177 -258l-86 -59q-90 49 -174 129.5t-117 154.5z" />
<glyph horiz-adv-x="1320" d="M86 561q0 164 68 296t200 211t305 79q131 0 240.5 -45.5t182.5 -125t113 -186t40 -227.5q0 -165 -68.5 -297.5t-201 -211.5t-306.5 -79q-173 0 -305 79t-200 211t-68 296zM322 561q0 -167 90.5 -277t246.5 -110q158 0 250 110.5t92 278.5q0 165 -92 274t-250 109 q-156 0 -246.5 -109.5t-90.5 -275.5zM408 1237q119 139 178 258l190 -33q-32 -73 -117 -153.5t-174 -130.5zM748 1237q119 139 178 258l190 -33q-32 -73 -117 -153.5t-174 -130.5z" />
<glyph horiz-adv-x="1320" d="M86 561q0 164 68 296t200 211t305 79q131 0 240.5 -45.5t182.5 -125t113 -186t40 -227.5q0 -165 -68.5 -297.5t-201 -211.5t-306.5 -79q-173 0 -305 79t-200 211t-68 296zM322 561q0 -167 90.5 -277t246.5 -110q158 0 250 110.5t92 278.5q0 165 -92 274t-250 109 q-156 0 -246.5 -109.5t-90.5 -275.5zM342 1237v137h637v-137h-637z" />
<glyph horiz-adv-x="1320" d="M86 561q0 163 68 295t200 210.5t305 78.5q159 0 287 -70l51 72l99 -70l-49 -69q90 -79 139 -195.5t49 -249.5q0 -166 -68.5 -298.5t-200.5 -211t-307 -78.5q-158 0 -286 70l-49 -72l-99 70l47 70q-90 79 -138 195.5t-48 252.5zM322 561q0 -162 81 -262l422 602 q-73 45 -166 45q-156 0 -246.5 -109.5t-90.5 -275.5zM494 217q70 -43 165 -43q158 0 250 110.5t92 278.5q0 152 -86 258z" />
<glyph horiz-adv-x="1320" d="M86 561q0 163 68 295t200 210.5t305 78.5q159 0 287 -70l51 72l99 -70l-49 -69q90 -79 139 -195.5t49 -249.5q0 -166 -68.5 -298.5t-200.5 -211t-307 -78.5q-158 0 -286 70l-49 -72l-99 70l47 70q-90 79 -138 195.5t-48 252.5zM322 561q0 -162 81 -262l422 602 q-73 45 -166 45q-156 0 -246.5 -109.5t-90.5 -275.5zM494 217q70 -43 165 -43q158 0 250 110.5t92 278.5q0 152 -86 258zM567 1237q126 153 176 258l201 -33q-33 -74 -117 -154.5t-174 -129.5z" />
<glyph horiz-adv-x="1320" d="M86 561q0 164 68 296t200 211t305 79q131 0 240.5 -45.5t182.5 -125t113 -186t40 -227.5q0 -165 -68.5 -297.5t-201 -211.5t-306.5 -79q-173 0 -305 79t-200 211t-68 296zM301 1270q32 80 90.5 130t128.5 50q51 0 140 -39t128 -39q75 0 140 80l86 -57q-34 -81 -92 -132 t-127 -51q-53 0 -141 40t-126 40q-78 0 -141 -80zM322 561q0 -167 90.5 -277t246.5 -110q158 0 250 110.5t92 278.5q0 165 -92 274t-250 109q-156 0 -246.5 -109.5t-90.5 -275.5z" />
<glyph horiz-adv-x="1210" d="M160 0v1120h542q190 0 297 -95.5t107 -252.5q0 -229 -227 -321l254 -451h-250l-226 412h-270v-412h-227zM387 594h305q85 0 135 44t50 122t-49.5 123t-135.5 45h-305v-334zM479 1237q126 153 176 258l201 -33q-33 -74 -117 -154.5t-174 -129.5z" />
<glyph horiz-adv-x="1210" d="M160 0v1120h542q190 0 297 -95.5t107 -252.5q0 -229 -227 -321l254 -451h-250l-226 412h-270v-412h-227zM254 1397l57 96q80 -23 157.5 -64t131.5 -88q122 103 289 152l57 -96q-142 -95 -262 -203h-168q-116 107 -262 203zM387 594h305q85 0 135 44t50 122t-49.5 123 t-135.5 45h-305v-334z" />
<glyph horiz-adv-x="1208" d="M160 0v1120h542q190 0 297 -95.5t107 -252.5q0 -229 -227 -321l254 -451h-250l-226 412h-270v-412h-227zM387 594h305q85 0 135 44t50 122t-49.5 123t-135.5 45h-305v-334zM393 -354q106 141 150 258l202 -25q-31 -75 -106 -155t-158 -134z" />
<glyph horiz-adv-x="1118" d="M57 229l172 105q55 -89 149 -132.5t197 -43.5q101 0 165.5 41t64.5 114q0 26 -8 46.5t-27.5 36t-41 27t-60 22t-72.5 17.5t-90 17q-90 17 -156 40t-121 60.5t-83.5 94.5t-28.5 133q0 160 120.5 249t307.5 89q151 0 270 -58t201 -159l-154 -117q-55 70 -140 111t-181 41 q-53 0 -96 -12.5t-73 -44.5t-30 -79q0 -29 12.5 -50.5t29.5 -35t55.5 -26t67 -19t87.5 -18.5q57 -11 96.5 -20.5t89 -25t83.5 -32.5t68.5 -42.5t55.5 -55.5t34 -71.5t13 -90.5q0 -163 -127 -264t-344 -101q-176 0 -303.5 67.5t-202.5 186.5zM199 1282q146 96 262 203h168 q120 -108 262 -203l-57 -96q-79 23 -156.5 64t-132.5 87q-53 -46 -130.5 -87t-158.5 -64z" />
<glyph horiz-adv-x="1118" d="M57 229l172 105q55 -89 149 -132.5t197 -43.5q101 0 165.5 41t64.5 114q0 26 -8 46.5t-27.5 36t-41 27t-60 22t-72.5 17.5t-90 17q-90 17 -156 40t-121 60.5t-83.5 94.5t-28.5 133q0 160 120.5 249t307.5 89q151 0 270 -58t201 -159l-154 -117q-55 70 -140 111t-181 41 q-53 0 -96 -12.5t-73 -44.5t-30 -79q0 -29 12.5 -50.5t29.5 -35t55.5 -26t67 -19t87.5 -18.5q57 -11 96.5 -20.5t89 -25t83.5 -32.5t68.5 -42.5t55.5 -55.5t34 -71.5t13 -90.5q0 -163 -127 -264t-344 -101q-176 0 -303.5 67.5t-202.5 186.5zM446 1235q104 130 156 260 l201 -33q-32 -74 -107 -151.5t-161 -132.5z" />
<glyph horiz-adv-x="1118" d="M57 229l172 105q55 -89 149 -132.5t197 -43.5q101 0 165.5 41t64.5 114q0 26 -8 46.5t-27.5 36t-41 27t-60 22t-72.5 17.5t-90 17q-90 17 -156 40t-121 60.5t-83.5 94.5t-28.5 133q0 160 120.5 249t307.5 89q151 0 270 -58t201 -159l-154 -117q-55 70 -140 111t-181 41 q-53 0 -96 -12.5t-73 -44.5t-30 -79q0 -29 12.5 -50.5t29.5 -35t55.5 -26t67 -19t87.5 -18.5q57 -11 96.5 -20.5t89 -25t83.5 -32.5t68.5 -42.5t55.5 -55.5t34 -71.5t13 -90.5q0 -163 -127 -264t-344 -101q-176 0 -303.5 67.5t-202.5 186.5zM195 1397l57 96 q80 -23 157.5 -64t131.5 -88q55 47 132.5 88t155.5 64l58 -96q-142 -95 -262 -203h-168q-116 107 -262 203z" />
<glyph horiz-adv-x="1124" d="M63 229l173 105q55 -89 149 -132.5t197 -43.5q101 0 165 41t64 114q0 27 -8.5 47.5t-29 36.5t-42 27t-61.5 21.5t-71 17t-87 16.5q-88 16 -153 38.5t-121 59.5t-85.5 95t-29.5 135q0 160 120.5 249t307.5 89q151 0 270 -58t201 -159l-154 -117q-55 70 -140 111t-181 41 q-53 0 -96 -12.5t-73 -44.5t-30 -79q0 -29 13 -50.5t31 -35.5t55.5 -26.5t67 -19t85.5 -17.5q57 -11 96.5 -20.5t89 -25t83.5 -32.5t68.5 -42.5t55.5 -55.5t34 -71.5t13 -90.5q0 -150 -107.5 -248t-295.5 -115q76 -66 76 -149q0 -81 -65 -130.5t-163 -49.5q-113 0 -170 53 v145q61 -61 142 -61q46 0 75 23t29 63q0 56 -59 109q-150 12 -261 77t-178 172z" />
<glyph horiz-adv-x="1118" d="M57 229l172 105q55 -89 149 -132.5t197 -43.5q101 0 165.5 41t64.5 114q0 26 -8 46.5t-27.5 36t-41 27t-60 22t-72.5 17.5t-90 17q-90 17 -156 40t-121 60.5t-83.5 94.5t-28.5 133q0 160 120.5 249t307.5 89q151 0 270 -58t201 -159l-154 -117q-55 70 -140 111t-181 41 q-53 0 -96 -12.5t-73 -44.5t-30 -79q0 -29 12.5 -50.5t29.5 -35t55.5 -26t67 -19t87.5 -18.5q57 -11 96.5 -20.5t89 -25t83.5 -32.5t68.5 -42.5t55.5 -55.5t34 -71.5t13 -90.5q0 -163 -127 -264t-344 -101q-176 0 -303.5 67.5t-202.5 186.5zM346 -354q106 141 150 258 l202 -25q-31 -75 -106 -155t-158 -134z" />
<glyph horiz-adv-x="1099" d="M61 928v192h977v-192h-376v-928h-226v928h-375zM203 1397l57 96q80 -23 157.5 -64t131.5 -88q122 103 289 152l57 -96q-142 -95 -262 -203h-168q-116 107 -262 203z" />
<glyph horiz-adv-x="1095" d="M59 928v192h977v-192h-377v-928h-225v928h-375zM301 -354q106 141 150 258l202 -25q-31 -75 -106 -155t-158 -134z" />
<glyph horiz-adv-x="1099" d="M61 928v192h977v-192h-376v-293h208v-131h-208v-504h-226v504h-205v131h205v293h-375z" />
<glyph horiz-adv-x="1161" d="M160 0v1120h227v-141h299q186 0 297 -100t111 -267t-111 -266.5t-297 -99.5h-299v-246h-227zM387 438h283q92 0 144 43.5t52 130.5t-52 130.5t-144 43.5h-283v-348z" />
<glyph horiz-adv-x="1271" d="M145 436v684h228v-684q0 -129 69.5 -196.5t192.5 -67.5q122 0 193 67.5t71 196.5v684h227v-684q0 -221 -133.5 -341t-357.5 -120q-222 0 -356 120t-134 341zM539 1237q126 153 176 258l200 -33q-33 -74 -116.5 -154.5t-173.5 -129.5z" />
<glyph horiz-adv-x="1271" d="M145 436v684h228v-684q0 -129 69.5 -196.5t192.5 -67.5q122 0 193 67.5t71 196.5v684h227v-684q0 -221 -133.5 -341t-357.5 -120q-222 0 -356 120t-134 341zM301 1446l119 37q21 -61 76.5 -97t140.5 -36q86 0 141.5 36t75.5 97l119 -37q-18 -107 -107 -175.5t-229 -68.5 t-228 68.5t-108 175.5z" />
<glyph horiz-adv-x="1271" d="M145 436v684h228v-684q0 -129 69.5 -196.5t192.5 -67.5q122 0 193 67.5t71 196.5v684h227v-684q0 -221 -133.5 -341t-357.5 -120q-222 0 -356 120t-134 341zM289 1282q146 96 262 203h168q120 -108 262 -203l-57 -96q-79 23 -156.5 64t-132.5 87q-53 -46 -130.5 -87 t-158.5 -64z" />
<glyph horiz-adv-x="1271" d="M145 436v684h228v-684q0 -129 69.5 -196.5t192.5 -67.5q122 0 193 67.5t71 196.5v684h227v-684q0 -221 -133.5 -341t-357.5 -120q-222 0 -356 120t-134 341zM324 1217v186h182v-186h-182zM766 1217v186h180v-186h-180z" />
<glyph horiz-adv-x="1271" d="M145 436v684h228v-684q0 -129 69.5 -196.5t192.5 -67.5q122 0 193 67.5t71 196.5v684h227v-684q0 -221 -133.5 -341t-357.5 -120q-222 0 -356 120t-134 341zM381 1462l201 33q50 -105 176 -258l-86 -59q-90 49 -174 129.5t-117 154.5z" />
<glyph horiz-adv-x="1271" d="M145 436v684h228v-684q0 -129 69.5 -196.5t192.5 -67.5q122 0 193 67.5t71 196.5v684h227v-684q0 -221 -133.5 -341t-357.5 -120q-222 0 -356 120t-134 341zM373 1237q119 139 178 258l190 -33q-32 -73 -116.5 -153.5t-173.5 -130.5zM713 1237q119 139 178 258l190 -33 q-32 -73 -116.5 -153.5t-173.5 -130.5z" />
<glyph horiz-adv-x="1271" d="M145 436v684h228v-684q0 -129 69.5 -196.5t192.5 -67.5q122 0 193 67.5t71 196.5v684h227v-684q0 -221 -133.5 -341t-357.5 -120q-222 0 -356 120t-134 341zM317 1237v137h637v-137h-637z" />
<glyph horiz-adv-x="1271" d="M145 436v684h226v-684q0 -129 70 -196.5t192 -67.5t194 67.5t72 196.5v684h227v-684q0 -258 -194 -385q-135 -87 -135 -174q0 -44 29 -68t75 -24q73 0 139 74v-160q-59 -59 -172 -59q-96 0 -159.5 48t-63.5 132q0 90 80 164q-43 -9 -92 -9q-222 0 -355 120t-133 341z" />
<glyph horiz-adv-x="1271" d="M145 436v684h228v-684q0 -129 69.5 -196.5t192.5 -67.5q122 0 193 67.5t71 196.5v684h227v-684q0 -221 -133.5 -341t-357.5 -120q-222 0 -356 120t-134 341zM403 1386q0 89 67 152.5t165 63.5q97 0 163 -63.5t66 -152.5q0 -88 -65.5 -149t-163.5 -61q-99 0 -165.5 61 t-66.5 149zM522 1386q0 -45 33.5 -77.5t79.5 -32.5q45 0 77.5 32.5t32.5 77.5q0 46 -33 79.5t-77 33.5q-46 0 -79.5 -33.5t-33.5 -79.5z" />
<glyph horiz-adv-x="1271" d="M145 436v684h228v-684q0 -129 69.5 -196.5t192.5 -67.5q122 0 193 67.5t71 196.5v684h227v-684q0 -221 -133.5 -341t-357.5 -120q-222 0 -356 120t-134 341zM281 1270q32 80 90.5 130t128.5 50q51 0 140 -39t128 -39q74 0 139 80l86 -57q-34 -81 -92 -132t-127 -51 q-52 0 -140 40t-126 40q-78 0 -141 -80z" />
<glyph horiz-adv-x="1689" d="M55 1120h242l209 -835l242 835h202l240 -841l205 841h243l-319 -1120h-246l-229 815l-228 -815h-249zM725 1237q126 153 176 258l201 -33q-33 -74 -117 -154.5t-174 -129.5z" />
<glyph horiz-adv-x="1689" d="M55 1120h242l209 -835l242 835h202l240 -841l205 841h243l-319 -1120h-246l-229 815l-228 -815h-249zM500 1282q146 96 262 203h168q120 -108 262 -203l-57 -96q-79 23 -156.5 64t-132.5 87q-53 -46 -130.5 -87t-158.5 -64z" />
<glyph horiz-adv-x="1689" d="M55 1120h242l209 -835l242 835h202l240 -841l205 841h243l-319 -1120h-246l-229 815l-228 -815h-249zM535 1217v186h182v-186h-182zM977 1217v186h180v-186h-180z" />
<glyph horiz-adv-x="1689" d="M55 1120h242l209 -835l242 835h202l240 -841l205 841h243l-319 -1120h-246l-229 815l-228 -815h-249zM600 1462l201 33q50 -105 176 -258l-86 -59q-90 49 -174 129.5t-117 154.5z" />
<glyph horiz-adv-x="1236" d="M123 -254l98 174q131 -98 322 -98q144 0 231.5 67t87.5 207v142q-139 -181 -352 -181q-175 0 -273 108t-98 292v618h226v-565q0 -246 213 -246q122 0 203 80t81 211v520h225v-930q0 -244 -116 -368q-148 -154 -428 -154q-245 0 -420 123zM516 1237q126 153 176 258 l201 -33q-33 -74 -117 -154.5t-174 -129.5z" />
<glyph horiz-adv-x="1146" d="M14 1120h267l297 -467q42 67 140.5 225.5t151.5 241.5h263l-447 -671v-449h-227v446q-232 353 -445 674zM457 1237q126 153 176 258l201 -33q-33 -74 -117 -154.5t-174 -129.5z" />
<glyph horiz-adv-x="1236" d="M123 -254l98 174q131 -98 322 -98q144 0 231.5 67t87.5 207v142q-139 -181 -352 -181q-175 0 -273 108t-98 292v618h226v-565q0 -246 213 -246q122 0 203 80t81 211v520h225v-930q0 -244 -116 -368q-148 -154 -428 -154q-245 0 -420 123zM264 1282q146 96 262 203h168 q120 -108 262 -203l-57 -96q-79 23 -156.5 64t-132.5 87q-53 -47 -130.5 -87.5t-157.5 -63.5z" />
<glyph horiz-adv-x="1146" d="M14 1120h267l297 -467q42 67 140.5 225.5t151.5 241.5h263l-447 -671v-449h-227v446q-232 353 -445 674zM223 1282q146 96 262 203h168q120 -108 262 -203l-57 -96q-79 23 -156.5 64t-132.5 87q-53 -47 -130.5 -87.5t-157.5 -63.5z" />
<glyph horiz-adv-x="1236" d="M123 -254l98 174q131 -98 322 -98q144 0 231.5 67t87.5 207v142q-139 -181 -352 -181q-175 0 -273 108t-98 292v618h226v-565q0 -246 213 -246q122 0 203 80t81 211v520h225v-930q0 -244 -116 -368q-148 -154 -428 -154q-245 0 -420 123zM299 1217v186h182v-186h-182z M741 1217v186h181v-186h-181z" />
<glyph horiz-adv-x="1146" d="M14 1120h267l297 -467q42 67 140.5 225.5t151.5 241.5h263l-447 -671v-449h-227v446q-232 353 -445 674zM260 1217v186h182v-186h-182zM702 1217v186h181v-186h-181z" />
<glyph horiz-adv-x="1236" d="M123 -254l98 174q131 -98 322 -98q144 0 231.5 67t87.5 207v142q-139 -181 -352 -181q-175 0 -273 108t-98 292v618h226v-565q0 -246 213 -246q122 0 203 80t81 211v520h225v-930q0 -244 -116 -368q-148 -154 -428 -154q-245 0 -420 123zM360 1462l201 33 q50 -105 176 -258l-86 -59q-90 49 -174 129.5t-117 154.5z" />
<glyph horiz-adv-x="1146" d="M14 1120h267l297 -467q42 67 140.5 225.5t151.5 241.5h263l-447 -671v-449h-227v446q-232 353 -445 674zM330 1462l200 33q48 -102 177 -258l-86 -59q-90 49 -174 129.5t-117 154.5z" />
<glyph horiz-adv-x="1107" d="M84 0v168l614 760h-589v192h897v-162l-621 -765h635v-193h-936zM451 1235q102 128 155 260l201 -33q-32 -74 -107 -151.5t-161 -132.5z" />
<glyph horiz-adv-x="1107" d="M84 0v168l614 760h-589v192h897v-162l-621 -765h635v-193h-936zM199 1397l57 96q80 -23 157.5 -64t131.5 -88q122 103 289 152l57 -96q-142 -95 -262 -203h-168q-116 107 -262 203z" />
<glyph horiz-adv-x="1107" d="M84 0v168l614 760h-589v192h897v-162l-621 -765h635v-193h-936zM451 1221v182h190v-182h-190z" />
<glyph horiz-adv-x="1335" d="M45 901v174h178v96q0 150 90.5 232t255.5 82q109 0 174 -23l-26 -180q-81 21 -129 21q-70 0 -103.5 -29t-33.5 -96v-103h241v-174h-241v-901h-228v901h-178zM879 283v1179h225v-1181q0 -63 24 -88t70 -25q57 0 92 22l43 -172q-61 -38 -174 -38q-164 0 -235 98 q-45 66 -45 205z" />
<glyph d="M227 1190q301 55 422 174h180v-1364h-237v1096q-59 -28 -153 -54t-183 -36z" />
<glyph horiz-adv-x="1241" d="M102 684q0 108 15.5 205.5t54 190t96 160t147.5 108.5t203 41t203.5 -41t148.5 -108.5t96.5 -160t54.5 -190.5t16 -205q0 -108 -16 -206.5t-54.5 -191.5t-96.5 -161t-148.5 -109t-203.5 -41t-203 41t-147.5 109t-96 161.5t-54 191.5t-15.5 206zM344 684q0 -106 13.5 -193 t43.5 -161.5t85 -116t132 -41.5q76 0 131 41.5t85 115.5t43.5 161.5t13.5 193.5q0 105 -13.5 191.5t-43.5 159.5t-85 114t-131 41q-77 0 -132 -41t-85 -114t-43.5 -159.5t-13.5 -191.5z" />
<glyph horiz-adv-x="821" d="M41 1190q153 29 255.5 70t166.5 104h180v-1364h-240v1098q-54 -27 -147.5 -51.5t-185.5 -34.5z" />
<glyph horiz-adv-x="1177" d="M72 1104q183 285 499 285q205 0 337 -116t132 -310q0 -176 -136.5 -349t-450.5 -405h639v-209h-986v170q261 208 402.5 340.5t210.5 238.5t69 201q0 109 -66 167.5t-171 58.5q-93 0 -168 -50t-121 -133z" />
<glyph horiz-adv-x="1204" d="M68 279l208 98q45 -95 128 -144t194 -49q124 0 192 59.5t68 159.5q0 95 -70 148t-206 53h-111v199h115q114 0 174.5 52.5t60.5 141.5q0 86 -61 134.5t-168 48.5q-200 0 -309 -168l-181 112q184 265 502 265q203 0 331 -102.5t128 -262.5q0 -103 -54 -179.5t-147 -121.5 q117 -45 179.5 -132.5t62.5 -197.5q0 -178 -137.5 -298t-368.5 -120q-373 0 -530 304z" />
<glyph horiz-adv-x="1214" d="M68 305v187q126 224 195 458.5t69 413.5h233q0 -178 -72.5 -410.5t-199.5 -445.5h428v567h233v-567h193v-203h-193v-305h-233v305h-653z" />
<glyph horiz-adv-x="1179" d="M70 248l198 112q46 -88 123.5 -131t175.5 -43q125 0 202 70t77 190q0 117 -74 185.5t-203 68.5q-173 0 -276 -127l-143 66l47 725h819v-217h-627l-31 -334q111 78 273 78q199 0 330 -120.5t131 -319.5q0 -94 -34 -179t-97 -151.5t-163 -106t-223 -39.5q-346 0 -505 273z " />
<glyph horiz-adv-x="1191" d="M98 492q0 123 35 242.5t102 229t146 205t184 195.5h336q-155 -120 -289.5 -266.5t-193.5 -276.5q47 48 121 70t149 22q191 0 315.5 -124t124.5 -328q0 -216 -142 -351t-374 -135q-236 0 -375 136t-139 381zM346 457q0 -124 70.5 -197.5t197.5 -73.5t196 73.5t69 197.5 t-69 196t-196 72t-197.5 -73.5t-70.5 -194.5z" />
<glyph horiz-adv-x="1099" d="M41 1155v209h1016v-172q-537 -715 -545 -1192h-264q20 494 528 1155h-735z" />
<glyph horiz-adv-x="1230" d="M98 387q0 116 62 208t178 138q-191 93 -191 293q0 164 134 263.5t335 99.5q130 0 236 -43.5t168.5 -127t62.5 -192.5q0 -201 -190 -293q116 -46 178 -138t62 -208q0 -180 -138.5 -296t-378.5 -116q-241 0 -379.5 116t-138.5 296zM346 403q0 -110 71.5 -170.5t198.5 -60.5 q126 0 197.5 60t71.5 171q0 108 -70 169t-199 61t-199.5 -61t-70.5 -169zM389 1001q0 -90 60.5 -139t164.5 -49q105 0 166.5 49t61.5 139t-62 140.5t-164 50.5q-103 0 -165 -50t-62 -141z" />
<glyph horiz-adv-x="1191" d="M63 903q0 216 143 351t374 135q236 0 375 -136t139 -381q0 -123 -35 -242t-102 -228.5t-146 -204.5t-184 -197h-336q155 118 289 264.5t194 276.5q-47 -47 -121 -68.5t-149 -21.5q-191 0 -316 124t-125 328zM313 907q0 -124 69 -196t196 -72q128 0 199 73.5t71 194.5 q0 124 -71 197.5t-199 73.5q-127 0 -196 -73.5t-69 -197.5z" />
<glyph horiz-adv-x="811" d="M115 582v200h581v-200h-581z" />
<glyph d="M98 586v192h1006v-192h-1006z" />
<glyph horiz-adv-x="1892" d="M117 586v192h1659v-192h-1659z" />
<glyph horiz-adv-x="585" d="M86 682q0 434 317 780l129 -98q-251 -304 -251 -682t251 -682l-129 -98q-317 349 -317 780z" />
<glyph horiz-adv-x="587" d="M55 0q250 302 250 682t-250 682l129 98q318 -350 318 -780q0 -433 -318 -780z" />
<glyph horiz-adv-x="677" d="M158 -39v1442h456v-160h-260v-1120h260v-162h-456z" />
<glyph horiz-adv-x="679" d="M63 -39v162h263v1120h-263v160h459v-1442h-459z" />
<glyph horiz-adv-x="804" d="M45 602v160h74q93 0 131.5 48.5t38.5 137.5v125q0 164 94 255t250 91h115v-162h-82q-179 0 -179 -188v-102q0 -220 -180 -285q180 -65 180 -283v-102q0 -191 179 -191h82v-159h-115q-156 0 -250 91t-94 255v123q0 89 -38.5 137.5t-131.5 48.5h-74z" />
<glyph horiz-adv-x="804" d="M57 -53v159h82q96 0 138 49.5t42 141.5v100q0 220 181 285q-181 65 -181 283v104q0 91 -41.5 139.5t-138.5 48.5h-82v162h117q157 0 249.5 -91t92.5 -255v-125q0 -186 172 -186h72v-160h-72q-172 0 -172 -186v-123q0 -164 -92.5 -255t-249.5 -91h-117z" />
<glyph horiz-adv-x="1570" d="M66 682q0 146 57 279.5t153.5 229.5t230 153t279.5 57q117 0 226.5 -36.5t198 -103t155 -154.5t103 -198t36.5 -227q0 -116 -36.5 -226t-103 -198.5t-155 -155t-198.5 -103t-226 -36.5q-146 0 -279.5 57t-230 153.5t-153.5 229.5t-57 279zM188 682q0 -122 47.5 -232 t127.5 -190t190.5 -127t232.5 -47q161 0 298.5 79.5t217.5 217t80 299.5q0 122 -47.5 232.5t-127.5 190t-190 126.5t-231 47t-231.5 -47t-191 -126.5t-128 -190t-47.5 -232.5zM479 291v788h348q138 0 216.5 -68.5t78.5 -181.5q0 -80 -41 -137.5t-108 -85.5l166 -315h-185 l-137 280h-166v-280h-172zM651 705h172q59 0 90 32t31 86q0 55 -32 88t-89 33h-172v-239z" />
<glyph horiz-adv-x="1341" d="M74 559q0 122 47 232.5t127 190.5t190 127.5t232 47.5t232.5 -47.5t190.5 -127.5t127.5 -190.5t47.5 -232.5q0 -161 -80 -298.5t-218 -217.5t-300 -80t-299.5 80t-217 217.5t-79.5 298.5zM172 559q0 -135 67 -249.5t181.5 -181.5t249.5 -67q136 0 251.5 67t182.5 181.5 t67 249.5q0 136 -67 251t-182.5 182t-251.5 67q-135 0 -249.5 -67t-181.5 -182t-67 -251zM324 559q0 146 100.5 248t245.5 102q94 0 173.5 -46t131.5 -134l-119 -80q-68 115 -184 115q-85 0 -144 -60t-59 -145q0 -84 59.5 -144.5t143.5 -60.5q114 0 186 115l119 -78 q-50 -86 -131 -132t-176 -46q-144 0 -245 101.5t-101 244.5z" />
<glyph horiz-adv-x="1341" d="M74 559q0 122 47 232.5t127 190.5t190 127.5t232 47.5t232.5 -47.5t190.5 -127.5t127.5 -190.5t47.5 -232.5q0 -161 -80 -298.5t-218 -217.5t-300 -80t-299.5 80t-217 217.5t-79.5 298.5zM172 559q0 -135 67 -249.5t181.5 -181.5t249.5 -67q136 0 251.5 67t182.5 181.5 t67 249.5q0 136 -67 251t-182.5 182t-251.5 67q-135 0 -249.5 -67t-181.5 -182t-67 -251zM438 231v658h297q113 0 177.5 -61t64.5 -156q0 -92 -63.5 -153.5t-180.5 -61.5h-145v-226h-150zM588 571h106q133 0 133 99q0 54 -33.5 77t-99.5 23h-106v-199z" />
<glyph horiz-adv-x="770" d="M82 850q0 128 89 216.5t216 88.5q125 0 214 -89t89 -216q0 -126 -89 -214.5t-214 -88.5q-127 0 -216 88.5t-89 214.5zM127 850q0 -107 75.5 -182.5t184.5 -75.5q106 0 182 75.5t76 182.5q0 108 -76 184t-182 76q-109 0 -184.5 -75.5t-75.5 -184.5zM256 684v336h158 q52 0 84 -29.5t32 -77.5q0 -36 -17 -60.5t-44 -33.5l70 -135h-82l-58 119h-71v-119h-72zM328 862h82q19 0 32 13t13 34q0 23 -13 36t-32 13h-82v-96z" />
<glyph horiz-adv-x="1572" d="M66 678q0 148 53.5 278.5t148 226t232 151t297.5 55.5q158 0 293.5 -55t228.5 -149.5t146 -223t53 -271.5q0 -175 -86 -281t-228 -106q-156 0 -217 119q-86 -123 -248 -123q-147 0 -236 107t-89 270t91 269t243 106q116 0 200 -90v75h176v-504q0 -51 24 -82.5t77 -31.5 q79 0 119 71.5t40 190.5q0 168 -70 301t-204 210t-309 77t-311 -80.5t-207.5 -214t-71.5 -295.5q0 -121 42.5 -228.5t117.5 -187t186 -126t242 -46.5q170 0 301 82l57 -106q-158 -97 -364 -97q-159 0 -295.5 55t-230.5 150t-147.5 225.5t-53.5 278.5zM598 674 q0 -96 44 -158.5t128 -62.5q86 0 132 62t46 159t-46.5 160t-131.5 63q-84 0 -128 -62.5t-44 -160.5z" />
<glyph horiz-adv-x="2004" d="M98 1255q199 34 283 109h131v-870h-176v673q-90 -33 -215 -49zM391 0l961 1364h170l-961 -1364h-170zM1182 696q132 191 336 191q143 0 232 -75t89 -204q0 -107 -73.5 -200.5t-276.5 -249.5h385v-158h-664v131q259 197 352 293t93 176q0 59 -43.5 94t-106.5 35 q-56 0 -104.5 -30.5t-79.5 -82.5z" />
<glyph horiz-adv-x="2004" d="M102 1255q199 34 283 109h131v-870h-176v673q-90 -33 -215 -49zM395 0l961 1364h170l-961 -1364h-170zM1176 195l155 53q57 -107 205 -107q70 0 111 33t41 86q0 49 -36.5 77t-101.5 28h-114v151h110q44 0 82.5 26.5t38.5 78.5q0 54 -42.5 81t-104.5 27q-132 0 -195 -96 l-135 72q116 182 338 182q135 0 224 -64.5t89 -181.5q0 -127 -100 -184q66 -26 96.5 -82t30.5 -121q0 -119 -92 -194.5t-242 -75.5q-259 0 -358 211z" />
<glyph horiz-adv-x="2004" d="M100 1255q199 34 283 109h131v-870h-176v673q-90 -33 -215 -49zM393 0l961 1364h170l-961 -1364h-170zM1159 188v136q72 125 118.5 274.5t49.5 271.5h172q-3 -121 -46.5 -262t-113.5 -268h252v330h168v-330h125v-152h-125v-188h-170v188h-430z" />
<glyph horiz-adv-x="2004" d="M96 1255q199 34 283 109h131v-870h-176v673q-90 -33 -215 -49zM389 0l961 1364h170l-961 -1364h-170zM1184 154l137 84q63 -97 203 -97q69 0 116.5 38.5t47.5 107.5q0 68 -46 107.5t-129 39.5q-107 0 -174 -80l-102 43l29 473h553v-159h-408q-2 -34 -10 -102.5t-10 -86.5 q71 47 172 47q136 0 220.5 -76t84.5 -210q0 -55 -20 -106t-59.5 -95t-108 -71t-156.5 -27q-107 0 -194.5 43t-145.5 127z" />
<glyph horiz-adv-x="2004" d="M113 1255q198 34 282 109h131v-870h-176v673q-90 -33 -215 -49zM406 0l960 1364h170l-961 -1364h-169zM1180 324q0 293 280 546h248q-227 -163 -305 -335q32 28 80.5 42.5t87.5 14.5q131 0 215 -81t84 -214q0 -138 -95 -225.5t-247 -87.5q-161 0 -254.5 89t-93.5 251z M1358 293q0 -70 45 -114t123 -44t122 44t44 116t-44 115t-122 43t-123 -44t-45 -116z" />
<glyph horiz-adv-x="2004" d="M100 1255q199 34 283 109h131v-870h-176v673q-90 -33 -215 -49zM393 0l961 1364h170l-961 -1364h-170zM1180 246q0 149 139 217q-107 55 -107 184q0 115 85.5 177.5t228.5 62.5q147 0 231 -62.5t84 -177.5q0 -117 -110 -182q69 -34 105 -92t36 -127q0 -124 -94 -193 t-252 -69q-157 0 -251.5 69t-94.5 193zM1358 256q0 -65 47.5 -98t120.5 -33q74 0 122 32t48 97q0 68 -48.5 103.5t-121.5 35.5q-72 0 -120 -35t-48 -102zM1386 639q0 -56 40.5 -85.5t99.5 -29.5q60 0 100.5 29t40.5 86q0 53 -40 79.5t-99 26.5q-61 0 -101.5 -26.5 t-40.5 -79.5z" />
<glyph horiz-adv-x="567" d="M16 1446q201 34 283 108h131v-870h-176v674q-90 -33 -215 -49z" />
<glyph horiz-adv-x="565" d="M14 569q201 40 283 111h131v-870h-176v673q-94 -35 -215 -47z" />
<glyph horiz-adv-x="532" d="M115 682q0 63 45 108.5t108 45.5q61 0 105.5 -45.5t44.5 -108.5q0 -62 -44.5 -107t-105.5 -45q-63 0 -108 45t-45 107z" />
<glyph horiz-adv-x="661" d="M23 0l434 1364h184l-436 -1364h-182z" />
<glyph horiz-adv-x="485" d="M156 -98v1560h174v-1560h-174z" />
<glyph horiz-adv-x="661" d="M20 1364h183l436 -1364h-184z" />
<glyph horiz-adv-x="561" d="M156 0v313l65 621h119l66 -621v-313h-250zM156 1108v256h250v-256h-250z" />
<glyph horiz-adv-x="1001" d="M57 393q0 120 57 213t149.5 147t211.5 74v109h223v-303q-36 10 -90 10q-137 0 -221 -64t-84 -178q0 -98 67 -157.5t183 -59.5q173 0 307 125l131 -155q-207 -181 -461 -181q-207 0 -340 113.5t-133 306.5zM455 1122v242h262v-242h-262z" />
<glyph d="M98 586v192h406v408h194v-408h406v-192h-406v-406h-194v406h-406z" />
<glyph d="M98 586v192h1006v-192h-1006z" />
<glyph d="M98 586v192h1006v-192h-1006zM457 289q0 59 42 102t103 43q58 0 100.5 -43t42.5 -102t-42.5 -102.5t-100.5 -43.5q-61 0 -103 43.5t-42 102.5zM457 1075q0 59 42 102.5t103 43.5q58 0 100.5 -43.5t42.5 -102.5q0 -60 -42 -102.5t-101 -42.5q-61 0 -103 42.5t-42 102.5z " />
<glyph d="M98 379v194h1006v-194h-1006zM98 793v192h1006v-192h-1006z" />
<glyph d="M106 326l359 356l-359 356l138 138l358 -357l356 357l136 -138l-357 -356l357 -356l-136 -138l-356 357l-358 -357z" />
<glyph d="M213 682l594 594l133 -135l-455 -459l455 -455l-133 -135z" />
<glyph d="M262 227l459 455l-459 459l133 135l594 -594l-594 -590z" />
<glyph horiz-adv-x="1290" d="M78 559q0 121 40 228t112 186.5t179.5 125.5t235.5 46t236 -46t180.5 -125.5t112.5 -186.5t40 -228t-40 -228t-112.5 -186t-180.5 -124.5t-236 -45.5t-235.5 45.5t-179.5 124.5t-112 186t-40 228zM301 559q0 -163 91.5 -270t252.5 -107t252.5 107t91.5 270t-92 271 t-252 108t-252 -108t-92 -271z" />
<glyph horiz-adv-x="788" d="M35 948q288 54 420 172h170v-1120h-224v864q-63 -30 -156.5 -57t-181.5 -37z" />
<glyph horiz-adv-x="1136" d="M57 891q187 254 488 254q201 0 324.5 -102t123.5 -273q0 -68 -23.5 -131.5t-63 -116.5t-103 -108t-130 -100.5t-157.5 -100.5h557v-213h-977v174q283 160 362 211q204 132 263 242q29 56 29 112q0 90 -63 143.5t-163 53.5q-95 0 -172 -48.5t-125 -123.5z" />
<glyph horiz-adv-x="1132" d="M31 14l184 107q99 -184 340 -184q128 0 198 61.5t70 163.5q0 97 -71.5 152t-212.5 55h-105v192h107q117 0 181 52.5t64 142.5q0 86 -63.5 134t-171.5 48q-201 0 -311 -162l-177 109q181 260 492 260q197 0 328 -100.5t131 -266.5q0 -104 -55 -179.5t-148 -119.5 q119 -45 182.5 -133.5t63.5 -198.5q0 -180 -136 -298.5t-364 -118.5q-364 0 -526 284z" />
<glyph horiz-adv-x="1185" d="M61 59v183q119 218 191.5 461.5t75.5 416.5h223q-5 -179 -77 -415.5t-193 -448.5h438v539h221v-539h195v-197h-195v-305h-221v305h-658z" />
<glyph horiz-adv-x="1107" d="M29 0l188 106q87 -167 303 -167q128 0 207.5 69.5t79.5 190.5q0 120 -76 189t-209 69q-85 0 -157 -31.5t-119 -91.5l-140 59l50 727h809v-209h-631l-31 -354q125 88 281 88q197 0 325.5 -120.5t128.5 -319.5q0 -94 -33.5 -179t-95.5 -151.5t-161 -105.5t-220 -39 q-334 0 -499 270z" />
<glyph horiz-adv-x="1132" d="M66 502q0 256 153 492.5t432 410.5l160 -154q-144 -83 -282.5 -216.5t-176.5 -256.5q49 61 130.5 91t166.5 30q186 0 311 -123t125 -323q0 -209 -142 -343.5t-372 -134.5q-229 0 -367 140t-138 387zM299 446q0 -121 72.5 -194.5t203.5 -73.5q132 0 203.5 74t71.5 197 t-71.5 194.5t-203.5 71.5q-131 0 -203.5 -74t-72.5 -195z" />
<glyph horiz-adv-x="1101" d="M51 911v209h1006v-174q-534 -724 -549 -1192h-250q7 127 49 270.5t97 262t130.5 246.5t132.5 210.5t121 167.5h-737z" />
<glyph horiz-adv-x="1189" d="M82 383q0 110 60 204t186 146q-90 42 -143.5 116t-53.5 175q0 165 129 265t334 100t335 -100t130 -265q0 -101 -53 -174t-144 -117q126 -52 185 -146t59 -204q0 -184 -140 -296t-372 -112t-372 112t-140 296zM317 401q0 -112 73.5 -174.5t203.5 -62.5t204 62t74 175 q0 111 -72 173.5t-206 62.5q-133 0 -205 -62.5t-72 -173.5zM360 1004q0 -94 63 -144.5t171 -50.5t170.5 50.5t62.5 144.5q0 92 -63.5 144t-169.5 52t-170 -52t-64 -144z" />
<glyph horiz-adv-x="1130" d="M45 668q0 209 142 343t372 134q231 0 369.5 -140t138.5 -387q0 -256 -153.5 -492.5t-434.5 -410.5l-157 154q144 82 282 216t176 257q-49 -61 -130.5 -91t-166.5 -30q-187 0 -312.5 123.5t-125.5 323.5zM283 672q0 -123 70.5 -194.5t201.5 -71.5q132 0 204 73t72 195 q0 121 -72.5 194.5t-203.5 73.5t-201.5 -73.5t-70.5 -196.5z" />
<glyph d="M90 561q0 121 30 224.5t90 185t160 128t230 46.5q129 0 228.5 -46.5t159.5 -128t90 -185t30 -224.5q0 -122 -30 -226t-90 -185.5t-159.5 -128t-228.5 -46.5q-130 0 -230 46.5t-160 128t-90 185.5t-30 226zM326 561q0 -389 274 -389q272 0 272 389q0 387 -272 387 q-274 0 -274 -387z" />
<glyph d="M172 948q288 54 420 172h170v-927h317v-193h-876v193h336v671q-63 -30 -156.5 -57t-181.5 -37z" />
<glyph d="M231 948q288 54 420 172h170v-1120h-223v864q-63 -30 -156.5 -57t-181.5 -37z" />
<glyph d="M88 891q191 254 490 254q200 0 324 -102.5t124 -272.5q0 -68 -23.5 -131.5t-63 -116.5t-103.5 -108t-130.5 -100.5t-158.5 -100.5h557v-213h-975v174q23 13 67 38q72 41 107.5 61.5t97.5 57t93.5 58t79 55t72 57t55 55.5t44.5 59.5t24.5 59.5t10.5 64q0 90 -62.5 143.5 t-162.5 53.5q-94 0 -170.5 -48.5t-124.5 -123.5z" />
<glyph d="M66 14l184 107q99 -184 340 -184q128 0 198 61.5t70 163.5q0 97 -72 152t-213 55h-104v192h106q117 0 181.5 52.5t64.5 142.5q0 86 -63.5 134t-171.5 48q-202 0 -312 -162l-176 109q181 260 492 260q197 0 328 -100.5t131 -266.5q0 -104 -55 -179.5t-148 -119.5 q119 -45 182.5 -133.5t63.5 -198.5q0 -180 -136 -298.5t-364 -118.5q-364 0 -526 284z" />
<glyph d="M70 59v183q118 219 190 462.5t74 415.5h221q-2 -177 -74 -413.5t-194 -450.5h440v539h221v-539h193v-197h-193v-305h-221v305h-657z" />
<glyph d="M78 0l186 106q91 -167 305 -167q128 0 207.5 69.5t79.5 190.5q0 120 -76 189t-209 69q-179 0 -276 -123l-139 59l49 727h809v-209h-631l-31 -354q123 88 281 88q196 0 325 -120.5t129 -319.5q0 -94 -33 -179t-95.5 -151.5t-161 -105.5t-219.5 -39q-335 0 -500 270z" />
<glyph d="M100 502q0 255 153.5 491.5t432.5 411.5l160 -154q-144 -83 -282.5 -216.5t-176.5 -256.5q49 61 130.5 91t166.5 30q186 0 311 -123t125 -323q0 -209 -142 -343.5t-372 -134.5q-229 0 -367.5 140t-138.5 387zM336 446q0 -122 72 -195t204 -73q131 0 202 74t71 197 q0 122 -71 194t-202 72q-132 0 -204 -73.5t-72 -195.5z" />
<glyph d="M100 911v209h1006v-176q-77 -107 -135.5 -194t-139.5 -224.5t-135 -255t-94.5 -257t-44.5 -259.5h-252q5 93 29.5 195t55 187t81.5 187.5t89 170t100 162t91.5 136.5t84.5 119h-736z" />
<glyph d="M88 383q0 110 60 204t186 146q-90 42 -143.5 116t-53.5 175q0 165 129 265t334 100t335 -100t130 -265q0 -101 -53 -174t-144 -117q126 -52 185 -146t59 -204q0 -184 -140 -296t-372 -112t-372 112t-140 296zM324 401q0 -112 73.5 -174.5t202.5 -62.5q130 0 204.5 62 t74.5 175q0 111 -72.5 173.5t-206.5 62.5q-132 0 -204 -62.5t-72 -173.5zM367 1004q0 -94 62.5 -144.5t170.5 -50.5t171 50.5t63 144.5q0 92 -64 144t-170 52t-169.5 -52t-63.5 -144z" />
<glyph d="M82 668q0 209 142 343t372 134q229 0 367.5 -140t138.5 -387q0 -255 -153.5 -491.5t-432.5 -411.5l-160 154q145 83 284 216.5t177 256.5q-49 -61 -131.5 -91t-167.5 -30q-186 0 -311 123.5t-125 323.5zM317 672q0 -122 71 -194t202 -72q132 0 205 73.5t73 194.5 t-73 194.5t-205 73.5q-131 0 -202 -73.5t-71 -196.5z" />
<glyph d="M113 225l172 92q89 -135 272 -155v319q-70 15 -123.5 31t-105.5 43t-85.5 60t-54 82t-20.5 110q0 149 110 235.5t279 94.5v123h111v-125q227 -25 370 -199l-153 -102q-79 95 -217 120v-288q74 -16 126 -31.5t107 -41.5t89 -59t55.5 -82t21.5 -112q0 -151 -108.5 -246.5 t-290.5 -109.5v-144h-111v144q-296 14 -444 241zM381 823q0 -55 45 -84t131 -49v268q-77 -6 -126.5 -40.5t-49.5 -94.5zM668 162q79 9 129.5 49t50.5 100q0 58 -43.5 90.5t-136.5 57.5v-297z" />
<glyph d="M125 461v137h127q-47 111 -47 186q0 163 115.5 261t302.5 98q281 0 430 -238l-179 -94q-89 139 -241 139q-91 0 -149 -45t-58 -127q0 -69 51 -180h332v-137h-293q12 -40 12 -74q0 -102 -88 -190q62 26 117 26q57 0 144 -24.5t120 -24.5q79 0 121 96l164 -92 q-89 -201 -262 -201q-62 0 -174.5 37t-177.5 37q-56 0 -129.5 -19.5t-141.5 -56.5l-78 156q187 96 187 223q0 51 -23 107h-182z" />
<glyph d="M25 403v103h106q-2 18 -2 57q0 31 2 47h-106v101h118q43 199 190.5 317.5t358.5 118.5q309 0 473 -256l-182 -109q-46 83 -120.5 126.5t-168.5 43.5q-117 0 -199.5 -65.5t-115.5 -175.5h391v-101h-410q-2 -16 -2 -47q0 -41 2 -57h410v-103h-387q34 -109 116.5 -172 t196.5 -63q187 0 289 174l182 -104q-70 -125 -193 -194t-284 -69q-210 0 -356 117t-189 311h-120z" />
<glyph d="M104 1120h250l250 -471l246 471h246l-301 -524h221v-111h-285l-22 -36v-80h307v-111h-307v-258h-217v258h-310v111h310v77l-25 39h-285v111h224q-44 76 -147 254t-155 270z" />
<glyph d="M127 526q0 222 126 371t335 168v158h108v-158q237 -19 375 -227l-164 -115q-75 130 -211 151v-696q131 19 217 150l164 -113q-136 -206 -381 -225v-162h-108v162q-210 19 -335.5 167t-125.5 369zM354 528q0 -137 61 -231t173 -115v690q-111 -23 -172.5 -116.5 t-61.5 -227.5z" />
<glyph horiz-adv-x="1261" d="M76 303q0 214 258 315q-61 61 -92 119.5t-31 128.5q0 133 97 206t253 73q151 0 247.5 -70t96.5 -196q0 -102 -68.5 -175t-197.5 -129l244 -231q66 91 100 199l176 -56q-51 -159 -149 -268l225 -219h-279l-94 88q-159 -113 -360 -113q-185 0 -305.5 87.5t-120.5 240.5z M287 326q0 -80 66 -130.5t173 -50.5q126 0 213 70l-297 289q-155 -67 -155 -178zM408 868q0 -46 29 -87t87 -95q96 39 146.5 82t50.5 102q0 58 -44.5 90.5t-111.5 32.5t-112 -32.5t-45 -92.5z" />
<glyph horiz-adv-x="1349" d="M45 850q0 122 81.5 205.5t205.5 83.5q125 0 207 -83t82 -206q0 -124 -82 -207.5t-207 -83.5q-124 0 -205.5 83.5t-81.5 207.5zM184 850q0 -65 41.5 -109.5t106.5 -44.5t106 44t41 110q0 65 -41 108t-106 43t-106.5 -43t-41.5 -108zM266 0l654 1120h163l-653 -1120h-164z M733 274q0 122 81.5 204.5t205.5 82.5t206.5 -82.5t82.5 -204.5q0 -125 -82.5 -207.5t-206.5 -82.5t-205.5 82.5t-81.5 207.5zM872 274q0 -65 42 -109t106 -44q66 0 106.5 43.5t40.5 109.5q0 64 -41 108t-106 44q-64 0 -106 -44t-42 -108z" />
<glyph horiz-adv-x="1978" d="M45 850q0 122 82.5 205.5t206.5 83.5q125 0 206 -83t81 -206q0 -124 -81 -207.5t-206 -83.5q-124 0 -206.5 83.5t-82.5 207.5zM186 850q0 -66 41 -110t107 -44q65 0 106 44t41 110q0 65 -41.5 108t-105.5 43q-67 0 -107.5 -42.5t-40.5 -108.5zM266 0l656 1120h163 l-653 -1120h-166zM733 274q0 122 82.5 204.5t206.5 82.5t205.5 -82.5t81.5 -204.5q0 -125 -81.5 -207.5t-205.5 -82.5t-206.5 82.5t-82.5 207.5zM874 274q0 -65 41.5 -109t106.5 -44q66 0 106.5 43.5t40.5 109.5q0 64 -41 108t-106 44t-106.5 -44t-41.5 -108zM1362 274 q0 122 82 204.5t207 82.5q124 0 204 -82t80 -205q0 -125 -80 -207.5t-204 -82.5q-126 0 -207.5 82.5t-81.5 207.5zM1501 274q0 -66 41.5 -109.5t108.5 -43.5q65 0 106 44t41 109q0 64 -41.5 108t-105.5 44q-66 0 -108 -44t-42 -108z" />
<glyph horiz-adv-x="571" d="M170 0v229h231v-229h-231zM170 877v243h231v-243l-61 -523h-111z" />
<glyph horiz-adv-x="583" d="M176 0v244l60 522h110l62 -522v-244h-232zM176 891v229h232v-229h-232z" />
<glyph horiz-adv-x="954" d="M59 991q184 154 404 154q180 0 294.5 -95t114.5 -255q0 -147 -101 -241.5t-257 -119.5v-86h-203v258q41 -10 88 -10q109 0 178.5 51t69.5 139q0 78 -58 127.5t-153 49.5q-130 0 -256 -107zM291 0v221h250v-221h-250z" />
<glyph horiz-adv-x="952" d="M82 326q0 147 101.5 240.5t258.5 119.5v86h203v-258q-41 10 -88 10q-109 0 -179.5 -51t-70.5 -139q0 -78 58.5 -127t154.5 -49q131 0 256 106l121 -135q-184 -154 -403 -154q-181 0 -296.5 95t-115.5 256zM416 897v223h250v-223h-250z" />
<glyph horiz-adv-x="524" d="M150 0v1075h225v-1075h-225zM168 1204v160h188v-160h-188z" />
<glyph horiz-adv-x="841" d="M80 436q0 100 16 177.5t53 141.5t104.5 98t164.5 34q98 0 167 -34t106.5 -98t54 -141.5t16.5 -177.5q0 -79 -9.5 -144t-34 -123.5t-62.5 -98.5t-98.5 -63t-139.5 -23q-97 0 -164.5 34t-104.5 98.5t-53 142t-16 177.5zM256 436q0 -72 7 -123.5t24 -94t50 -64t81 -21.5 q50 0 83.5 21.5t51 64t24.5 94t7 123.5q0 96 -12 158.5t-50 103.5t-104 41q-48 0 -81 -21.5t-50 -64.5t-24 -94.5t-7 -122.5z" />
<glyph horiz-adv-x="696" d="M66 760q201 40 282 110h131v-716h187v-154h-578v154h217v520q-100 -35 -217 -47z" />
<glyph horiz-adv-x="604" d="M23 760q201 40 282 110h131v-870h-176v674q-94 -35 -215 -47z" />
<glyph horiz-adv-x="806" d="M51 696q60 89 145 140t191 51q143 0 232.5 -75t89.5 -204q0 -106 -74 -199.5t-277 -250.5h383v-158h-661v131q258 196 351 292.5t93 176.5q0 59 -44 94t-107 35q-56 0 -103.5 -30.5t-79.5 -82.5z" />
<glyph horiz-adv-x="821" d="M53 195l154 53q57 -107 205 -107q71 0 112 33t41 86q0 49 -37 77t-100 28h-115v151h109q46 0 84.5 26.5t38.5 78.5q0 54 -43 81t-107 27q-129 0 -192 -96l-135 72q116 182 340 182q134 0 222.5 -64.5t88.5 -181.5q0 -125 -101 -184q66 -26 96.5 -82t30.5 -121 q0 -119 -91.5 -194.5t-241.5 -75.5q-260 0 -359 211z" />
<glyph horiz-adv-x="813" d="M45 188v136q72 126 119.5 275t50.5 271h170q-1 -120 -45 -260.5t-115 -269.5h252v330h168v-330h125v-152h-125v-188h-170v188h-430z" />
<glyph horiz-adv-x="800" d="M49 154l137 84q66 -97 203 -97q69 0 117.5 38.5t48.5 107.5q0 68 -46 107.5t-128 39.5q-105 0 -176 -80l-103 43l29 473h555v-159h-410q-5 -76 -20 -189q71 47 172 47q138 0 222.5 -76t84.5 -210q0 -54 -20 -105.5t-59.5 -95.5t-108 -71t-156.5 -27q-222 0 -342 170z" />
<glyph horiz-adv-x="811" d="M72 324q0 289 280 546h248q-227 -163 -305 -335q34 28 82.5 42.5t87.5 14.5q131 0 215 -81t84 -214q0 -138 -95.5 -225.5t-248.5 -87.5q-161 0 -254.5 89t-93.5 251zM252 293q0 -71 44 -114.5t122 -43.5q80 0 123 43.5t43 116.5q0 72 -43 115t-123 43q-78 0 -122 -44 t-44 -116z" />
<glyph horiz-adv-x="739" d="M37 711v159h682v-129q-349 -431 -354 -741h-195q3 81 29 169t58 157t83 150.5t83.5 126.5t80.5 108h-467z" />
<glyph horiz-adv-x="839" d="M74 246q0 149 139 217q-109 56 -109 184q0 115 86 177.5t230 62.5q145 0 230 -62.5t85 -177.5q0 -119 -112 -182q70 -34 106.5 -92t36.5 -127q0 -124 -94.5 -193t-251.5 -69q-158 0 -252 69t-94 193zM250 256q0 -65 48.5 -98t121.5 -33t120.5 32t47.5 97q0 68 -48 103.5 t-120 35.5q-73 0 -121.5 -35t-48.5 -102zM281 639q0 -57 39.5 -86t97.5 -29q60 0 101.5 29t41.5 86q0 53 -40.5 79.5t-100.5 26.5t-99.5 -26t-39.5 -80z" />
<glyph horiz-adv-x="811" d="M47 571q0 140 96 228t248 88q161 0 254.5 -89t93.5 -251q0 -290 -280 -547h-246q228 163 303 334q-63 -53 -168 -53q-132 0 -216.5 79t-84.5 211zM227 573q0 -72 43 -113.5t121 -41.5q80 0 125 43t45 114q0 72 -45 115t-125 43q-78 0 -121 -43.5t-43 -116.5z" />
<glyph horiz-adv-x="841" d="M80 930q0 100 16 177.5t53 141t104.5 97.5t164.5 34q98 0 167 -34t106.5 -97.5t54 -141t16.5 -177.5t-16.5 -178t-54 -142t-106.5 -98.5t-167 -34.5q-97 0 -164.5 34.5t-104.5 98.5t-53 142t-16 178zM256 930q0 -71 7 -122.5t24 -94.5t50 -64.5t81 -21.5q66 0 104 41 t50 103.5t12 158.5q0 72 -7 123t-24.5 93.5t-51 63.5t-83.5 21q-93 0 -127.5 -76.5t-34.5 -224.5z" />
<glyph horiz-adv-x="698" d="M66 1255q202 35 282 109h131v-717h187v-153h-578v153h217v520q-96 -34 -217 -49z" />
<glyph horiz-adv-x="604" d="M23 1255q198 34 282 109h131v-870h-176v673q-90 -33 -215 -49z" />
<glyph horiz-adv-x="806" d="M51 1190q126 190 336 190q143 0 232.5 -74t89.5 -202q0 -108 -73.5 -200.5t-277.5 -252.5h383v-157h-661v131q259 197 351.5 292.5t92.5 176.5q0 59 -44 93t-107 34q-56 0 -104 -29.5t-79 -81.5z" />
<glyph horiz-adv-x="819" d="M51 688l154 53q57 -106 205 -106q70 0 111.5 33.5t41.5 85.5q0 49 -36.5 76.5t-100.5 27.5h-115v152h109q46 0 84.5 26t38.5 78q0 54 -43 81.5t-107 27.5q-129 0 -192 -99l-135 74q118 182 340 182q134 0 222.5 -64t88.5 -181q0 -126 -101 -185q67 -26 97 -81t30 -121 q0 -118 -92 -194.5t-241 -76.5q-260 0 -359 211z" />
<glyph horiz-adv-x="813" d="M45 682v135q72 126 119.5 275.5t50.5 271.5h170q-1 -120 -45 -260.5t-115 -269.5h252v329h168v-329h125v-152h-125v-188h-170v188h-430z" />
<glyph horiz-adv-x="804" d="M53 647l137 84q65 -98 203 -98q69 0 117.5 39t48.5 108q0 68 -46 108t-128 40q-105 0 -176 -80l-103 45l29 471h555v-160h-409q-3 -49 -21 -188q70 49 172 49q137 0 222 -77.5t85 -211.5q0 -55 -20 -106.5t-60 -95.5t-108 -70.5t-156 -26.5q-224 0 -342 170z" />
<glyph horiz-adv-x="811" d="M72 817q0 290 280 547h248q-227 -163 -305 -338q33 29 81 43t89 14q131 0 215 -79.5t84 -212.5q0 -139 -95.5 -226.5t-248.5 -87.5q-161 0 -254.5 89t-93.5 251zM252 786q0 -70 44 -112.5t122 -42.5q80 0 123 42.5t43 114.5t-43 115t-123 43q-78 0 -122 -44t-44 -116z " />
<glyph horiz-adv-x="735" d="M35 1204v160h682v-129q-61 -75 -115.5 -153.5t-112 -178.5t-92 -207t-35.5 -202h-194q3 80 29 168t58 157t83 150t83.5 126.5t80.5 108.5h-467z" />
<glyph horiz-adv-x="839" d="M74 737q0 151 139 219q-109 56 -109 187q0 112 86 174.5t230 62.5q145 0 230 -62.5t85 -174.5q0 -121 -112 -187q70 -34 106.5 -92t36.5 -127q0 -124 -94.5 -192t-251.5 -68q-158 0 -252 68t-94 192zM250 750q0 -66 48 -99t122 -33q73 0 120.5 32.5t47.5 99.5t-47.5 101 t-120.5 34t-121.5 -34t-48.5 -101zM281 1133q0 -57 39.5 -86t97.5 -29q60 0 101.5 29t41.5 86q0 53 -40.5 79.5t-100.5 26.5t-99.5 -26t-39.5 -80z" />
<glyph horiz-adv-x="811" d="M47 1065q0 139 96 227t248 88q161 0 254.5 -89t93.5 -251q0 -289 -280 -546h-246q229 164 303 333q-34 -28 -81 -41.5t-87 -13.5q-132 0 -216.5 80.5t-84.5 212.5zM227 1067q0 -72 43 -114t121 -42q80 0 125 43t45 115t-45 115t-125 43q-78 0 -121 -43.5t-43 -116.5z" />
<glyph horiz-adv-x="505" d="M125 920q100 93 100 202q-1 38 -27 96.5t-26 106.5v39h217v-160q0 -113 -45 -200t-143 -170z" />
</font>
</defs>
</svg>
