<?xml version="1.0" standalone="no"?>
<!DOCTYPE svg PUBLIC "-//W3C//DTD SVG 1.1//EN" "http://www.w3.org/Graphics/SVG/1.1/DTD/svg11.dtd" >
<svg xmlns="http://www.w3.org/2000/svg">
<metadata></metadata>
<defs>
<font id="ars_maquette_proregular" horiz-adv-x="1187" >
<font-face units-per-em="2048" ascent="1638" descent="-410" />
<missing-glyph horiz-adv-x="552" />
<glyph unicode="ff" horiz-adv-x="1343" d="M51 918v147h182v125q0 146 84 220.5t234 74.5q100 0 164 -23l-25 -147q-74 18 -127 18q-77 0 -114 -32t-37 -107v-129h448v125q0 146 84.5 220.5t233.5 74.5q99 0 163 -23l-24 -147q-74 18 -125 18q-79 0 -116.5 -32t-37.5 -107v-129h250v-147h-250v-918h-178v918h-448 v-918h-179v918h-182z" />
<glyph unicode="fi" horiz-adv-x="1185" d="M51 918v147h182v125q0 146 84 220.5t234 74.5q100 0 164 -23l-25 -147q-74 18 -129 18q-76 0 -112.5 -32t-36.5 -107v-129h250v-147h-250v-918h-179v918h-182zM848 0v1065h178v-1065h-178zM848 1274v188h178v-188h-178z" />
<glyph unicode="fl" horiz-adv-x="1202" d="M51 918v147h182v125q0 146 84 220.5t234 74.5q100 0 164 -23l-25 -147q-74 18 -129 18q-76 0 -112.5 -32t-36.5 -107v-129h250v-147h-250v-918h-179v918h-182zM858 0v1462h178v-1462h-178z" />
<glyph unicode="fj" horiz-adv-x="1202" d="M51 918v147h182v125q0 146 84 220.5t234 74.5q100 0 164 -23l-25 -147q-74 18 -129 18q-76 0 -112.5 -32t-36.5 -107v-129h250v-147h-250v-918h-179v918h-182zM518 -342l49 147q53 -22 111 -22q186 0 186 211v1071h178v-1067q0 -182 -97 -276.5t-257 -94.5q-99 0 -170 31 zM864 1274v188h178v-188h-178z" />
<glyph unicode=" "  horiz-adv-x="552" />
<glyph unicode="&#x09;" horiz-adv-x="552" />
<glyph unicode="&#xa0;" horiz-adv-x="552" />
<glyph unicode="!" horiz-adv-x="548" d="M172 0v227h205v-227h-205zM172 1059v305h205v-305l-55 -647h-95z" />
<glyph unicode="&#x22;" horiz-adv-x="794" d="M102 1296v68h207v-68l-61 -436h-84zM487 1296v68h205v-68l-61 -436h-82z" />
<glyph unicode="#" horiz-adv-x="1296" d="M78 387v113h254l65 364h-235v113h254l69 387h123l-67 -387h319l70 387h123l-70 -387h236v-113h-254l-66 -364h236v-113h-254l-70 -387h-123l70 387h-322l-67 -387h-123l67 387h-235zM457 500h319l66 364h-322z" />
<glyph unicode="$" d="M59 252l150 94q56 -94 146.5 -147t197.5 -66v492q-71 16 -124.5 32.5t-115.5 47.5t-102 69.5t-67 99t-27 136.5q0 169 121 270t315 109v143h111v-146q128 -14 236 -74t183 -161l-135 -92q-111 138 -284 168v-443q77 -19 133.5 -37.5t119 -51.5t102 -72.5t65.5 -100 t26 -135.5q0 -170 -121 -281.5t-325 -128.5v-176h-111v176q-168 9 -295 81.5t-199 193.5zM297 1028q0 -50 17.5 -85.5t56 -60t77.5 -39t105 -32.5v422q-112 -5 -184 -55t-72 -150zM664 133q123 9 194.5 72t71.5 168q0 97 -65 144.5t-201 82.5v-467z" />
<glyph unicode="%" horiz-adv-x="1560" d="M72 1049q0 143 90 238t231 95t231.5 -95t90.5 -238q0 -146 -90.5 -242t-231.5 -96t-231 96t-90 242zM197 1049q0 -91 53.5 -151t142.5 -60q88 0 141.5 60t53.5 151q0 89 -54 147.5t-141 58.5q-89 0 -142.5 -58t-53.5 -148zM354 0l709 1364h143l-710 -1364h-142zM846 317 q0 142 90.5 238t230.5 96q143 0 232.5 -95.5t89.5 -238.5q0 -144 -89.5 -239.5t-232.5 -95.5q-140 0 -230.5 95.5t-90.5 239.5zM973 317q0 -90 54 -150.5t140 -60.5q88 0 142.5 60.5t54.5 150.5q0 89 -54.5 149t-142.5 60q-86 0 -140 -60t-54 -149z" />
<glyph unicode="&#x26;" horiz-adv-x="1376" d="M70 360q0 254 311 385q-85 92 -121.5 161t-36.5 157q0 155 104.5 240.5t268.5 85.5q165 0 267 -86t102 -226q0 -119 -78.5 -208.5t-237.5 -163.5l332 -336q89 126 127 264l162 -41q-57 -193 -176 -340l249 -252h-235l-135 133q-191 -158 -428 -158q-133 0 -240 44.5 t-171 133t-64 207.5zM256 381q0 -112 86 -180t225 -68q166 0 295 115l-385 393q-103 -45 -162 -107t-59 -153zM393 1065q0 -64 36.5 -118.5t117.5 -137.5q46 21 77.5 38t67.5 42t58 49.5t36.5 58t14.5 70.5q0 84 -59 129t-146 45q-85 0 -144 -46t-59 -130z" />
<glyph unicode="'" horiz-adv-x="407" d="M102 1296v68h205v-68l-63 -436h-82z" />
<glyph unicode="(" horiz-adv-x="591" d="M86 621q0 241 85.5 464t264.5 410l115 -94q-303 -320 -303 -780t303 -783l-115 -92q-350 364 -350 875z" />
<glyph unicode=")" horiz-adv-x="591" d="M39 -162q305 322 305 783t-305 780l117 94q350 -370 350 -874q0 -241 -86 -465t-264 -410z" />
<glyph unicode="*" horiz-adv-x="884" d="M90 899q72 43 127 68t160 63q-106 40 -160.5 65t-126.5 68l62 107q71 -39 121 -74.5t137 -108.5q-20 107 -25.5 167.5t-5.5 148.5h125q0 -87 -5.5 -148t-23.5 -168q87 73 136.5 108.5t119.5 74.5l64 -107q-73 -43 -128 -68t-161 -65q105 -38 160 -63t129 -68l-64 -106 q-71 40 -120.5 75.5t-135.5 106.5q18 -107 23.5 -168t5.5 -148h-125q0 88 5.5 148.5t25.5 167.5q-86 -72 -136 -107t-122 -75z" />
<glyph unicode="+" d="M104 545v155h408v410h158v-410h409v-155h-409v-410h-158v410h-408z" />
<glyph unicode="," horiz-adv-x="514" d="M139 -242q54 43 83.5 96.5t29.5 102.5v43h-105v217h220v-201q0 -97 -40 -175.5t-122 -149.5z" />
<glyph unicode="-" horiz-adv-x="804" d="M127 496v159h551v-159h-551z" />
<glyph unicode="." horiz-adv-x="514" d="M147 0v217h220v-217h-220z" />
<glyph unicode="/" horiz-adv-x="722" d="M66 -221l450 1683h146l-451 -1683h-145z" />
<glyph unicode="0" d="M96 682q0 111 14.5 208.5t50.5 191t91 160t142.5 107t199.5 40.5t199.5 -40.5t142.5 -107t91 -160t50.5 -191t14.5 -208.5q0 -110 -14.5 -207.5t-50.5 -191t-91 -160.5t-142.5 -107.5t-199.5 -40.5t-199.5 40.5t-142.5 107.5t-91 160.5t-50.5 191t-14.5 207.5zM293 682 q0 -543 301 -543q299 0 299 543q0 541 -299 541q-301 0 -301 -541z" />
<glyph unicode="1" d="M182 1188q294 56 414 176h145v-1206h324v-158h-858v158h342v979q-55 -30 -153 -60t-191 -41z" />
<glyph unicode="2" d="M96 1122q82 124 203.5 195.5t275.5 71.5q196 0 323.5 -114t127.5 -304q0 -93 -34 -179.5t-113.5 -183t-191 -197t-284.5 -235.5h676v-176h-954v147q203 168 325.5 278t212.5 210.5t126 176t36 151.5q0 123 -73 187t-191 64q-103 0 -183.5 -51.5t-129.5 -134.5z" />
<glyph unicode="3" d="M78 252l166 90q50 -97 139.5 -146t202.5 -49q137 0 212.5 67.5t75.5 182.5q0 105 -76.5 166.5t-226.5 61.5h-106v166h110q124 0 193.5 60t69.5 161q0 95 -68 150t-188 55q-212 0 -326 -164l-143 100q181 236 475 236q196 0 320 -101t124 -258q0 -106 -54.5 -183 t-150.5 -124q122 -48 184 -137.5t62 -198.5q0 -178 -132.5 -295t-354.5 -117q-357 0 -508 277z" />
<glyph unicode="4" d="M68 319v158q135 233 206.5 469.5t71.5 417.5h186q0 -182 -76 -422t-208 -455h483v578h189v-578h200v-168h-200v-319h-189v319h-663z" />
<glyph unicode="5" d="M92 236l162 96q97 -182 319 -182q141 0 225.5 76.5t84.5 211.5q0 130 -80.5 205.5t-220.5 75.5q-186 0 -293 -131l-117 55l45 721h787v-176h-629l-33 -391q120 86 285 86q197 0 325.5 -122t128.5 -317q0 -128 -57 -233t-172.5 -170.5t-271.5 -65.5q-336 0 -488 261z" />
<glyph unicode="6" d="M104 481q0 123 37 243t107 231.5t151.5 207.5t190.5 201h270q-152 -120 -294.5 -279t-200.5 -297q51 55 135.5 81t167.5 26q188 0 313 -124t125 -325q0 -208 -138 -339.5t-364 -131.5q-228 0 -364 134t-136 372zM301 442q0 -133 80.5 -214t224.5 -81q142 0 220.5 80.5 t78.5 214.5t-78.5 213.5t-220.5 79.5q-144 0 -224.5 -80t-80.5 -213z" />
<glyph unicode="7" d="M102 1188v176h994v-156q-65 -83 -127 -169.5t-144.5 -221t-143 -261t-106 -276.5t-51.5 -280h-207q7 129 51.5 275.5t102.5 270t137 255.5t138 217t124 170h-768z" />
<glyph unicode="8" d="M92 385q0 115 62 209t184 145q-92 43 -143.5 116.5t-51.5 174.5q0 159 128 259t323 100q194 0 322 -100t128 -259q0 -200 -196 -291q123 -51 184.5 -144.5t61.5 -209.5q0 -179 -135 -294.5t-365 -115.5t-366 115.5t-136 294.5zM293 397q0 -120 79 -188t222 -68 q142 0 221.5 68.5t79.5 187.5q0 118 -76.5 185t-224.5 67t-224.5 -67t-76.5 -185zM340 1016q0 -98 67.5 -152.5t186.5 -54.5t186.5 54.5t67.5 152.5t-68 153.5t-186 55.5t-186 -55.5t-68 -153.5z" />
<glyph unicode="9" d="M82 918q0 208 138 339.5t364 131.5q228 0 363.5 -134t135.5 -372q0 -123 -37 -243t-107 -231.5t-151.5 -207.5t-189.5 -201h-270q152 121 294.5 279t200.5 296q-51 -55 -135 -80.5t-168 -25.5q-188 0 -313 124t-125 325zM283 922q0 -134 78.5 -213.5t220.5 -79.5 q144 0 224.5 80t80.5 213t-80.5 214t-224.5 81q-142 0 -220.5 -80.5t-78.5 -214.5z" />
<glyph unicode=":" horiz-adv-x="604" d="M193 0v217h219v-217h-219zM193 848v217h219v-217h-219z" />
<glyph unicode=";" horiz-adv-x="604" d="M184 -242q54 43 83.5 96.5t29.5 102.5v43h-104v217h219v-201q0 -97 -40 -175.5t-122 -149.5zM193 848v217h219v-217h-219z" />
<glyph unicode="&#x3c;" d="M223 625l576 573l106 -108l-463 -465l463 -465l-106 -107z" />
<glyph unicode="=" d="M106 344v158h975v-158h-975zM106 745v156h975v-156h-975z" />
<glyph unicode="&#x3e;" d="M283 160l465 465l-465 465l106 108l576 -573l-576 -572z" />
<glyph unicode="?" horiz-adv-x="1046" d="M61 1217q200 172 437 172q129 0 231.5 -48.5t163.5 -142.5t61 -219q0 -176 -118.5 -288t-309.5 -136v-143h-172v299q27 -6 74 -6q148 0 239 71.5t91 196.5q0 107 -73 175.5t-202 68.5q-169 0 -315 -130zM330 0v209h219v-209h-219z" />
<glyph unicode="@" horiz-adv-x="1724" d="M88 614q0 159 58 301.5t160 247t249 165.5t317 61q169 0 316 -61t247.5 -164t158 -241t57.5 -290q0 -190 -89 -303t-237 -113q-167 0 -229 137q-100 -141 -277 -141q-157 0 -252.5 112.5t-95.5 284.5q0 173 96.5 286.5t255.5 113.5q144 0 240 -113v96h154v-538 q0 -127 118 -127q93 0 142 78t49 210q0 183 -81 331.5t-231 235.5t-340 87q-189 0 -339.5 -90t-231 -239t-80.5 -327q0 -133 48 -253t132 -208t206.5 -140t264.5 -52q179 0 324 86l57 -104q-183 -99 -389 -99q-167 0 -313 60t-247.5 163t-159.5 245t-58 302zM631 610 q0 -113 55.5 -186.5t159.5 -73.5q103 0 160 73.5t57 186.5q0 114 -58 188t-161 74t-158 -73.5t-55 -188.5z" />
<glyph unicode="A" horiz-adv-x="1366" d="M23 0l555 1364h210l558 -1364h-216l-145 379h-614l-148 -379h-200zM436 547h486l-240 631z" />
<glyph unicode="B" horiz-adv-x="1353" d="M184 0v1364h572q210 0 325 -86t115 -242q0 -98 -48 -174.5t-130 -120.5q115 -46 175 -137.5t60 -212.5q0 -172 -116.5 -281.5t-335.5 -109.5h-617zM377 172h418q124 0 191 60.5t67 168.5q0 106 -63.5 170t-186.5 64h-426v-463zM377 801h383q116 0 180 56.5t64 152.5 q0 93 -63 136.5t-191 43.5h-373v-389z" />
<glyph unicode="C" horiz-adv-x="1372" d="M98 682q0 203 82 363.5t233.5 252t346.5 91.5q344 0 536 -275l-151 -104q-132 202 -381 202q-212 0 -338.5 -144.5t-126.5 -383.5q0 -241 127 -387.5t334 -146.5q124 0 222.5 55t162.5 155l158 -102q-90 -135 -228 -209t-313 -74q-196 0 -348 91t-234 251.5t-82 364.5z " />
<glyph unicode="D" horiz-adv-x="1474" d="M184 0v1364h529q156 0 282 -52t208.5 -143.5t126.5 -216t44 -270.5t-44 -270.5t-126.5 -216t-208.5 -143.5t-282 -52h-529zM379 176h334q220 0 340.5 136.5t120.5 369.5t-120.5 369.5t-340.5 136.5h-334v-1012z" />
<glyph unicode="E" horiz-adv-x="1269" d="M184 0v1364h967v-176h-774v-385h674v-166h-674v-461h794v-176h-987z" />
<glyph unicode="F" horiz-adv-x="1232" d="M184 0v1364h985v-176h-792v-393h672v-166h-672v-629h-193z" />
<glyph unicode="G" horiz-adv-x="1476" d="M98 684q0 205 81.5 365t233 250t347.5 90q344 0 536 -275l-151 -104q-132 202 -381 202q-216 0 -340.5 -145.5t-124.5 -384.5q0 -241 125.5 -386.5t339.5 -145.5q185 0 307 103.5t135 278.5h-442v168h625q8 -54 8 -102q0 -125 -43 -237t-121.5 -198t-199.5 -137t-267 -51 q-199 0 -352 91.5t-234.5 252.5t-81.5 365z" />
<glyph unicode="H" horiz-adv-x="1492" d="M184 0v1364h193v-555h739v555h193v-1364h-193v635h-739v-635h-193z" />
<glyph unicode="I" horiz-adv-x="559" d="M184 0v1364h191v-1364h-191z" />
<glyph unicode="J" horiz-adv-x="1036" d="M41 180l154 99q86 -127 239 -127q240 0 240 274v938h192v-936q0 -217 -119.5 -335t-320.5 -118q-260 0 -385 205z" />
<glyph unicode="K" horiz-adv-x="1323" d="M184 0v1364h191v-731l661 731h232l-527 -578l580 -786h-238l-471 649l-237 -264v-385h-191z" />
<glyph unicode="L" horiz-adv-x="1163" d="M184 0v1364h191v-1188h758v-176h-949z" />
<glyph unicode="M" horiz-adv-x="1800" d="M184 0v1364h287l432 -1124l432 1124h281v-1364h-189v1165l-444 -1165h-166l-448 1165v-1165h-185z" />
<glyph unicode="N" horiz-adv-x="1492" d="M184 0v1364h246l694 -1098v1098h185v-1364h-226l-714 1124v-1124h-185z" />
<glyph unicode="O" horiz-adv-x="1525" d="M96 682q0 200 80.5 360.5t233 253.5t352.5 93t353 -93t234 -253.5t81 -360.5t-81 -360.5t-234 -253.5t-353 -93t-352.5 93t-233 253.5t-80.5 360.5zM297 682q0 -236 125 -382t340 -146q214 0 339.5 146.5t125.5 381.5t-125.5 380.5t-339.5 145.5q-215 0 -340 -145.5 t-125 -380.5z" />
<glyph unicode="P" horiz-adv-x="1298" d="M184 0v1364h574q228 0 354.5 -115t126.5 -309t-126.5 -308t-354.5 -114h-381v-518h-193zM377 694h381q139 0 210.5 65.5t71.5 180.5q0 117 -71.5 182.5t-210.5 65.5h-381v-494z" />
<glyph unicode="Q" horiz-adv-x="1525" d="M96 682q0 200 80.5 360.5t233 253.5t352.5 93t353 -93t234 -253.5t81 -360.5q0 -164 -58.5 -304.5t-163.5 -236.5l154 -184l-129 -109l-162 197q-140 -70 -309 -70q-200 0 -352.5 93t-233 253.5t-80.5 360.5zM297 682q0 -236 125 -382t340 -146q106 0 186 41l-143 176 l127 102l153 -186q142 145 142 395q0 235 -125.5 380.5t-339.5 145.5q-215 0 -340 -145.5t-125 -380.5z" />
<glyph unicode="R" horiz-adv-x="1353" d="M184 0v1364h598q210 0 333.5 -108.5t123.5 -290.5q0 -138 -77 -237t-204 -144l318 -584h-217l-291 549h-391v-549h-193zM377 717h405q118 0 188 64t70 169q0 108 -72.5 173t-191.5 65h-399v-471z" />
<glyph unicode="S" horiz-adv-x="1239" d="M72 256l157 100q68 -108 176 -160.5t236 -52.5q140 0 224.5 62.5t84.5 171.5q0 46 -20 81.5t-42 56t-80 41.5t-90 29t-117 27q-11 3 -17 4q-79 17 -137 34.5t-120.5 48t-102 69.5t-65.5 98.5t-26 134.5q0 180 133 284t344 104q157 0 290.5 -62.5t221.5 -179.5l-147 -105 q-64 86 -161 131.5t-214 45.5q-76 0 -135 -18.5t-99 -65t-40 -115.5q0 -27 5.5 -49.5t20 -40.5t27.5 -32t40 -27t45.5 -21t55 -18t57.5 -15.5t64 -15.5q66 -15 111.5 -27.5t102.5 -32t95.5 -40.5t78 -51.5t63 -66.5t38.5 -84.5t15 -105.5q0 -188 -141.5 -303t-376.5 -115 q-189 0 -333 75t-222 206z" />
<glyph unicode="T" horiz-adv-x="1226" d="M53 1188v176h1121v-176h-465v-1188h-193v1188h-463z" />
<glyph unicode="U" horiz-adv-x="1454" d="M168 512v852h190v-852q0 -164 98 -261t269 -97q170 0 270.5 97.5t100.5 260.5v852h190v-852q0 -244 -156.5 -390.5t-404.5 -146.5q-247 0 -402 146t-155 391z" />
<glyph unicode="V" horiz-adv-x="1296" d="M25 1364h206l418 -1139l424 1139h199l-524 -1364h-199z" />
<glyph unicode="W" horiz-adv-x="1929" d="M53 1364h203l291 -1120l330 1120h184l330 -1124l288 1124h199l-381 -1364h-213l-319 1106l-320 -1106h-219z" />
<glyph unicode="X" horiz-adv-x="1329" d="M14 0l529 709l-488 655h232l379 -526l383 526h223l-486 -655l529 -709h-236l-417 569l-420 -569h-228z" />
<glyph unicode="Y" horiz-adv-x="1257" d="M12 1364h226l395 -635l399 635h217l-524 -807v-557h-193v555z" />
<glyph unicode="Z" horiz-adv-x="1232" d="M84 0v160l793 1028h-762v176h1011v-156l-796 -1032h813v-176h-1059z" />
<glyph unicode="[" horiz-adv-x="610" d="M164 -221v1683h426v-141h-264v-1403h264v-139h-426z" />
<glyph unicode="\" horiz-adv-x="722" d="M61 1462h146l450 -1683h-145z" />
<glyph unicode="]" horiz-adv-x="612" d="M18 -82h269v1403h-269v141h431v-1683h-431v139z" />
<glyph unicode="^" d="M51 895l469 469h148l469 -469l-107 -111l-434 437l-438 -437z" />
<glyph unicode="_" horiz-adv-x="1243" d="M10 -154h1223v-102h-1223v102z" />
<glyph unicode="`" horiz-adv-x="655" d="M133 1462l170 27q63 -116 180 -246l-69 -59q-89 51 -170 130t-111 148z" />
<glyph unicode="a" horiz-adv-x="1161" d="M78 299q0 60 16 108t46 80.5t64 56t79.5 38.5t81.5 22.5t81 13.5q22 3 61 8t61.5 7.5t56 9t53 13t42.5 17.5t35 24.5t20.5 33.5t8.5 45q0 43 -21.5 74.5t-57.5 48.5t-76.5 25t-85.5 8q-182 0 -332 -113l-82 135q198 136 426 136q191 0 301.5 -86t110.5 -263v-503 q0 -59 20 -87t64 -28q41 0 63 16l23 -135q-50 -20 -123 -20q-81 0 -138.5 42t-68.5 128q-66 -94 -162.5 -136.5t-204.5 -42.5q-166 0 -264 86.5t-98 237.5zM260 303q0 -91 61 -135.5t160 -44.5q61 0 114.5 17t97.5 50t69.5 90t25.5 130v184q-21 -26 -45 -43.5t-58.5 -28.5 t-57 -15.5t-73 -12t-73.5 -11.5q-53 -9 -87 -19t-67.5 -29t-50 -52t-16.5 -80z" />
<glyph unicode="b" horiz-adv-x="1296" d="M160 0v1462h178v-573q139 201 379 201q148 0 260.5 -74t170.5 -200t58 -284q0 -241 -134 -399t-355 -158q-240 0 -379 199v-174h-178zM338 530q0 -171 91 -281t253 -110t248 110t86 281q0 111 -35.5 198.5t-112.5 141.5t-186 54q-163 0 -253.5 -112t-90.5 -282z" />
<glyph unicode="c" horiz-adv-x="1097" d="M90 532q0 242 142 400t374 158q136 0 244 -59t180 -163l-133 -106q-103 166 -285 166q-152 0 -242.5 -111.5t-90.5 -284.5t90.5 -284t240.5 -111q183 0 289 160l137 -98q-72 -103 -180.5 -163.5t-249.5 -60.5q-154 0 -272.5 73t-181 199.5t-62.5 284.5z" />
<glyph unicode="d" horiz-adv-x="1298" d="M92 530q0 159 58.5 285.5t171 200.5t260.5 74q238 0 379 -201v573h178v-1462h-178v174q-139 -199 -379 -199q-148 0 -260.5 73.5t-171 199t-58.5 282.5zM281 532q0 -111 35.5 -198t112 -141t185.5 -54q164 0 255.5 111.5t91.5 281.5q0 171 -92 281.5t-255 110.5 q-108 0 -184.5 -53.5t-112.5 -140.5t-36 -198z" />
<glyph unicode="e" horiz-adv-x="1200" d="M90 528q0 157 61.5 284t181.5 202.5t279 75.5q153 0 269.5 -71t177.5 -191t61 -269q0 -42 -4 -70h-835q7 -164 103.5 -257t254.5 -93q184 0 315 140l119 -117q-174 -187 -438 -187q-169 0 -294 73t-188 197t-63 283zM285 627h651q-13 148 -103.5 228.5t-222.5 80.5 q-138 0 -226 -86t-99 -223z" />
<glyph unicode="f" horiz-adv-x="716" d="M51 918v147h182v125q0 146 84 220.5t234 74.5q100 0 164 -23l-25 -147q-74 18 -129 18q-76 0 -112.5 -32t-36.5 -107v-129h250v-147h-250v-918h-179v918h-182z" />
<glyph unicode="g" horiz-adv-x="1302" d="M94 567q0 226 138.5 374.5t351.5 148.5q119 0 218.5 -50.5t162.5 -150.5v176h178v-893q0 -255 -115 -383q-143 -166 -448 -166q-259 0 -445 127l90 146q153 -111 357 -111q174 0 278.5 86t104.5 264v115q-62 -98 -166.5 -148.5t-223.5 -50.5q-212 0 -346.5 146 t-134.5 370zM283 571q0 -156 86.5 -258t248.5 -102t255.5 102.5t93.5 257.5q0 154 -92.5 254.5t-256.5 100.5q-83 0 -148 -28t-105 -77t-61 -112.5t-21 -137.5z" />
<glyph unicode="h" horiz-adv-x="1222" d="M160 0v1462h178v-573q137 201 364 201q173 0 273 -107.5t100 -296.5v-686h-178v645q0 277 -238 277q-138 0 -229.5 -92.5t-91.5 -239.5v-590h-178z" />
<glyph unicode="i" horiz-adv-x="497" d="M160 0v1065h178v-1065h-178zM160 1274v188h178v-188h-178z" />
<glyph unicode="j" horiz-adv-x="497" d="M-186 -342l49 147q53 -22 110 -22q187 0 187 211v1071h178v-1067q0 -182 -97 -276.5t-257 -94.5q-99 0 -170 31zM160 1274v188h178v-188h-178z" />
<glyph unicode="k" horiz-adv-x="1165" d="M160 0v1462h178v-948l534 551h226l-430 -436l485 -629h-225l-385 510l-205 -207v-303h-178z" />
<glyph unicode="l" horiz-adv-x="509" d="M166 0v1462h178v-1462h-178z" />
<glyph unicode="m" horiz-adv-x="1888" d="M160 0v1065h178v-172q133 197 346 197q118 0 200.5 -56t119.5 -160q68 103 163.5 159.5t212.5 56.5q170 0 265.5 -105t95.5 -291v-694h-178v651q0 271 -224 271q-129 0 -215 -91t-86 -235v-596h-178v651q0 44 -5 80t-19.5 72.5t-38.5 61.5t-65 41t-95 16q-131 0 -215 -90 t-84 -236v-596h-178z" />
<glyph unicode="n" horiz-adv-x="1222" d="M160 0v1065h178v-176q137 201 364 201q173 0 273 -107.5t100 -296.5v-686h-178v645q0 277 -238 277q-138 0 -229.5 -92.5t-91.5 -239.5v-590h-178z" />
<glyph unicode="o" horiz-adv-x="1228" d="M90 530q0 247 142.5 403.5t381.5 156.5q238 0 381.5 -156.5t143.5 -403.5q0 -243 -143.5 -399t-381.5 -156q-159 0 -279 72.5t-182.5 197.5t-62.5 285zM279 530q0 -171 90 -283t245 -112t244.5 112t89.5 283q0 174 -89 286t-245 112t-245.5 -112t-89.5 -286z" />
<glyph unicode="p" horiz-adv-x="1296" d="M160 -356v1421h178v-176q139 201 379 201q148 0 260.5 -74.5t170.5 -200.5t58 -283q0 -241 -134 -399t-355 -158q-240 0 -379 199v-530h-178zM338 530q0 -169 91 -280t253 -111t248 110t86 281q0 111 -35.5 198.5t-112.5 141.5t-186 54q-163 0 -253.5 -112t-90.5 -282z " />
<glyph unicode="q" horiz-adv-x="1298" d="M92 530q0 242 134 401t356 159q238 0 379 -201v176h178v-1421h-178v530q-139 -199 -379 -199q-148 0 -260.5 73.5t-171 199t-58.5 282.5zM281 532q0 -171 86 -282t247 -111q163 0 255 111.5t92 281.5q0 171 -92 281.5t-255 110.5q-161 0 -247 -110t-86 -282z" />
<glyph unicode="r" horiz-adv-x="804" d="M160 0v1065h178v-180q57 92 136 146t173 54q87 0 146 -38l-58 -170q-62 32 -123 32q-112 0 -193 -95t-81 -259v-555h-178z" />
<glyph unicode="s" horiz-adv-x="1060" d="M66 203l131 98q125 -172 350 -172q112 0 180 44.5t68 127.5q0 20 -4 36.5t-14.5 30t-21.5 24t-33.5 20t-40 15.5t-51.5 14t-58.5 13t-69.5 13q-70 13 -121 27t-103 38.5t-84 56t-52.5 79t-20.5 108.5q0 79 33 140.5t89.5 98.5t126.5 56t150 19q139 0 249 -51.5 t183 -127.5l-118 -112q-118 137 -316 137q-94 0 -159.5 -36t-65.5 -107q0 -23 8 -42t19 -32.5t33 -25.5t39.5 -19.5t50 -16t54 -13t60.5 -11.5q54 -10 90.5 -18.5t84.5 -23t79 -29.5t64.5 -39t53 -52.5t32 -68.5t12.5 -87q0 -154 -116.5 -247t-319.5 -93q-156 0 -277.5 59.5 t-193.5 168.5z" />
<glyph unicode="t" horiz-adv-x="806" d="M39 918v147h184v299h178v-299h344v-147h-344v-596q0 -185 164 -185q80 0 137 45l76 -135q-93 -72 -231 -72q-195 0 -279 136q-45 70 -45 211v596h-184z" />
<glyph unicode="u" horiz-adv-x="1222" d="M147 377v688h179v-647q0 -277 235 -277q140 0 232 92.5t92 239.5v592h178v-1065h-178v174q-141 -199 -365 -199q-173 0 -273 107t-100 295z" />
<glyph unicode="v" horiz-adv-x="1095" d="M29 1065h200l322 -852l321 852h195l-426 -1065h-186z" />
<glyph unicode="w" horiz-adv-x="1613" d="M57 1065h191l215 -850l266 850h164l264 -850l217 850h182l-294 -1065h-195l-258 836l-262 -836h-195z" />
<glyph unicode="x" horiz-adv-x="1101" d="M29 0l411 555l-374 510h215l274 -391l270 391h211l-372 -510l405 -555h-217l-303 430l-303 -430h-217z" />
<glyph unicode="y" horiz-adv-x="1095" d="M27 1065h204l340 -827l301 827h193l-426 -1114q-66 -173 -145.5 -250.5t-221.5 -77.5q-128 0 -217 66l78 131q61 -41 127 -41q68 0 111 42t78 120l28 63z" />
<glyph unicode="z" horiz-adv-x="1040" d="M82 0v145l618 760h-591v160h827v-143l-623 -764h641v-158h-872z" />
<glyph unicode="{" horiz-adv-x="735" d="M47 551v139h59q185 0 185 203v231q0 165 95 257t251 92h84v-140h-76q-190 0 -190 -209v-215q0 -221 -172 -288q172 -67 172 -289v-215q0 -209 190 -209h76v-141h-84q-156 0 -251 92t-95 256v231q0 205 -185 205h-59z" />
<glyph unicode="|" horiz-adv-x="464" d="M164 -221v1683h137v-1683h-137z" />
<glyph unicode="}" horiz-adv-x="735" d="M14 -92h76q103 0 148 54t45 155v213q0 224 172 291q-172 64 -172 288v215q0 209 -193 209h-76v140h86q157 0 250.5 -91.5t93.5 -257.5v-231q0 -203 187 -203h57v-139h-57q-187 0 -187 -205v-231q0 -164 -93.5 -256t-250.5 -92h-86v141z" />
<glyph unicode="~" horiz-adv-x="1249" d="M106 563q89 109 173.5 166t181.5 57q76 0 166 -55q92 -58 125.5 -74t68.5 -16q56 0 106.5 33.5t123.5 113.5l96 -86q-90 -109 -173.5 -166t-180.5 -57q-75 0 -166 56q-92 57 -126 73.5t-69 16.5q-55 0 -105.5 -33.5t-123.5 -114.5z" />
<glyph unicode="&#xa1;" horiz-adv-x="544" d="M170 2l55 645h94l56 -645v-303h-205v303zM170 838v227h205v-227h-205z" />
<glyph unicode="&#xa2;" d="M121 532q0 226 125.5 379.5t335.5 173.5v170h110v-170q230 -20 369 -217l-133 -106q-89 142 -236 162v-785q146 19 238 158l137 -98q-138 -196 -375 -219v-173h-110v173q-210 19 -335.5 172t-125.5 380zM309 532q0 -155 74 -261.5t199 -129.5v781q-126 -23 -199.5 -130 t-73.5 -260z" />
<glyph unicode="&#xa3;" d="M57 575v134h162q-42 101 -58 157t-16 115q0 188 131.5 299t335.5 111q306 0 473 -258l-157 -93q-50 79 -129 125.5t-183 46.5q-121 0 -197.5 -62.5t-76.5 -176.5q0 -27 4 -53.5t15 -59.5t16.5 -48t23 -56.5t19.5 -46.5h407v-134h-370q18 -59 18 -116q0 -151 -110 -277 q88 37 167 37q61 0 170 -31.5t156 -31.5q56 0 90.5 28.5t61.5 94.5l145 -82q-91 -222 -278 -222q-68 0 -204 44t-208 44q-63 0 -146.5 -22t-162.5 -66l-68 138q215 126 215 299q0 83 -35 163h-211z" />
<glyph unicode="&#xa4;" d="M123 264l147 144q-65 97 -65 213q0 119 65 213l-147 147l110 113l148 -150q95 66 213 66q116 0 211 -66l147 150l111 -113l-145 -147q63 -99 63 -213q0 -116 -63 -211l145 -146l-111 -112l-147 145q-97 -64 -211 -64q-116 0 -213 64l-148 -145zM344 621q0 -103 73 -175.5 t177 -72.5t177 72.5t73 175.5q0 104 -73 176.5t-177 72.5t-177 -72.5t-73 -176.5z" />
<glyph unicode="&#xa5;" d="M51 1364h223l324 -637l317 637h220l-359 -651h277v-107h-334l-31 -51v-125h365v-108h-365v-322h-190v322h-367v108h367v123l-33 53h-334v107h279z" />
<glyph unicode="&#xa6;" horiz-adv-x="460" d="M168 -221v643h125v-643h-125zM168 819v643h125v-643h-125z" />
<glyph unicode="&#xa7;" horiz-adv-x="1101" d="M76 842q0 237 150.5 393t398.5 156q212 0 362 -119l-104 -133q-105 94 -262 94q-208 0 -310 -164l289 -182q98 -62 168.5 -120t130 -130.5t89.5 -160t30 -189.5q0 -156 -65 -280.5t-190 -197.5t-290 -73q-216 0 -362 119l100 133q108 -94 266 -94q207 0 307 165l-274 172 q-76 47 -133.5 89.5t-116.5 100.5t-97.5 118.5t-62.5 138.5t-24 164zM246 858q0 -75 16.5 -136.5t44.5 -110.5t82.5 -101t110.5 -95t149 -106l191 -129q10 66 10 107q-1 68 -19 126.5t-47 105.5t-83.5 99t-110 94.5t-144.5 104.5l-188 131q-12 -40 -12 -90z" />
<glyph unicode="&#xa8;" horiz-adv-x="655" d="M35 1223v159h155v-159h-155zM465 1223v159h153v-159h-153z" />
<glyph unicode="&#xa9;" horiz-adv-x="1601" d="M80 682q0 146 57.5 279.5t154 229.5t230 153t279.5 57q117 0 226.5 -36.5t198 -103t155 -154.5t103 -198t36.5 -227q0 -116 -36.5 -226t-103 -198.5t-155 -155t-198.5 -103t-226 -36.5q-146 0 -279.5 57t-230 153.5t-154 230t-57.5 278.5zM190 682q0 -166 81.5 -306.5 t222.5 -222t307 -81.5q165 0 305 81.5t221.5 222t81.5 306.5t-81.5 306.5t-221.5 222t-305 81.5t-306 -81.5t-223 -222t-82 -306.5zM391 682q0 170 120.5 291t289.5 121q110 0 201.5 -52.5t150.5 -148.5l-109 -74q-40 66 -103.5 102.5t-137.5 36.5q-115 0 -197 -81t-82 -195 t82 -195t197 -81q75 0 138.5 37.5t105.5 103.5l110 -72q-59 -96 -152.5 -149.5t-203.5 -53.5q-169 0 -289.5 120t-120.5 290z" />
<glyph unicode="&#xaa;" horiz-adv-x="903" d="M98 877q0 64 25.5 106.5t66 62t89.5 29.5t97.5 14.5t89 11t66 24t25.5 49.5q0 45 -44 65.5t-107 20.5q-122 0 -216 -70l-63 96q131 92 285 92q147 0 213.5 -64t66.5 -204v-268q0 -33 11 -47.5t38 -14.5q21 0 43 11l21 -103q-29 -14 -88 -14q-121 0 -142 94 q-83 -100 -239 -100q-104 0 -171 56.5t-67 152.5zM231 883q0 -51 38 -77t96 -26q82 0 139 43t57 125v101q-29 -27 -67 -39.5t-105 -22.5q-30 -5 -43.5 -7.5t-36.5 -8t-33.5 -12t-23 -17t-17 -25t-4.5 -34.5z" />
<glyph unicode="&#xab;" horiz-adv-x="950" d="M66 502v61l294 393l105 -82l-248 -342l248 -344l-105 -79zM451 502v61l294 393l107 -82l-250 -342l250 -344l-107 -79z" />
<glyph unicode="&#xac;" horiz-adv-x="1214" d="M113 545v155h974v-565h-155v410h-819z" />
<glyph unicode="&#xad;" horiz-adv-x="804" d="M127 496v159h551v-159h-551z" />
<glyph unicode="&#xae;" horiz-adv-x="942" d="M86 1004q0 160 112.5 272.5t272.5 112.5q159 0 272 -113t113 -272q0 -160 -113 -273t-272 -113q-160 0 -272.5 113t-112.5 273zM137 1004q0 -138 98 -236t236 -98t236 98t98 236t-98 235.5t-236 97.5t-236 -97.5t-98 -235.5zM317 807v397h183q59 0 97 -34.5t38 -90.5 q0 -41 -22 -71.5t-58 -42.5l92 -158h-84l-78 147h-94v-147h-74zM391 1016h109q24 0 42.5 17.5t18.5 45.5q0 27 -18.5 45.5t-42.5 18.5h-109v-127z" />
<glyph unicode="&#xaf;" horiz-adv-x="671" d="M27 1245v119h614v-119h-614z" />
<glyph unicode="&#xb0;" horiz-adv-x="784" d="M84 1079q0 128 91 219t218 91q126 0 216.5 -91.5t90.5 -218.5q0 -126 -90.5 -216.5t-216.5 -90.5q-127 0 -218 90.5t-91 216.5zM203 1079q0 -75 57 -131.5t133 -56.5t131.5 56.5t55.5 131.5q0 77 -55.5 133t-131.5 56q-77 0 -133.5 -56.5t-56.5 -132.5z" />
<glyph unicode="&#xb1;" d="M104 0v156h975v-156h-975zM104 690v156h408v397h158v-397h409v-156h-409v-393h-158v393h-408z" />
<glyph unicode="&#xb2;" horiz-adv-x="782" d="M53 1395q126 176 320 176q137 0 224 -73t87 -198q0 -48 -12.5 -88.5t-36 -79t-73 -88t-106.5 -99t-153 -126.5h414v-131h-637v111q264 208 359.5 309t95.5 184q0 67 -51 106.5t-122 39.5q-60 0 -111 -30.5t-85 -80.5z" />
<glyph unicode="&#xb3;" horiz-adv-x="794" d="M55 864l131 49q60 -108 213 -108q80 0 126 38.5t46 98.5q0 57 -39.5 89t-111.5 32h-113v129h107q51 0 94 30.5t43 90.5q0 62 -49 93.5t-121 31.5q-133 0 -201 -99l-110 70q116 162 321 162q131 0 216 -64t85 -176q0 -128 -104 -188q69 -26 100 -83t31 -124 q0 -117 -90 -190.5t-230 -73.5q-247 0 -344 192z" />
<glyph unicode="&#xb4;" horiz-adv-x="655" d="M199 1243q50 53 101.5 122.5t80.5 123.5l170 -27q-30 -69 -111 -148t-170 -130z" />
<glyph unicode="&#x3bc;" d="M135 -356v1421h178v-637q0 -141 59 -216t177 -75q130 0 215.5 88.5t85.5 245.5v594h178v-827q0 -59 16 -87t56 -28t55 12l21 -131q-44 -20 -111 -20q-82 0 -137.5 46t-61.5 130q-60 -93 -145 -139t-176 -46q-79 0 -140 31.5t-92 81.5v-444h-178z" />
<glyph unicode="&#xb5;" d="M135 -356v1421h178v-637q0 -141 59 -216t177 -75q130 0 215.5 88.5t85.5 245.5v594h178v-827q0 -59 16 -87t56 -28t55 12l21 -131q-44 -20 -111 -20q-82 0 -137.5 46t-61.5 130q-60 -93 -145 -139t-176 -46q-79 0 -140 31.5t-92 81.5v-444h-178z" />
<glyph unicode="&#xb6;" horiz-adv-x="1136" d="M72 946q0 125 57 221t152 146.5t211 50.5h483v-1550h-103v1435h-133v-1435h-129v712h-118q-183 0 -301.5 115.5t-118.5 304.5z" />
<glyph unicode="&#xb7;" horiz-adv-x="526" d="M135 623q0 53 38.5 92t90.5 39t89.5 -39t37.5 -92t-37.5 -91t-89.5 -38t-90.5 38t-38.5 91z" />
<glyph unicode="&#xb8;" horiz-adv-x="655" d="M109 -172q57 -57 131 -57q43 0 71.5 24t28.5 64q0 82 -111 147l54 33q85 -32 136.5 -87.5t51.5 -125.5q0 -76 -59.5 -123t-147.5 -47q-99 0 -155 49v123z" />
<glyph unicode="&#xb9;" horiz-adv-x="665" d="M63 1444q200 39 277 110h106v-737h193v-129h-555v129h221v569q-91 -37 -221 -53z" />
<glyph unicode="&#xba;" horiz-adv-x="870" d="M86 1024q0 156 94.5 255t253.5 99t254.5 -99t95.5 -255q0 -155 -95.5 -255.5t-254.5 -100.5q-158 0 -253 100.5t-95 255.5zM225 1024q0 -100 56.5 -165.5t152.5 -65.5q98 0 153.5 65.5t55.5 165.5q0 102 -55.5 166.5t-153.5 64.5q-96 0 -152.5 -65t-56.5 -166z" />
<glyph unicode="&#xbb;" horiz-adv-x="950" d="M98 188l248 344l-248 342l107 82l293 -393v-61l-293 -393zM483 188l250 344l-250 342l107 82l293 -393v-61l-293 -393z" />
<glyph unicode="&#xbc;" horiz-adv-x="1945" d="M113 1253q198 38 276 111h107v-737h192v-129h-555v129h221v569q-91 -37 -221 -53zM401 0l985 1364h136l-983 -1364h-138zM1157 197v116q74 129 122.5 278t51.5 273h139q-3 -124 -48 -269t-115 -271h284v346h138v-346h131v-127h-131v-197h-138v197h-434z" />
<glyph unicode="&#xbd;" horiz-adv-x="1945" d="M113 1253q198 38 276 111h107v-737h192v-129h-555v129h221v569q-91 -37 -221 -53zM401 0l985 1364h136l-983 -1364h-138zM1180 707q127 174 319 174q137 0 224 -72.5t87 -198.5q0 -112 -75.5 -204.5t-304.5 -276.5h415v-129h-639v109q265 210 360 311t95 184 q0 67 -50 106.5t-120 39.5q-61 0 -113.5 -31t-85.5 -82z" />
<glyph unicode="&#xbe;" horiz-adv-x="1945" d="M80 674l131 49q61 -109 213 -109q80 0 126 39t46 99q0 57 -40 88.5t-112 31.5h-112v129h106q51 0 94 30.5t43 90.5q0 62 -48.5 93.5t-120.5 31.5q-134 0 -201 -98l-111 70q115 161 320 161q132 0 217.5 -63.5t85.5 -175.5q0 -130 -105 -189q69 -26 100 -83t31 -124 q0 -117 -89.5 -190.5t-229.5 -73.5q-247 0 -344 193zM422 0l985 1364h135l-983 -1364h-137zM1178 197v116q74 129 122.5 278t51.5 273h139q-3 -123 -48.5 -268t-115.5 -272h285v346h137v-346h131v-127h-131v-197h-137v197h-434z" />
<glyph unicode="&#xbf;" horiz-adv-x="1048" d="M113 84q0 176 119 287t309 135v143h172v-299q-36 8 -74 8q-146 0 -238 -71.5t-92 -196.5q0 -107 73 -175.5t202 -68.5q175 0 315 127l107 -129q-197 -170 -435 -170q-199 0 -328.5 110.5t-129.5 299.5zM518 856v209h219v-209h-219z" />
<glyph unicode="&#xc0;" horiz-adv-x="1366" d="M23 0l555 1364h210l558 -1364h-216l-145 379h-614l-148 -379h-200zM436 547h486l-240 631zM444 1720l170 27q61 -113 181 -246l-70 -59q-89 51 -170 130t-111 148z" />
<glyph unicode="&#xc1;" horiz-adv-x="1366" d="M23 0l555 1364h210l558 -1364h-216l-145 379h-614l-148 -379h-200zM436 547h486l-240 631zM580 1501q50 53 101.5 122.5t80.5 123.5l170 -27q-30 -69 -111 -148t-170 -130z" />
<glyph unicode="&#xc2;" horiz-adv-x="1366" d="M23 0l555 1364h210l558 -1364h-216l-145 379h-614l-148 -379h-200zM352 1536q163 115 260 207h140q108 -100 260 -207l-49 -86q-78 26 -153.5 70t-127.5 92q-52 -48 -127 -92t-152 -70zM436 547h486l-240 631z" />
<glyph unicode="&#xc3;" horiz-adv-x="1366" d="M23 0l555 1364h210l558 -1364h-216l-145 379h-614l-148 -379h-200zM356 1528q30 78 82.5 124t114.5 46q47 0 137 -39t129 -39q71 0 133 76l72 -47q-30 -78 -82.5 -124t-114.5 -46q-49 0 -138 38.5t-126 38.5q-74 0 -135 -75zM436 547h486l-240 631z" />
<glyph unicode="&#xc4;" horiz-adv-x="1366" d="M23 0l555 1364h210l558 -1364h-216l-145 379h-614l-148 -379h-200zM389 1481v159h156v-159h-156zM436 547h486l-240 631zM819 1481v159h154v-159h-154z" />
<glyph unicode="&#xc5;" horiz-adv-x="1357" d="M18 0l529 1298q-43 29 -68.5 74t-25.5 98q0 91 66 155.5t161 64.5t162 -64.5t67 -155.5q0 -52 -27.5 -97.5t-70.5 -74.5l530 -1298h-215l-145 379h-614l-148 -379h-201zM432 547h486l-240 631zM563 1468q0 -50 34 -83t85 -33q49 0 82 33t33 83t-33 85.5t-82 35.5 q-50 0 -84.5 -35.5t-34.5 -85.5z" />
<glyph unicode="&#xc6;" horiz-adv-x="1861" d="M-2 0l700 1364h1047v-176h-655v-385h557v-166h-557v-461h675v-176h-870v379h-496l-194 -379h-207zM481 547h414v649h-86z" />
<glyph unicode="&#xc7;" horiz-adv-x="1378" d="M100 682q0 203 82 363.5t233.5 252t346.5 91.5q344 0 536 -275l-151 -104q-132 202 -381 202q-212 0 -338.5 -144.5t-126.5 -383.5q0 -241 127 -387.5t334 -146.5q124 0 222.5 55t162.5 155l158 -102q-83 -125 -209 -198t-285 -83q78 -65 78 -151q0 -76 -59.5 -123 t-147.5 -47q-100 0 -156 49v123q57 -57 131 -57q43 0 72 24t29 64q0 65 -72 121q-176 17 -309 111t-205 247.5t-72 343.5z" />
<glyph unicode="&#xc8;" horiz-adv-x="1269" d="M184 0v1364h967v-176h-774v-385h674v-166h-674v-461h794v-176h-987zM434 1720l170 27q63 -116 180 -246l-69 -59q-89 51 -170 130t-111 148z" />
<glyph unicode="&#xc9;" horiz-adv-x="1269" d="M184 0v1364h967v-176h-774v-385h674v-166h-674v-461h794v-176h-987zM545 1501q50 53 101.5 122.5t80.5 123.5l170 -27q-30 -69 -111 -148t-170 -130z" />
<glyph unicode="&#xca;" horiz-adv-x="1269" d="M184 0v1364h967v-176h-774v-385h674v-166h-674v-461h794v-176h-987zM360 1536q167 118 261 207h139q108 -100 260 -207l-49 -86q-78 26 -153.5 70t-127.5 92q-116 -107 -278 -162z" />
<glyph unicode="&#xcb;" horiz-adv-x="1269" d="M184 0v1364h967v-176h-774v-385h674v-166h-674v-461h794v-176h-987zM387 1481v159h156v-159h-156zM817 1481v159h154v-159h-154z" />
<glyph unicode="&#xcc;" horiz-adv-x="559" d="M41 1720l170 27q63 -116 180 -246l-69 -59q-89 51 -170 130t-111 148zM184 0v1364h191v-1364h-191z" />
<glyph unicode="&#xcd;" horiz-adv-x="559" d="M170 1501q50 53 101.5 122.5t80.5 123.5l170 -27q-30 -69 -111 -148t-169 -130zM184 0v1364h191v-1364h-191z" />
<glyph unicode="&#xce;" horiz-adv-x="559" d="M-51 1536q163 115 260 207h139q108 -100 260 -207l-49 -86q-163 54 -280 162q-52 -48 -127 -92t-152 -70zM184 0v1364h191v-1364h-191z" />
<glyph unicode="&#xcf;" horiz-adv-x="559" d="M-12 1481v159h155v-159h-155zM184 0v1364h191v-1364h-191zM418 1481v159h153v-159h-153z" />
<glyph unicode="&#xd0;" horiz-adv-x="1486" d="M-29 618v158h224v588h538q156 0 280 -50.5t205 -141.5t123.5 -215.5t42.5 -274.5t-42.5 -274.5t-123.5 -215.5t-205 -141.5t-280 -50.5h-538v618h-224zM387 176h344q212 0 331.5 133.5t119.5 372.5t-119.5 372.5t-331.5 133.5h-344v-412h377v-158h-377v-442z" />
<glyph unicode="&#xd1;" horiz-adv-x="1492" d="M184 0v1364h246l694 -1098v1098h185v-1364h-226l-714 1124v-1124h-185zM438 1528q30 78 82.5 124t114.5 46q47 0 137 -39t129 -39q71 0 133 76l72 -47q-30 -78 -82.5 -124t-114.5 -46q-49 0 -138 38.5t-126 38.5q-74 0 -135 -75z" />
<glyph unicode="&#xd2;" horiz-adv-x="1525" d="M96 682q0 200 80.5 360.5t233 253.5t352.5 93t353 -93t234 -253.5t81 -360.5t-81 -360.5t-234 -253.5t-353 -93t-352.5 93t-233 253.5t-80.5 360.5zM297 682q0 -236 125 -382t340 -146q214 0 339.5 146.5t125.5 381.5t-125.5 380.5t-339.5 145.5q-215 0 -340 -145.5 t-125 -380.5zM539 1720l170 27q63 -116 180 -246l-70 -59q-88 51 -169 130t-111 148z" />
<glyph unicode="&#xd3;" horiz-adv-x="1525" d="M96 682q0 200 80.5 360.5t233 253.5t352.5 93t353 -93t234 -253.5t81 -360.5t-81 -360.5t-234 -253.5t-353 -93t-352.5 93t-233 253.5t-80.5 360.5zM297 682q0 -236 125 -382t340 -146q214 0 339.5 146.5t125.5 381.5t-125.5 380.5t-339.5 145.5q-215 0 -340 -145.5 t-125 -380.5zM625 1501q50 53 101.5 122.5t80.5 123.5l170 -27q-30 -69 -111 -148t-170 -130z" />
<glyph unicode="&#xd4;" horiz-adv-x="1525" d="M96 682q0 200 80.5 360.5t233 253.5t352.5 93t353 -93t234 -253.5t81 -360.5t-81 -360.5t-234 -253.5t-353 -93t-352.5 93t-233 253.5t-80.5 360.5zM297 682q0 -236 125 -382t340 -146q214 0 339.5 146.5t125.5 381.5t-125.5 380.5t-339.5 145.5q-215 0 -340 -145.5 t-125 -380.5zM432 1536q163 115 260 207h139q105 -97 261 -207l-50 -86q-163 54 -280 162q-52 -48 -127 -92t-152 -70z" />
<glyph unicode="&#xd5;" horiz-adv-x="1525" d="M96 682q0 200 80.5 360.5t233 253.5t352.5 93t353 -93t234 -253.5t81 -360.5t-81 -360.5t-234 -253.5t-353 -93t-352.5 93t-233 253.5t-80.5 360.5zM297 682q0 -236 125 -382t340 -146q214 0 339.5 146.5t125.5 381.5t-125.5 380.5t-339.5 145.5q-215 0 -340 -145.5 t-125 -380.5zM428 1528q30 78 82.5 124t114.5 46q47 0 137 -39t129 -39q71 0 133 76l72 -47q-30 -78 -82.5 -124t-114.5 -46q-49 0 -138 38.5t-126 38.5q-74 0 -135 -75z" />
<glyph unicode="&#xd6;" horiz-adv-x="1525" d="M96 682q0 200 80.5 360.5t233 253.5t352.5 93t353 -93t234 -253.5t81 -360.5t-81 -360.5t-234 -253.5t-353 -93t-352.5 93t-233 253.5t-80.5 360.5zM297 682q0 -236 125 -382t340 -146q214 0 339.5 146.5t125.5 381.5t-125.5 380.5t-339.5 145.5q-215 0 -340 -145.5 t-125 -380.5zM469 1481v159h156v-159h-156zM899 1481v159h154v-159h-154z" />
<glyph unicode="&#xd7;" d="M123 264l360 359l-360 358l110 113l361 -361l358 361l111 -113l-358 -358l358 -359l-111 -112l-358 360l-361 -360z" />
<glyph unicode="&#xd8;" horiz-adv-x="1525" d="M96 682q0 200 80.5 360.5t233 253.5t352.5 93q197 0 356 -97l66 94l96 -67l-70 -96q105 -96 162.5 -236t57.5 -305q0 -200 -81 -360.5t-234 -253.5t-353 -93q-205 0 -356 97l-66 -95l-96 66l69 96q-105 95 -161 235.5t-56 307.5zM297 682q0 -241 127 -383l588 842 q-109 67 -250 67q-215 0 -340 -145.5t-125 -380.5zM512 223q104 -69 250 -69q214 0 339.5 146.5t125.5 381.5t-127 381z" />
<glyph unicode="&#xd9;" horiz-adv-x="1454" d="M168 512v852h190v-852q0 -164 98 -261t269 -97q170 0 270.5 97.5t100.5 260.5v852h190v-852q0 -244 -156.5 -390.5t-404.5 -146.5q-247 0 -402 146t-155 391zM494 1720l170 27q63 -116 180 -246l-70 -59q-88 51 -169 130t-111 148z" />
<glyph unicode="&#xda;" horiz-adv-x="1454" d="M168 512v852h190v-852q0 -164 98 -261t269 -97q170 0 270.5 97.5t100.5 260.5v852h190v-852q0 -244 -156.5 -390.5t-404.5 -146.5q-247 0 -402 146t-155 391zM631 1501q50 53 101.5 122.5t80.5 123.5l170 -27q-30 -69 -111 -148t-170 -130z" />
<glyph unicode="&#xdb;" horiz-adv-x="1454" d="M168 512v852h190v-852q0 -164 98 -261t269 -97q170 0 270.5 97.5t100.5 260.5v852h190v-852q0 -244 -156.5 -390.5t-404.5 -146.5q-247 0 -402 146t-155 391zM397 1536q163 115 260 207h140q108 -100 260 -207l-49 -86q-78 26 -153.5 70t-127.5 92q-116 -107 -278 -162z " />
<glyph unicode="&#xdc;" horiz-adv-x="1454" d="M168 512v852h190v-852q0 -164 98 -261t269 -97q170 0 270.5 97.5t100.5 260.5v852h190v-852q0 -244 -156.5 -390.5t-404.5 -146.5q-247 0 -402 146t-155 391zM434 1481v159h156v-159h-156zM864 1481v159h154v-159h-154z" />
<glyph unicode="&#xdd;" horiz-adv-x="1257" d="M12 1364h226l395 -635l399 635h217l-524 -807v-557h-193v555zM516 1501q50 53 101.5 122.5t80.5 123.5l170 -27q-30 -69 -111 -148t-169 -130z" />
<glyph unicode="&#xde;" horiz-adv-x="1298" d="M184 0v1364h191v-205h381q228 0 354.5 -116t126.5 -310t-122.5 -307t-358.5 -113h-381v-313h-191zM375 489h381q141 0 212.5 65t69.5 181t-72.5 182t-209.5 66h-381v-494z" />
<glyph unicode="&#xdf;" horiz-adv-x="1265" d="M160 0v1092q0 180 128.5 286.5t334.5 106.5q197 0 326.5 -98.5t129.5 -266.5q0 -104 -46 -180t-156 -135q151 -49 226 -149.5t75 -241.5q0 -205 -129 -322t-351 -117q-134 0 -227 41l41 160q67 -41 176 -41q144 0 223.5 79t79.5 212q0 141 -87.5 210t-241.5 69h-121v155 h84q119 0 194.5 60.5t75.5 175.5q0 61 -22.5 107t-62 73t-89 40t-107.5 13q-120 0 -200 -63.5t-80 -175.5v-1090h-174z" />
<glyph unicode="&#xe0;" horiz-adv-x="1161" d="M78 299q0 60 16 108t46 80.5t64 56t79.5 38.5t81.5 22.5t81 13.5q22 3 61 8t61.5 7.5t56 9t53 13t42.5 17.5t35 24.5t20.5 33.5t8.5 45q0 43 -21.5 74.5t-57.5 48.5t-76.5 25t-85.5 8q-182 0 -332 -113l-82 135q198 136 426 136q191 0 301.5 -86t110.5 -263v-503 q0 -59 20 -87t64 -28q41 0 63 16l23 -135q-50 -20 -123 -20q-81 0 -138.5 42t-68.5 128q-66 -94 -162.5 -136.5t-204.5 -42.5q-166 0 -264 86.5t-98 237.5zM260 303q0 -91 61 -135.5t160 -44.5q61 0 114.5 17t97.5 50t69.5 90t25.5 130v184q-21 -26 -45 -43.5t-58.5 -28.5 t-57 -15.5t-73 -12t-73.5 -11.5q-53 -9 -87 -19t-67.5 -29t-50 -52t-16.5 -80zM317 1462l170 27q61 -113 181 -246l-70 -59q-89 51 -170 130t-111 148z" />
<glyph unicode="&#xe1;" horiz-adv-x="1161" d="M78 299q0 60 16 108t46 80.5t64 56t79.5 38.5t81.5 22.5t81 13.5q22 3 61 8t61.5 7.5t56 9t53 13t42.5 17.5t35 24.5t20.5 33.5t8.5 45q0 43 -21.5 74.5t-57.5 48.5t-76.5 25t-85.5 8q-182 0 -332 -113l-82 135q198 136 426 136q191 0 301.5 -86t110.5 -263v-503 q0 -59 20 -87t64 -28q41 0 63 16l23 -135q-50 -20 -123 -20q-81 0 -138.5 42t-68.5 128q-66 -94 -162.5 -136.5t-204.5 -42.5q-166 0 -264 86.5t-98 237.5zM260 303q0 -91 61 -135.5t160 -44.5q61 0 114.5 17t97.5 50t69.5 90t25.5 130v184q-21 -26 -45 -43.5t-58.5 -28.5 t-57 -15.5t-73 -12t-73.5 -11.5q-53 -9 -87 -19t-67.5 -29t-50 -52t-16.5 -80zM451 1243q50 53 101.5 122.5t80.5 123.5l170 -27q-30 -69 -111 -148t-170 -130z" />
<glyph unicode="&#xe2;" horiz-adv-x="1161" d="M78 299q0 60 16 108t46 80.5t64 56t79.5 38.5t81.5 22.5t81 13.5q22 3 61 8t61.5 7.5t56 9t53 13t42.5 17.5t35 24.5t20.5 33.5t8.5 45q0 43 -21.5 74.5t-57.5 48.5t-76.5 25t-85.5 8q-182 0 -332 -113l-82 135q198 136 426 136q191 0 301.5 -86t110.5 -263v-503 q0 -59 20 -87t64 -28q41 0 63 16l23 -135q-50 -20 -123 -20q-81 0 -138.5 42t-68.5 128q-66 -94 -162.5 -136.5t-204.5 -42.5q-166 0 -264 86.5t-98 237.5zM209 1278q163 115 260 207h139q108 -100 260 -207l-49 -86q-163 54 -280 162q-52 -48 -127 -92t-152 -70zM260 303 q0 -91 61 -135.5t160 -44.5q61 0 114.5 17t97.5 50t69.5 90t25.5 130v184q-21 -26 -45 -43.5t-58.5 -28.5t-57 -15.5t-73 -12t-73.5 -11.5q-53 -9 -87 -19t-67.5 -29t-50 -52t-16.5 -80z" />
<glyph unicode="&#xe3;" horiz-adv-x="1161" d="M78 299q0 60 16 108t46 80.5t64 56t79.5 38.5t81.5 22.5t81 13.5q22 3 61 8t61.5 7.5t56 9t53 13t42.5 17.5t35 24.5t20.5 33.5t8.5 45q0 43 -21.5 74.5t-57.5 48.5t-76.5 25t-85.5 8q-182 0 -332 -113l-82 135q198 136 426 136q191 0 301.5 -86t110.5 -263v-503 q0 -59 20 -87t64 -28q41 0 63 16l23 -135q-50 -20 -123 -20q-81 0 -138.5 42t-68.5 128q-66 -94 -162.5 -136.5t-204.5 -42.5q-166 0 -264 86.5t-98 237.5zM213 1270q30 78 82.5 124t114.5 46q48 0 138 -39t128 -39q71 0 133 76l72 -47q-30 -78 -82.5 -124t-114.5 -46 q-49 0 -138 38.5t-126 38.5q-74 0 -135 -75zM260 303q0 -91 61 -135.5t160 -44.5q61 0 114.5 17t97.5 50t69.5 90t25.5 130v184q-21 -26 -45 -43.5t-58.5 -28.5t-57 -15.5t-73 -12t-73.5 -11.5q-53 -9 -87 -19t-67.5 -29t-50 -52t-16.5 -80z" />
<glyph unicode="&#xe4;" horiz-adv-x="1161" d="M78 299q0 60 16 108t46 80.5t64 56t79.5 38.5t81.5 22.5t81 13.5q22 3 61 8t61.5 7.5t56 9t53 13t42.5 17.5t35 24.5t20.5 33.5t8.5 45q0 43 -21.5 74.5t-57.5 48.5t-76.5 25t-85.5 8q-182 0 -332 -113l-82 135q198 136 426 136q191 0 301.5 -86t110.5 -263v-503 q0 -59 20 -87t64 -28q41 0 63 16l23 -135q-50 -20 -123 -20q-81 0 -138.5 42t-68.5 128q-66 -94 -162.5 -136.5t-204.5 -42.5q-166 0 -264 86.5t-98 237.5zM256 1223v159h156v-159h-156zM260 303q0 -91 61 -135.5t160 -44.5q61 0 114.5 17t97.5 50t69.5 90t25.5 130v184 q-21 -26 -45 -43.5t-58.5 -28.5t-57 -15.5t-73 -12t-73.5 -11.5q-53 -9 -87 -19t-67.5 -29t-50 -52t-16.5 -80zM686 1223v159h154v-159h-154z" />
<glyph unicode="&#xe5;" horiz-adv-x="1161" d="M78 299q0 60 16 108t46 80.5t64 56t79.5 38.5t81.5 22.5t81 13.5q22 3 61 8t61.5 7.5t56 9t53 13t42.5 17.5t35 24.5t20.5 33.5t8.5 45q0 43 -21.5 74.5t-57.5 48.5t-76.5 25t-85.5 8q-182 0 -332 -113l-82 135q198 136 426 136q191 0 301.5 -86t110.5 -263v-503 q0 -59 20 -87t64 -28q41 0 63 16l23 -135q-50 -20 -123 -20q-81 0 -138.5 42t-68.5 128q-66 -94 -162.5 -136.5t-204.5 -42.5q-166 0 -264 86.5t-98 237.5zM260 303q0 -91 61 -135.5t160 -44.5q61 0 114.5 17t97.5 50t69.5 90t25.5 130v184q-21 -26 -45 -43.5t-58.5 -28.5 t-57 -15.5t-73 -12t-73.5 -11.5q-53 -9 -87 -19t-67.5 -29t-50 -52t-16.5 -80zM330 1391q0 87 63 149t154 62t154 -62t63 -149t-62.5 -148t-154.5 -61t-154.5 61t-62.5 148zM430 1391q0 -49 34.5 -83t82.5 -34t81.5 34t33.5 83q0 47 -34 81.5t-81 34.5t-82 -34.5t-35 -81.5z " />
<glyph unicode="&#xe6;" horiz-adv-x="1878" d="M78 301q0 70 24.5 124.5t60 87t88.5 55.5t96.5 33t98.5 17q20 3 56 7t56.5 7t51 7.5t48.5 10t41 13.5t36 18t25.5 24t18 31.5t5.5 39.5q0 43 -21 74.5t-57 48.5t-76 25t-85 8q-184 0 -334 -113l-82 135q193 136 418 136q273 0 368 -183q145 183 377 183q228 0 367 -151.5 t139 -379.5q0 -42 -4 -70h-836q7 -164 104.5 -257t254.5 -93q187 0 315 140l121 -117q-177 -187 -438 -187q-142 0 -254 56t-180 164q-128 -220 -408 -220q-179 0 -287 85.5t-108 240.5zM260 303q0 -91 61 -135.5t160 -44.5q61 0 114.5 17t97.5 50t69.5 90t25.5 130v184 q-21 -26 -45 -43.5t-58.5 -28.5t-57 -15.5t-73 -12t-73.5 -11.5q-53 -9 -87 -19t-67.5 -29t-50 -52t-16.5 -80zM963 627h653q-13 148 -104 228.5t-224 80.5q-138 0 -226 -86t-99 -223z" />
<glyph unicode="&#xe7;" horiz-adv-x="1105" d="M92 532q0 242 142 400t374 158q136 0 244 -59t180 -163l-133 -106q-103 166 -285 166q-152 0 -242.5 -111.5t-90.5 -284.5t90.5 -284t240.5 -111q183 0 289 160l137 -98q-138 -196 -372 -219q79 -66 79 -154q0 -76 -59 -123t-147 -47q-100 0 -156 49v123q57 -57 131 -57 q43 0 71.5 24t28.5 64q0 66 -71 121q-205 23 -328 176t-123 376z" />
<glyph unicode="&#xe8;" horiz-adv-x="1200" d="M90 528q0 157 61.5 284t181.5 202.5t279 75.5q153 0 269.5 -71t177.5 -191t61 -269q0 -42 -4 -70h-835q7 -164 103.5 -257t254.5 -93q184 0 315 140l119 -117q-174 -187 -438 -187q-169 0 -294 73t-188 197t-63 283zM285 627h651q-13 148 -103.5 228.5t-222.5 80.5 q-138 0 -226 -86t-99 -223zM371 1462l170 27q63 -116 180 -246l-70 -59q-88 51 -169 130t-111 148z" />
<glyph unicode="&#xe9;" horiz-adv-x="1200" d="M90 528q0 157 61.5 284t181.5 202.5t279 75.5q153 0 269.5 -71t177.5 -191t61 -269q0 -42 -4 -70h-835q7 -164 103.5 -257t254.5 -93q184 0 315 140l119 -117q-174 -187 -438 -187q-169 0 -294 73t-188 197t-63 283zM285 627h651q-13 148 -103.5 228.5t-222.5 80.5 q-138 0 -226 -86t-99 -223zM502 1243q50 53 101.5 122.5t80.5 123.5l170 -27q-30 -69 -111 -148t-170 -130z" />
<glyph unicode="&#xea;" horiz-adv-x="1200" d="M90 528q0 157 61.5 284t181.5 202.5t279 75.5q153 0 269.5 -71t177.5 -191t61 -269q0 -42 -4 -70h-835q7 -164 103.5 -257t254.5 -93q184 0 315 140l119 -117q-174 -187 -438 -187q-169 0 -294 73t-188 197t-63 283zM274 1278q167 118 261 207h139q108 -100 260 -207 l-49 -86q-78 26 -153.5 70t-127.5 92q-116 -107 -278 -162zM285 627h651q-13 148 -103.5 228.5t-222.5 80.5q-138 0 -226 -86t-99 -223z" />
<glyph unicode="&#xeb;" horiz-adv-x="1200" d="M90 528q0 157 61.5 284t181.5 202.5t279 75.5q153 0 269.5 -71t177.5 -191t61 -269q0 -42 -4 -70h-835q7 -164 103.5 -257t254.5 -93q184 0 315 140l119 -117q-174 -187 -438 -187q-169 0 -294 73t-188 197t-63 283zM285 627h651q-13 148 -103.5 228.5t-222.5 80.5 q-138 0 -226 -86t-99 -223zM315 1223v159h156v-159h-156zM745 1223v159h154v-159h-154z" />
<glyph unicode="&#xec;" horiz-adv-x="497" d="M4 1462l170 27q63 -116 180 -246l-69 -59q-89 51 -170 130t-111 148zM160 0v1065h178v-1065h-178z" />
<glyph unicode="&#xed;" horiz-adv-x="497" d="M143 1243q50 53 102 123t81 123l170 -27q-30 -69 -111 -148t-170 -130zM160 0v1065h178v-1065h-178z" />
<glyph unicode="&#xee;" horiz-adv-x="497" d="M-82 1278q163 115 260 207h139q105 -97 261 -207l-50 -86q-163 54 -280 162q-52 -48 -127 -92t-152 -70zM160 0v1065h178v-1065h-178z" />
<glyph unicode="&#xef;" horiz-adv-x="497" d="M-6 1223v159h156v-159h-156zM160 0v1065h178v-1065h-178zM348 1223v159h156v-159h-156z" />
<glyph unicode="&#xf0;" horiz-adv-x="1261" d="M94 494q0 227 135 372.5t349 145.5q202 0 323 -127q-71 155 -231 305l-258 -123l-37 86l209 100q-79 62 -176 111l120 121q145 -84 228 -156l245 115l39 -84l-206 -98q313 -310 313 -705q0 -277 -143 -428q-151 -154 -386 -154q-117 0 -216 39.5t-166 109t-104.5 165 t-37.5 205.5zM283 494q0 -100 36 -179t113 -128.5t186 -49.5q165 0 257 101t92 256t-93.5 256.5t-257.5 101.5q-81 0 -145.5 -28.5t-105 -78t-61.5 -113.5t-21 -138z" />
<glyph unicode="&#xf1;" horiz-adv-x="1222" d="M160 0v1065h178v-176q137 201 364 201q173 0 273 -107.5t100 -296.5v-686h-178v645q0 277 -238 277q-138 0 -229.5 -92.5t-91.5 -239.5v-590h-178zM315 1270q30 78 82.5 124t114.5 46q48 0 138 -39t128 -39q71 0 133 76l72 -47q-30 -78 -82.5 -124t-114.5 -46 q-49 0 -138 38.5t-126 38.5q-74 0 -135 -75z" />
<glyph unicode="&#xf2;" horiz-adv-x="1228" d="M90 530q0 247 142.5 403.5t381.5 156.5q238 0 381.5 -156.5t143.5 -403.5q0 -243 -143.5 -399t-381.5 -156q-159 0 -279 72.5t-182.5 197.5t-62.5 285zM279 530q0 -171 90 -283t245 -112t244.5 112t89.5 283q0 174 -89 286t-245 112t-245.5 -112t-89.5 -286zM395 1462 l170 27q63 -116 180 -246l-69 -59q-89 51 -170 130t-111 148z" />
<glyph unicode="&#xf3;" horiz-adv-x="1228" d="M90 530q0 247 142.5 403.5t381.5 156.5q238 0 381.5 -156.5t143.5 -403.5q0 -243 -143.5 -399t-381.5 -156q-159 0 -279 72.5t-182.5 197.5t-62.5 285zM279 530q0 -171 90 -283t245 -112t244.5 112t89.5 283q0 174 -89 286t-245 112t-245.5 -112t-89.5 -286zM459 1243 q50 53 101.5 122.5t80.5 123.5l170 -27q-30 -69 -111 -148t-170 -130z" />
<glyph unicode="&#xf4;" horiz-adv-x="1228" d="M90 530q0 247 142.5 403.5t381.5 156.5q238 0 381.5 -156.5t143.5 -403.5q0 -243 -143.5 -399t-381.5 -156q-159 0 -279 72.5t-182.5 197.5t-62.5 285zM279 530q0 -171 90 -283t245 -112t244.5 112t89.5 283q0 174 -89 286t-245 112t-245.5 -112t-89.5 -286zM285 1278 q163 115 260 207h139q108 -100 260 -207l-49 -86q-78 26 -153.5 70t-127.5 92q-116 -107 -278 -162z" />
<glyph unicode="&#xf5;" horiz-adv-x="1228" d="M90 530q0 247 142.5 403.5t381.5 156.5q238 0 381.5 -156.5t143.5 -403.5q0 -243 -143.5 -399t-381.5 -156q-159 0 -279 72.5t-182.5 197.5t-62.5 285zM279 530q0 -171 90 -283t245 -112t244.5 112t89.5 283q0 174 -89 286t-245 112t-245.5 -112t-89.5 -286zM281 1270 q30 78 82 124t114 46q47 0 137 -39t129 -39q72 0 134 76l71 -47q-30 -78 -82 -124t-114 -46q-49 0 -138.5 38.5t-126.5 38.5q-74 0 -135 -75z" />
<glyph unicode="&#xf6;" horiz-adv-x="1228" d="M90 530q0 247 142.5 403.5t381.5 156.5q238 0 381.5 -156.5t143.5 -403.5q0 -243 -143.5 -399t-381.5 -156q-159 0 -279 72.5t-182.5 197.5t-62.5 285zM279 530q0 -171 90 -283t245 -112t244.5 112t89.5 283q0 174 -89 286t-245 112t-245.5 -112t-89.5 -286zM324 1223 v159h155v-159h-155zM754 1223v159h153v-159h-153z" />
<glyph unicode="&#xf7;" d="M106 545v155h975v-155h-975zM467 240q0 52 37 90.5t90 38.5q52 0 89.5 -38.5t37.5 -90.5q0 -51 -37.5 -89t-89.5 -38q-53 0 -90 37.5t-37 89.5zM467 1006q0 52 37 89.5t90 37.5q52 0 89.5 -38t37.5 -89q0 -54 -37 -91.5t-90 -37.5q-54 0 -90.5 37.5t-36.5 91.5z" />
<glyph unicode="&#xf8;" horiz-adv-x="1228" d="M90 530q0 247 142.5 403.5t381.5 156.5q148 0 273 -72l47 67l92 -63l-49 -70q162 -156 162 -422q0 -243 -143.5 -399t-381.5 -156q-153 0 -274 70l-45 -68l-92 64l49 70q-162 156 -162 419zM279 530q0 -163 77 -266l432 615q-73 51 -174 51q-157 0 -246 -112.5 t-89 -287.5zM438 184q73 -51 176 -51q155 0 244.5 112.5t89.5 284.5q0 165 -78 269z" />
<glyph unicode="&#xf9;" horiz-adv-x="1222" d="M147 377v688h179v-647q0 -277 235 -277q140 0 232 92.5t92 239.5v592h178v-1065h-178v174q-141 -199 -365 -199q-173 0 -273 107t-100 295zM348 1462l170 27q63 -116 180 -246l-69 -59q-89 51 -170 130t-111 148z" />
<glyph unicode="&#xfa;" horiz-adv-x="1222" d="M147 377v688h179v-647q0 -277 235 -277q140 0 232 92.5t92 239.5v592h178v-1065h-178v174q-141 -199 -365 -199q-173 0 -273 107t-100 295zM528 1243q50 53 102 123t81 123l170 -27q-30 -69 -111 -148t-170 -130z" />
<glyph unicode="&#xfb;" horiz-adv-x="1222" d="M147 377v688h179v-647q0 -277 235 -277q140 0 232 92.5t92 239.5v592h178v-1065h-178v174q-141 -199 -365 -199q-173 0 -273 107t-100 295zM274 1278q167 118 261 207h139q108 -100 260 -207l-49 -86q-78 26 -153.5 70t-127.5 92q-116 -107 -278 -162z" />
<glyph unicode="&#xfc;" horiz-adv-x="1222" d="M147 377v688h179v-647q0 -277 235 -277q140 0 232 92.5t92 239.5v592h178v-1065h-178v174q-141 -199 -365 -199q-173 0 -273 107t-100 295zM311 1223v159h156v-159h-156zM741 1223v159h154v-159h-154z" />
<glyph unicode="&#xfd;" horiz-adv-x="1095" d="M27 1065h204l340 -827l301 827h193l-426 -1114q-66 -173 -145.5 -250.5t-221.5 -77.5q-128 0 -217 66l78 131q61 -41 127 -41q68 0 111 42t78 120l28 63zM463 1243q50 53 101.5 122.5t80.5 123.5l170 -27q-30 -69 -111 -148t-169 -130z" />
<glyph unicode="&#xfe;" horiz-adv-x="1296" d="M160 -356v1818h178v-573q139 201 377 201q149 0 261.5 -74.5t171 -200.5t58.5 -283q0 -158 -58.5 -284t-171 -199.5t-261.5 -73.5q-238 0 -377 199v-530h-178zM338 530q0 -170 91.5 -280.5t254.5 -110.5q108 0 184.5 53t112 140t35.5 198q0 172 -86 283t-246 111 q-165 0 -255.5 -111.5t-90.5 -282.5z" />
<glyph unicode="&#xff;" horiz-adv-x="1095" d="M27 1065h204l340 -827l301 827h193l-426 -1114q-66 -173 -145.5 -250.5t-221.5 -77.5q-128 0 -217 66l78 131q61 -41 127 -41q68 0 111 42t78 120l28 63zM264 1223v159h156v-159h-156zM694 1223v159h154v-159h-154z" />
<glyph unicode="&#x100;" horiz-adv-x="1366" d="M23 0l555 1364h210l558 -1364h-216l-145 379h-614l-148 -379h-200zM375 1503v119h614v-119h-614zM436 547h486l-240 631z" />
<glyph unicode="&#x101;" horiz-adv-x="1161" d="M78 299q0 60 16 108t46 80.5t64 56t79.5 38.5t81.5 22.5t81 13.5q22 3 61 8t61.5 7.5t56 9t53 13t42.5 17.5t35 24.5t20.5 33.5t8.5 45q0 43 -21.5 74.5t-57.5 48.5t-76.5 25t-85.5 8q-182 0 -332 -113l-82 135q198 136 426 136q191 0 301.5 -86t110.5 -263v-503 q0 -59 20 -87t64 -28q41 0 63 16l23 -135q-50 -20 -123 -20q-81 0 -138.5 42t-68.5 128q-66 -94 -162.5 -136.5t-204.5 -42.5q-166 0 -264 86.5t-98 237.5zM242 1245v119h614v-119h-614zM260 303q0 -91 61 -135.5t160 -44.5q61 0 114.5 17t97.5 50t69.5 90t25.5 130v184 q-21 -26 -45 -43.5t-58.5 -28.5t-57 -15.5t-73 -12t-73.5 -11.5q-53 -9 -87 -19t-67.5 -29t-50 -52t-16.5 -80z" />
<glyph unicode="&#x102;" horiz-adv-x="1366" d="M23 0l555 1364h210l558 -1364h-216l-145 379h-614l-148 -379h-200zM360 1708l105 31q18 -62 74.5 -101t142.5 -39t142.5 39t74.5 101l102 -31q-15 -104 -101.5 -172t-217.5 -68q-132 0 -218 67.5t-104 172.5zM436 547h486l-240 631z" />
<glyph unicode="&#x103;" horiz-adv-x="1161" d="M78 299q0 60 16 108t46 80.5t64 56t79.5 38.5t81.5 22.5t81 13.5q22 3 61 8t61.5 7.5t56 9t53 13t42.5 17.5t35 24.5t20.5 33.5t8.5 45q0 43 -21.5 74.5t-57.5 48.5t-76.5 25t-85.5 8q-182 0 -332 -113l-82 135q198 136 426 136q191 0 301.5 -86t110.5 -263v-503 q0 -59 20 -87t64 -28q41 0 63 16l23 -135q-50 -20 -123 -20q-81 0 -138.5 42t-68.5 128q-66 -94 -162.5 -136.5t-204.5 -42.5q-166 0 -264 86.5t-98 237.5zM225 1450l105 31q18 -62 74.5 -101t142.5 -39t142.5 39t74.5 101l102 -31q-15 -104 -101.5 -172t-217.5 -68 q-132 0 -218 67.5t-104 172.5zM260 303q0 -91 61 -135.5t160 -44.5q61 0 114.5 17t97.5 50t69.5 90t25.5 130v184q-21 -26 -45 -43.5t-58.5 -28.5t-57 -15.5t-73 -12t-73.5 -11.5q-53 -9 -87 -19t-67.5 -29t-50 -52t-16.5 -80z" />
<glyph unicode="&#x104;" horiz-adv-x="1366" d="M23 0l555 1364h210l558 -1364q-115 -13 -173.5 -50.5t-58.5 -92.5q0 -39 27.5 -64.5t75.5 -25.5q73 0 135 69v-137q-55 -59 -164 -59q-88 0 -147.5 45.5t-59.5 124.5q0 119 145 200l-141 369h-614l-148 -379h-200zM436 547h486l-240 631z" />
<glyph unicode="&#x105;" horiz-adv-x="1159" d="M78 299q0 60 16 108t46 80.5t64 56t79.5 38.5t81.5 22.5t81 13.5q22 3 61 8t61.5 7.5t56 9t53 13t42.5 17.5t35 24.5t20.5 33.5t8.5 45q0 43 -21.5 74.5t-57.5 48.5t-76.5 25t-85.5 8q-182 0 -332 -113l-82 135q198 136 426 136q191 0 301.5 -86t110.5 -263v-503 q0 -59 20 -87t64 -28q41 0 63 16l23 -135q-50 -20 -121 -20q-31 0 -58 6q-57 -67 -57 -129q0 -46 28.5 -70t74.5 -24q73 0 135 69v-137q-55 -59 -164 -59q-88 0 -147.5 45.5t-59.5 128.5q0 115 119 204q-69 45 -80 136q-66 -94 -162.5 -136.5t-204.5 -42.5q-166 0 -264 86.5 t-98 237.5zM260 303q0 -91 61 -135.5t160 -44.5q61 0 114.5 17t97.5 50t69.5 90t25.5 130v184q-21 -26 -45 -43.5t-58.5 -28.5t-57 -15.5t-73 -12t-73.5 -11.5q-53 -9 -87 -19t-67.5 -29t-50 -52t-16.5 -80z" />
<glyph unicode="&#x106;" horiz-adv-x="1372" d="M98 682q0 203 82 363.5t233.5 252t346.5 91.5q344 0 536 -275l-151 -104q-132 202 -381 202q-212 0 -338.5 -144.5t-126.5 -383.5q0 -241 127 -387.5t334 -146.5q124 0 222.5 55t162.5 155l158 -102q-90 -135 -228 -209t-313 -74q-196 0 -348 91t-234 251.5t-82 364.5z M633 1501q50 53 101.5 122.5t80.5 123.5l170 -27q-30 -69 -111 -148t-169 -130z" />
<glyph unicode="&#x107;" horiz-adv-x="1097" d="M90 532q0 242 142 400t374 158q136 0 244 -59t180 -163l-133 -106q-103 166 -285 166q-152 0 -242.5 -111.5t-90.5 -284.5t90.5 -284t240.5 -111q183 0 289 160l137 -98q-72 -103 -180.5 -163.5t-249.5 -60.5q-154 0 -272.5 73t-181 199.5t-62.5 284.5zM510 1239 q96 122 152 250l169 -27q-33 -71 -101 -147t-150 -131z" />
<glyph unicode="&#x108;" horiz-adv-x="1372" d="M98 682q0 203 82 363.5t233.5 252t346.5 91.5q344 0 536 -275l-151 -104q-132 202 -381 202q-212 0 -338.5 -144.5t-126.5 -383.5q0 -241 127 -387.5t334 -146.5q124 0 222.5 55t162.5 155l158 -102q-90 -135 -228 -209t-313 -74q-196 0 -348 91t-234 251.5t-82 364.5z M422 1536q163 115 260 207h139q108 -100 260 -207l-49 -86q-163 54 -280 162q-52 -48 -127 -92t-152 -70z" />
<glyph unicode="&#x109;" horiz-adv-x="1097" d="M90 532q0 242 142 400t374 158q136 0 244 -59t180 -163l-133 -106q-103 166 -285 166q-152 0 -242.5 -111.5t-90.5 -284.5t90.5 -284t240.5 -111q183 0 289 160l137 -98q-72 -103 -180.5 -163.5t-249.5 -60.5q-154 0 -272.5 73t-181 199.5t-62.5 284.5zM268 1278 q163 115 260 207h140q108 -100 260 -207l-49 -86q-78 26 -153.5 70t-127.5 92q-52 -48 -127 -92t-152 -70z" />
<glyph unicode="&#x10a;" horiz-adv-x="1372" d="M98 682q0 203 82 363.5t233.5 252t346.5 91.5q344 0 536 -275l-151 -104q-132 202 -381 202q-212 0 -338.5 -144.5t-126.5 -383.5q0 -241 127 -387.5t334 -146.5q124 0 222.5 55t162.5 155l158 -102q-90 -135 -228 -209t-313 -74q-196 0 -348 91t-234 251.5t-82 364.5z M666 1483v157h159v-157h-159z" />
<glyph unicode="&#x10b;" horiz-adv-x="1097" d="M90 532q0 242 142 400t374 158q136 0 244 -59t180 -163l-133 -106q-103 166 -285 166q-152 0 -242.5 -111.5t-90.5 -284.5t90.5 -284t240.5 -111q183 0 289 160l137 -98q-72 -103 -180.5 -163.5t-249.5 -60.5q-154 0 -272.5 73t-181 199.5t-62.5 284.5zM512 1225v157h160 v-157h-160z" />
<glyph unicode="&#x10c;" horiz-adv-x="1372" d="M98 682q0 203 82 363.5t233.5 252t346.5 91.5q344 0 536 -275l-151 -104q-132 202 -381 202q-212 0 -338.5 -144.5t-126.5 -383.5q0 -241 127 -387.5t334 -146.5q124 0 222.5 55t162.5 155l158 -102q-90 -135 -228 -209t-313 -74q-196 0 -348 91t-234 251.5t-82 364.5z M422 1661l51 86q76 -26 151 -69.5t128 -90.5q53 48 128 91.5t152 68.5l49 -86q-139 -96 -260 -207h-139q-109 104 -260 207z" />
<glyph unicode="&#x10d;" horiz-adv-x="1097" d="M90 532q0 242 142 400t374 158q136 0 244 -59t180 -163l-133 -106q-103 166 -285 166q-152 0 -242.5 -111.5t-90.5 -284.5t90.5 -284t240.5 -111q183 0 289 160l137 -98q-72 -103 -180.5 -163.5t-249.5 -60.5q-154 0 -272.5 73t-181 199.5t-62.5 284.5zM272 1403l52 86 q159 -54 278 -160q119 106 281 160l49 -86q-139 -96 -260 -207h-140q-109 104 -260 207z" />
<glyph unicode="&#x10e;" horiz-adv-x="1474" d="M184 0v1364h529q156 0 282 -52t208.5 -143.5t126.5 -216t44 -270.5t-44 -270.5t-126.5 -216t-208.5 -143.5t-282 -52h-529zM379 176h334q220 0 340.5 136.5t120.5 369.5t-120.5 369.5t-340.5 136.5h-334v-1012zM395 1661l51 86q76 -26 151 -69.5t128 -90.5 q119 106 281 160l49 -86q-139 -96 -260 -207h-140q-109 104 -260 207z" />
<glyph unicode="&#x10f;" horiz-adv-x="1372" d="M92 530q0 159 58.5 285.5t171 200.5t260.5 74q238 0 379 -201v573h178v-1462h-178v174q-139 -199 -379 -199q-148 0 -260.5 73.5t-171 199t-58.5 282.5zM281 532q0 -111 35.5 -198t112 -141t185.5 -54q164 0 255.5 111.5t91.5 281.5q0 171 -92 281.5t-255 110.5 q-108 0 -184.5 -53.5t-112.5 -140.5t-36 -198zM1280 1051q41 42 64.5 94t23.5 102q-1 35 -23 88t-22 92v35h182v-151q0 -97 -39.5 -176.5t-119.5 -151.5z" />
<glyph unicode="&#x110;" horiz-adv-x="1519" d="M6 623v155h223v586h529q156 0 281.5 -51.5t208.5 -143t127 -216t44 -271.5q0 -195 -75.5 -348t-227 -243.5t-358.5 -90.5h-529v623h-223zM422 176h336q220 0 339.5 137t119.5 369q0 234 -119 370t-340 136h-336v-410h377v-155h-377v-447z" />
<glyph unicode="&#x111;" horiz-adv-x="1298" d="M92 530q0 159 58.5 285.5t171.5 200.5t262 74q236 0 377 -201v364h-285v111h285v98h178v-98h153v-111h-153v-1253h-178v174q-139 -199 -377 -199q-149 0 -262 73.5t-171.5 199t-58.5 282.5zM281 532q0 -171 86 -282t245 -111q165 0 257 111.5t92 281.5q0 171 -92 281.5 t-257 110.5q-159 0 -245 -110.5t-86 -281.5z" />
<glyph unicode="&#x112;" horiz-adv-x="1269" d="M184 0v1364h967v-176h-774v-385h674v-166h-674v-461h794v-176h-987zM373 1503v119h614v-119h-614z" />
<glyph unicode="&#x113;" horiz-adv-x="1200" d="M90 528q0 157 61.5 284t181.5 202.5t279 75.5q153 0 269.5 -71t177.5 -191t61 -269q0 -42 -4 -70h-835q7 -164 103.5 -257t254.5 -93q184 0 315 140l119 -117q-174 -187 -438 -187q-169 0 -294 73t-188 197t-63 283zM285 627h651q-13 148 -103.5 228.5t-222.5 80.5 q-138 0 -226 -86t-99 -223zM303 1245v119h615v-119h-615z" />
<glyph unicode="&#x114;" horiz-adv-x="1269" d="M184 0v1364h967v-176h-774v-385h674v-166h-674v-461h794v-176h-987zM360 1708l105 31q18 -62 74.5 -101t142.5 -39t142.5 39t74.5 101l102 -31q-15 -104 -101.5 -172t-217.5 -68q-132 0 -218 67.5t-104 172.5z" />
<glyph unicode="&#x115;" horiz-adv-x="1200" d="M90 528q0 157 61.5 284t181.5 202.5t279 75.5q153 0 269.5 -71t177.5 -191t61 -269q0 -42 -4 -70h-835q7 -164 103.5 -257t254.5 -93q184 0 315 140l119 -117q-174 -187 -438 -187q-169 0 -294 73t-188 197t-63 283zM285 627h651q-13 148 -103.5 228.5t-222.5 80.5 q-138 0 -226 -86t-99 -223zM285 1450l104 31q18 -62 74.5 -101t142.5 -39t142.5 39t74.5 101l103 -31q-15 -104 -101.5 -172t-218.5 -68t-217.5 67.5t-103.5 172.5z" />
<glyph unicode="&#x116;" horiz-adv-x="1269" d="M184 0v1364h967v-176h-774v-385h674v-166h-674v-461h794v-176h-987zM600 1483v157h160v-157h-160z" />
<glyph unicode="&#x117;" horiz-adv-x="1200" d="M90 528q0 157 61.5 284t181.5 202.5t279 75.5q153 0 269.5 -71t177.5 -191t61 -269q0 -42 -4 -70h-835q7 -164 103.5 -257t254.5 -93q184 0 315 140l119 -117q-174 -187 -438 -187q-169 0 -294 73t-188 197t-63 283zM285 627h651q-13 148 -103.5 228.5t-222.5 80.5 q-138 0 -226 -86t-99 -223zM524 1225v157h160v-157h-160z" />
<glyph unicode="&#x118;" horiz-adv-x="1269" d="M184 0v1364h967v-176h-774v-385h674v-166h-674v-461h794v-176h-170q-67 -64 -67 -139q0 -46 28 -70t74 -24q73 0 135 69v-137q-55 -59 -163 -59q-88 0 -147.5 45.5t-59.5 128.5q0 105 96 186h-713z" />
<glyph unicode="&#x119;" horiz-adv-x="1204" d="M90 528q0 157 61.5 284t181.5 202.5t279 75.5q153 0 269.5 -70.5t177.5 -191t61 -271.5q0 -40 -4 -68h-835q7 -164 103.5 -257t254.5 -93q184 0 315 140l119 -117q-54 -58 -131 -109q-133 -86 -133 -184q0 -50 28.5 -76t75.5 -26q72 0 134 69v-137q-55 -59 -164 -59 q-88 0 -147.5 45.5t-59.5 128.5q0 92 80 172q-68 -11 -123 -11q-168 0 -292.5 73t-187.5 197t-63 283zM285 627h651q-13 148 -103.5 228.5t-222.5 80.5q-138 0 -226 -86t-99 -223z" />
<glyph unicode="&#x11a;" horiz-adv-x="1269" d="M184 0v1364h967v-176h-774v-385h674v-166h-674v-461h794v-176h-987zM360 1661l52 86q159 -54 278 -160q119 106 281 160l49 -86q-139 -96 -260 -207h-139q-107 101 -261 207z" />
<glyph unicode="&#x11b;" horiz-adv-x="1200" d="M90 528q0 157 61.5 284t181.5 202.5t279 75.5q153 0 269.5 -71t177.5 -191t61 -269q0 -42 -4 -70h-835q7 -164 103.5 -257t254.5 -93q184 0 315 140l119 -117q-174 -187 -438 -187q-169 0 -294 73t-188 197t-63 283zM276 1403l52 86q159 -54 278 -160q119 106 281 160 l49 -86q-139 -96 -260 -207h-139q-107 101 -261 207zM285 627h651q-13 148 -103.5 228.5t-222.5 80.5q-138 0 -226 -86t-99 -223z" />
<glyph unicode="&#x11c;" horiz-adv-x="1476" d="M98 684q0 205 81.5 365t233 250t347.5 90q344 0 536 -275l-151 -104q-132 202 -381 202q-216 0 -340.5 -145.5t-124.5 -384.5q0 -241 125.5 -386.5t339.5 -145.5q185 0 307 103.5t135 278.5h-442v168h625q8 -54 8 -102q0 -125 -43 -237t-121.5 -198t-199.5 -137t-267 -51 q-199 0 -352 91.5t-234.5 252.5t-81.5 365zM416 1540q163 115 260 207h139q108 -100 260 -207l-49 -86q-78 26 -153.5 70t-127.5 92q-116 -107 -278 -162z" />
<glyph unicode="&#x11d;" horiz-adv-x="1302" d="M94 567q0 226 138.5 374.5t351.5 148.5q119 0 218.5 -50.5t162.5 -150.5v176h178v-893q0 -255 -115 -383q-143 -166 -448 -166q-259 0 -445 127l90 146q153 -111 357 -111q174 0 278.5 86t104.5 264v115q-62 -98 -166.5 -148.5t-223.5 -50.5q-212 0 -346.5 146 t-134.5 370zM283 571q0 -156 86.5 -258t248.5 -102t255.5 102.5t93.5 257.5q0 154 -92.5 254.5t-256.5 100.5q-83 0 -148 -28t-105 -77t-61 -112.5t-21 -137.5zM289 1278q163 115 260 207h139q108 -100 260 -207l-49 -86q-78 26 -153.5 70t-127.5 92q-116 -107 -278 -162z " />
<glyph unicode="&#x11e;" horiz-adv-x="1476" d="M98 684q0 205 81.5 365t233 250t347.5 90q344 0 536 -275l-151 -104q-132 202 -381 202q-216 0 -340.5 -145.5t-124.5 -384.5q0 -241 125.5 -386.5t339.5 -145.5q185 0 307 103.5t135 278.5h-442v168h625q8 -54 8 -102q0 -125 -43 -237t-121.5 -198t-199.5 -137t-267 -51 q-199 0 -352 91.5t-234.5 252.5t-81.5 365zM430 1712l105 31q18 -62 74.5 -100.5t142.5 -38.5t142.5 38.5t74.5 100.5l102 -31q-15 -104 -101 -171.5t-218 -67.5t-218 67t-104 172z" />
<glyph unicode="&#x11f;" horiz-adv-x="1302" d="M94 567q0 226 138.5 374.5t351.5 148.5q119 0 218.5 -50.5t162.5 -150.5v176h178v-893q0 -255 -115 -383q-143 -166 -448 -166q-259 0 -445 127l90 146q153 -111 357 -111q174 0 278.5 86t104.5 264v115q-62 -98 -166.5 -148.5t-223.5 -50.5q-212 0 -346.5 146 t-134.5 370zM283 571q0 -156 86.5 -258t248.5 -102t255.5 102.5t93.5 257.5q0 154 -92.5 254.5t-256.5 100.5q-83 0 -148 -28t-105 -77t-61 -112.5t-21 -137.5zM295 1450l104 31q18 -62 74.5 -101t142.5 -39t143 39t75 101l102 -31q-15 -104 -101.5 -172t-218.5 -68 t-217.5 67.5t-103.5 172.5z" />
<glyph unicode="&#x120;" horiz-adv-x="1476" d="M98 684q0 205 81.5 365t233 250t347.5 90q344 0 536 -275l-151 -104q-132 202 -381 202q-216 0 -340.5 -145.5t-124.5 -384.5q0 -241 125.5 -386.5t339.5 -145.5q185 0 307 103.5t135 278.5h-442v168h625q8 -54 8 -102q0 -125 -43 -237t-121.5 -198t-199.5 -137t-267 -51 q-199 0 -352 91.5t-234.5 252.5t-81.5 365zM680 1487v158h160v-158h-160z" />
<glyph unicode="&#x121;" horiz-adv-x="1302" d="M94 567q0 226 138.5 374.5t351.5 148.5q119 0 218.5 -50.5t162.5 -150.5v176h178v-893q0 -255 -115 -383q-143 -166 -448 -166q-259 0 -445 127l90 146q153 -111 357 -111q174 0 278.5 86t104.5 264v115q-62 -98 -166.5 -148.5t-223.5 -50.5q-212 0 -346.5 146 t-134.5 370zM283 571q0 -156 86.5 -258t248.5 -102t255.5 102.5t93.5 257.5q0 154 -92.5 254.5t-256.5 100.5q-83 0 -148 -28t-105 -77t-61 -112.5t-21 -137.5zM535 1225v157h159v-157h-159z" />
<glyph unicode="&#x122;" horiz-adv-x="1476" d="M98 684q0 205 81.5 365t233 250t347.5 90q344 0 536 -275l-151 -104q-132 202 -381 202q-216 0 -340.5 -145.5t-124.5 -384.5q0 -241 125.5 -386.5t339.5 -145.5q185 0 307 103.5t135 278.5h-442v168h625q8 -54 8 -102q0 -125 -43 -237t-121.5 -198t-199.5 -137t-267 -51 q-199 0 -352 91.5t-234.5 252.5t-81.5 365zM565 -354q97 127 146 250l170 -25q-30 -70 -98.5 -147.5t-147.5 -133.5z" />
<glyph unicode="&#x123;" horiz-adv-x="1302" d="M94 567q0 226 138.5 374.5t351.5 148.5q119 0 218.5 -50.5t162.5 -150.5v176h178v-893q0 -255 -115 -383q-143 -166 -448 -166q-259 0 -445 127l90 146q153 -111 357 -111q174 0 278.5 86t104.5 264v115q-62 -98 -166.5 -148.5t-223.5 -50.5q-212 0 -346.5 146 t-134.5 370zM283 571q0 -156 86.5 -258t248.5 -102t255.5 102.5t93.5 257.5q0 154 -92.5 254.5t-256.5 100.5q-83 0 -148 -28t-105 -77t-61 -112.5t-21 -137.5zM498 1208q30 70 98 147.5t147 133.5l70 -55q-95 -125 -145 -250z" />
<glyph unicode="&#x124;" horiz-adv-x="1492" d="M184 0v1364h193v-555h739v555h193v-1364h-193v635h-739v-635h-193zM416 1540q163 115 260 207h139q108 -100 260 -207l-49 -86q-78 26 -153.5 70t-127.5 92q-116 -107 -278 -162z" />
<glyph unicode="&#x125;" horiz-adv-x="1222" d="M-78 1569q163 115 260 207h140q108 -100 260 -207l-50 -86q-163 54 -280 162q-52 -48 -127 -92t-152 -70zM160 0v1462h178v-573q137 201 364 201q173 0 273 -107.5t100 -296.5v-686h-178v645q0 277 -238 277q-138 0 -229.5 -92.5t-91.5 -239.5v-590h-178z" />
<glyph unicode="&#x126;" horiz-adv-x="1492" d="M80 1083v113h104v168h193v-168h739v168h193v-168h106v-113h-106v-1083h-193v635h-739v-635h-193v1083h-104zM377 809h739v274h-739v-274z" />
<glyph unicode="&#x127;" horiz-adv-x="1222" d="M6 1251v113h154v98h178v-98h283v-113h-283v-362q137 201 364 201q173 0 273 -107.5t100 -296.5v-686h-178v645q0 277 -238 277q-138 0 -229.5 -92.5t-91.5 -239.5v-590h-178v1251h-154z" />
<glyph unicode="&#x128;" horiz-adv-x="559" d="M-53 1528q30 78 82 124t114 46q48 0 138.5 -39t128.5 -39q71 0 133 76l71 -47q-30 -78 -82 -124t-114 -46q-49 0 -138 38.5t-126 38.5q-75 0 -136 -75zM184 0v1364h191v-1364h-191z" />
<glyph unicode="&#x129;" horiz-adv-x="497" d="M-84 1270q30 78 82.5 124t114.5 46q47 0 137 -39t129 -39q71 0 133 76l72 -47q-30 -78 -82.5 -124t-114.5 -46q-49 0 -138 38.5t-126 38.5q-74 0 -135 -75zM160 0v1065h178v-1065h-178z" />
<glyph unicode="&#x12a;" horiz-adv-x="559" d="M-27 1507v119h615v-119h-615zM184 0v1364h191v-1364h-191z" />
<glyph unicode="&#x12b;" horiz-adv-x="497" d="M-57 1245v119h614v-119h-614zM160 0v1065h178v-1065h-178z" />
<glyph unicode="&#x12c;" horiz-adv-x="559" d="M-41 1708l104 31q18 -62 75 -101t143 -39t142.5 39t74.5 101l102 -31q-15 -104 -101.5 -172t-217.5 -68q-132 0 -218 67.5t-104 172.5zM184 0v1364h191v-1364h-191z" />
<glyph unicode="&#x12d;" horiz-adv-x="497" d="M-72 1450l105 31q18 -62 74.5 -101t142.5 -39t142.5 39t74.5 101l102 -31q-15 -104 -101.5 -172t-217.5 -68q-132 0 -218 67.5t-104 172.5zM160 0v1065h178v-1065h-178z" />
<glyph unicode="&#x12e;" horiz-adv-x="559" d="M66 -186q0 53 30 102.5t88 83.5v1364h191v-1364q-29 -5 -57 -15t-58 -26t-48.5 -43t-18.5 -59q0 -40 26.5 -63t67.5 -23q77 0 133 63v-137q-55 -55 -154 -55q-85 0 -142.5 48.5t-57.5 123.5z" />
<glyph unicode="&#x12f;" horiz-adv-x="497" d="M31 -186q0 54 33 103.5t96 82.5v1065h178v-1065q-26 -4 -54 -14t-58.5 -26.5t-50 -43.5t-19.5 -59q0 -40 27.5 -63t68.5 -23q38 0 73.5 18.5t55.5 44.5v-137q-55 -55 -152 -55q-83 0 -140.5 48.5t-57.5 123.5zM160 1274v188h178v-188h-178z" />
<glyph unicode="&#x130;" horiz-adv-x="559" d="M184 0v1364h191v-1364h-191zM201 1483v157h159v-157h-159z" />
<glyph unicode="&#x131;" horiz-adv-x="497" d="M160 0v1065h178v-1065h-178z" />
<glyph unicode="&#x134;" horiz-adv-x="1036" d="M41 180l154 99q86 -127 239 -127q240 0 240 274v938h192v-936q0 -217 -119.5 -335t-320.5 -118q-260 0 -385 205zM438 1536q163 115 260 207h140q108 -100 260 -207l-49 -86q-78 26 -153.5 70t-127.5 92q-52 -48 -127 -92t-152 -70z" />
<glyph unicode="&#x135;" horiz-adv-x="497" d="M-186 -342l49 147q53 -22 106 -22q101 0 146 54.5t45 156.5v1071h178v-1067q0 -183 -97 -277t-264 -94q-92 0 -163 31zM-84 1278q163 115 260 207h139q108 -100 260 -207l-49 -86q-163 54 -280 162q-52 -48 -127 -92t-152 -70z" />
<glyph unicode="&#x136;" horiz-adv-x="1320" d="M184 0v1364h191v-731l661 731h232l-527 -578l580 -786h-238l-471 649l-237 -264v-385h-191zM510 -354q95 125 145 250l170 -25q-30 -70 -98 -147.5t-147 -133.5z" />
<glyph unicode="&#x137;" horiz-adv-x="1161" d="M160 0v1462h178v-948l534 551h226l-430 -436l485 -629h-225l-385 510l-205 -207v-303h-178zM430 -354q95 125 145 250l170 -25q-30 -70 -98 -147.5t-147 -133.5z" />
<glyph unicode="&#x138;" horiz-adv-x="1165" d="M160 0v1065h178v-551l534 551h226l-430 -436l485 -629h-225l-385 510l-205 -207v-303h-178z" />
<glyph unicode="&#x139;" horiz-adv-x="1163" d="M170 1505q50 53 101.5 122.5t80.5 123.5l170 -27q-30 -69 -111 -148t-169 -130zM184 0v1364h191v-1188h758v-176h-949z" />
<glyph unicode="&#x13a;" horiz-adv-x="509" d="M152 1559q50 53 101.5 122t80.5 123l170 -26q-30 -69 -111.5 -148.5t-169.5 -130.5zM166 0v1462h178v-1462h-178z" />
<glyph unicode="&#x13b;" horiz-adv-x="1165" d="M184 0v1364h191v-1188h758v-176h-949zM479 -354q97 127 146 250l170 -25q-30 -70 -98.5 -147.5t-147.5 -133.5z" />
<glyph unicode="&#x13c;" horiz-adv-x="509" d="M29 -354q95 125 145 250l170 -25q-30 -70 -98.5 -147.5t-147.5 -133.5zM166 0v1462h178v-1462h-178z" />
<glyph unicode="&#x13d;" horiz-adv-x="1163" d="M184 0v1364h191v-1188h758v-176h-949zM545 952q40 42 64 94.5t24 102.5q-1 35 -23 88t-22 92v35h182v-152q0 -97 -40 -175.5t-120 -151.5z" />
<glyph unicode="&#x13e;" horiz-adv-x="595" d="M166 0v1462h178v-1462h-178zM500 1051q41 42 64.5 94t23.5 102q-1 35 -23 88t-22 92v35h182v-151q0 -97 -40 -176t-120 -152z" />
<glyph unicode="&#x13f;" horiz-adv-x="1163" d="M184 0v1364h191v-1188h758v-176h-949zM754 750q0 53 38.5 92t90.5 39t89.5 -39t37.5 -92t-37.5 -91t-89.5 -38q-53 0 -91 38.5t-38 90.5z" />
<glyph unicode="&#x140;" horiz-adv-x="940" d="M166 0v1462h178v-1462h-178zM596 623q0 53 38.5 92t90.5 39t89.5 -39t37.5 -92t-37.5 -91t-89.5 -38q-53 0 -91 38t-38 91z" />
<glyph unicode="&#x141;" horiz-adv-x="1191" d="M-18 430v156l229 106v672h192v-588l445 209v-158l-445 -206v-445h758v-176h-950v537z" />
<glyph unicode="&#x142;" horiz-adv-x="628" d="M2 631v153l229 105v573h181v-497l233 108v-153l-233 -109v-811h-181v737z" />
<glyph unicode="&#x143;" horiz-adv-x="1492" d="M184 0v1364h246l694 -1098v1098h185v-1364h-226l-714 1124v-1124h-185zM639 1501q50 53 101.5 122.5t80.5 123.5l170 -27q-30 -69 -111 -148t-169 -130z" />
<glyph unicode="&#x144;" horiz-adv-x="1222" d="M160 0v1065h178v-176q137 201 364 201q173 0 273 -107.5t100 -296.5v-686h-178v645q0 277 -238 277q-138 0 -229.5 -92.5t-91.5 -239.5v-590h-178zM537 1239q94 119 151 250l170 -27q-33 -71 -101.5 -147t-150.5 -131z" />
<glyph unicode="&#x145;" horiz-adv-x="1492" d="M184 0v1364h246l694 -1098v1098h185v-1364h-226l-714 1124v-1124h-185zM541 -354q95 125 145 250l170 -25q-30 -70 -98.5 -147.5t-147.5 -133.5z" />
<glyph unicode="&#x146;" horiz-adv-x="1222" d="M160 0v1065h178v-176q137 201 364 201q173 0 273 -107.5t100 -296.5v-686h-178v645q0 277 -238 277q-138 0 -229.5 -92.5t-91.5 -239.5v-590h-178zM414 -354q95 125 145 250l170 -25q-30 -70 -98.5 -147.5t-147.5 -133.5z" />
<glyph unicode="&#x147;" horiz-adv-x="1492" d="M184 0v1364h246l694 -1098v1098h185v-1364h-226l-714 1124v-1124h-185zM412 1661l51 86q159 -54 278 -160q119 106 281 160l49 -86q-139 -96 -260 -207h-139q-109 104 -260 207z" />
<glyph unicode="&#x148;" horiz-adv-x="1222" d="M160 0v1065h178v-176q137 201 364 201q173 0 273 -107.5t100 -296.5v-686h-178v645q0 277 -238 277q-138 0 -229.5 -92.5t-91.5 -239.5v-590h-178zM295 1403l51 86q76 -26 151 -69.5t128 -90.5q53 48 128 91.5t152 68.5l49 -86q-139 -96 -260 -207h-139 q-109 104 -260 207z" />
<glyph unicode="&#x14a;" horiz-adv-x="1492" d="M184 0v1364h238l702 -1057v1057h185v-1288q0 -216 -119.5 -333.5t-315.5 -117.5q-107 0 -196 39l65 162q62 -27 129 -27q212 0 238 207l-741 1118v-1124h-185z" />
<glyph unicode="&#x14b;" horiz-adv-x="1222" d="M160 0v1065h178v-176q137 201 364 201q173 0 273 -107.5t100 -296.5v-688q0 -180 -95.5 -275.5t-262.5 -95.5q-92 0 -166 31l49 147q53 -22 107 -22q190 0 190 207v655q0 277 -238 277q-138 0 -229.5 -92.5t-91.5 -239.5v-590h-178z" />
<glyph unicode="&#x14c;" horiz-adv-x="1525" d="M96 682q0 200 80.5 360.5t233 253.5t352.5 93t353 -93t234 -253.5t81 -360.5t-81 -360.5t-234 -253.5t-353 -93t-352.5 93t-233 253.5t-80.5 360.5zM297 682q0 -236 125 -382t340 -146q214 0 339.5 146.5t125.5 381.5t-125.5 380.5t-339.5 145.5q-215 0 -340 -145.5 t-125 -380.5zM455 1503v119h614v-119h-614z" />
<glyph unicode="&#x14d;" horiz-adv-x="1228" d="M90 530q0 247 142.5 403.5t381.5 156.5q238 0 381.5 -156.5t143.5 -403.5q0 -243 -143.5 -399t-381.5 -156q-159 0 -279 72.5t-182.5 197.5t-62.5 285zM279 530q0 -171 90 -283t245 -112t244.5 112t89.5 283q0 174 -89 286t-245 112t-245.5 -112t-89.5 -286zM307 1245 v119h615v-119h-615z" />
<glyph unicode="&#x14e;" horiz-adv-x="1525" d="M96 682q0 200 80.5 360.5t233 253.5t352.5 93t353 -93t234 -253.5t81 -360.5t-81 -360.5t-234 -253.5t-353 -93t-352.5 93t-233 253.5t-80.5 360.5zM297 682q0 -236 125 -382t340 -146q214 0 339.5 146.5t125.5 381.5t-125.5 380.5t-339.5 145.5q-215 0 -340 -145.5 t-125 -380.5zM440 1708l105 31q18 -62 74.5 -101t142.5 -39t142.5 39t74.5 101l102 -31q-15 -104 -101.5 -172t-217.5 -68q-132 0 -218 67.5t-104 172.5z" />
<glyph unicode="&#x14f;" horiz-adv-x="1228" d="M90 530q0 247 142.5 403.5t381.5 156.5q238 0 381.5 -156.5t143.5 -403.5q0 -243 -143.5 -399t-381.5 -156q-159 0 -279 72.5t-182.5 197.5t-62.5 285zM279 530q0 -171 90 -283t245 -112t244.5 112t89.5 283q0 174 -89 286t-245 112t-245.5 -112t-89.5 -286zM293 1450 l104 31q18 -62 74.5 -101t142.5 -39t142.5 39t74.5 101l103 -31q-15 -104 -101.5 -172t-218.5 -68t-217.5 67.5t-103.5 172.5z" />
<glyph unicode="&#x150;" horiz-adv-x="1525" d="M96 682q0 200 80.5 360.5t233 253.5t352.5 93t353 -93t234 -253.5t81 -360.5t-81 -360.5t-234 -253.5t-353 -93t-352.5 93t-233 253.5t-80.5 360.5zM297 682q0 -236 125 -382t340 -146q214 0 339.5 146.5t125.5 381.5t-125.5 380.5t-339.5 145.5q-215 0 -340 -145.5 t-125 -380.5zM520 1501q50 53 101.5 123t78.5 123l166 -27q-30 -69 -111 -148t-169 -130zM840 1501q50 53 101.5 122.5t80.5 123.5l164 -27q-30 -69 -110.5 -148t-168.5 -130z" />
<glyph unicode="&#x151;" horiz-adv-x="1228" d="M90 530q0 247 142.5 403.5t381.5 156.5q238 0 381.5 -156.5t143.5 -403.5q0 -243 -143.5 -399t-381.5 -156q-159 0 -279 72.5t-182.5 197.5t-62.5 285zM279 530q0 -171 90 -283t245 -112t244.5 112t89.5 283q0 174 -89 286t-245 112t-245.5 -112t-89.5 -286zM377 1243 q50 53 101.5 123t78.5 123l166 -27q-30 -69 -111 -148t-170 -130zM696 1243q50 53 102 123t81 123l163 -27q-30 -69 -110.5 -148t-167.5 -130z" />
<glyph unicode="&#x152;" horiz-adv-x="2027" d="M100 682q0 196 76 349t227.5 243t358.5 90h1147v-176h-715v-385h614v-166h-614v-461h735v-176h-1167q-207 0 -358.5 90t-227.5 243t-76 349zM301 682q0 -233 120.5 -369.5t340.5 -136.5h239v1012h-239q-220 0 -340.5 -136.5t-120.5 -369.5z" />
<glyph unicode="&#x153;" horiz-adv-x="2050" d="M90 530q0 160 61.5 286.5t180.5 200t276 73.5q144 0 254.5 -64.5t175.5 -177.5q64 113 173 177.5t253 64.5q229 0 367.5 -152t138.5 -385q0 -36 -4 -64h-836q7 -164 105 -257t256 -93q187 0 309 135l125 -112q-177 -187 -440 -187q-155 0 -268.5 63t-180.5 177 q-65 -112 -174.5 -176t-253.5 -64q-157 0 -276 73t-180.5 198.5t-61.5 283.5zM279 530q0 -171 88.5 -283t242.5 -112t243 112t89 283q0 174 -89 286t-243 112t-242.5 -112t-88.5 -286zM1135 627h651q-13 149 -103 229t-223 80q-138 0 -226 -86t-99 -223z" />
<glyph unicode="&#x154;" horiz-adv-x="1353" d="M184 0v1364h598q210 0 333.5 -108.5t123.5 -290.5q0 -138 -77 -237t-204 -144l318 -584h-217l-291 549h-391v-549h-193zM377 717h405q118 0 188 64t70 169q0 108 -72.5 173t-191.5 65h-399v-471zM567 1501q50 53 102 123t81 123l170 -27q-30 -69 -111 -148t-170 -130z " />
<glyph unicode="&#x155;" horiz-adv-x="804" d="M160 0v1065h178v-180q57 92 136 146t173 54q87 0 146 -38l-58 -170q-62 32 -123 32q-112 0 -193 -95t-81 -259v-555h-178zM326 1243q50 53 101.5 122.5t80.5 123.5l170 -27q-30 -69 -111 -148t-170 -130z" />
<glyph unicode="&#x156;" horiz-adv-x="1353" d="M184 0v1364h598q210 0 333.5 -108.5t123.5 -290.5q0 -138 -77 -237t-204 -144l318 -584h-217l-291 549h-391v-549h-193zM377 717h405q118 0 188 64t70 169q0 108 -72.5 173t-191.5 65h-399v-471zM494 -354q95 125 145 250l170 -25q-30 -70 -98.5 -147.5t-147.5 -133.5z " />
<glyph unicode="&#x157;" horiz-adv-x="804" d="M23 -354q95 125 145 250l170 -25q-30 -70 -98.5 -147.5t-147.5 -133.5zM160 0v1065h178v-180q57 92 136 146t173 54q87 0 146 -38l-58 -170q-62 32 -123 32q-112 0 -193 -95t-81 -259v-555h-178z" />
<glyph unicode="&#x158;" horiz-adv-x="1353" d="M184 0v1364h598q210 0 333.5 -108.5t123.5 -290.5q0 -138 -77 -237t-204 -144l318 -584h-217l-291 549h-391v-549h-193zM346 1661l51 86q76 -26 151 -69.5t128 -90.5q53 48 128 91.5t152 68.5l50 -86q-143 -98 -261 -207h-139q-109 104 -260 207zM377 717h405 q118 0 188 64t70 169q0 108 -72.5 173t-191.5 65h-399v-471z" />
<glyph unicode="&#x159;" horiz-adv-x="804" d="M137 1403l51 86q76 -26 151 -69.5t128 -90.5q119 106 281 160l49 -86q-139 -96 -260 -207h-140q-109 104 -260 207zM160 0v1065h178v-180q57 92 136 146t173 54q87 0 146 -38l-58 -170q-62 32 -123 32q-112 0 -193 -95t-81 -259v-555h-178z" />
<glyph unicode="&#x15a;" horiz-adv-x="1239" d="M72 256l157 100q68 -108 176 -160.5t236 -52.5q140 0 224.5 62.5t84.5 171.5q0 46 -20 81.5t-42 56t-80 41.5t-90 29t-117 27q-11 3 -17 4q-79 17 -137 34.5t-120.5 48t-102 69.5t-65.5 98.5t-26 134.5q0 180 133 284t344 104q157 0 290.5 -62.5t221.5 -179.5l-147 -105 q-64 86 -161 131.5t-214 45.5q-76 0 -135 -18.5t-99 -65t-40 -115.5q0 -27 5.5 -49.5t20 -40.5t27.5 -32t40 -27t45.5 -21t55 -18t57.5 -15.5t64 -15.5q66 -15 111.5 -27.5t102.5 -32t95.5 -40.5t78 -51.5t63 -66.5t38.5 -84.5t15 -105.5q0 -188 -141.5 -303t-376.5 -115 q-189 0 -333 75t-222 206zM500 1501q50 53 101.5 122.5t80.5 123.5l170 -27q-30 -69 -111 -148t-170 -130z" />
<glyph unicode="&#x15b;" horiz-adv-x="1060" d="M66 203l131 98q125 -172 350 -172q112 0 180 44.5t68 127.5q0 20 -4 36.5t-14.5 30t-21.5 24t-33.5 20t-40 15.5t-51.5 14t-58.5 13t-69.5 13q-70 13 -121 27t-103 38.5t-84 56t-52.5 79t-20.5 108.5q0 79 33 140.5t89.5 98.5t126.5 56t150 19q139 0 249 -51.5 t183 -127.5l-118 -112q-118 137 -316 137q-94 0 -159.5 -36t-65.5 -107q0 -23 8 -42t19 -32.5t33 -25.5t39.5 -19.5t50 -16t54 -13t60.5 -11.5q54 -10 90.5 -18.5t84.5 -23t79 -29.5t64.5 -39t53 -52.5t32 -68.5t12.5 -87q0 -154 -116.5 -247t-319.5 -93q-156 0 -277.5 59.5 t-193.5 168.5zM434 1239q96 122 152 250l170 -27q-33 -71 -101.5 -147t-150.5 -131z" />
<glyph unicode="&#x15c;" horiz-adv-x="1239" d="M72 256l157 100q68 -108 176 -160.5t236 -52.5q140 0 224.5 62.5t84.5 171.5q0 46 -20 81.5t-42 56t-80 41.5t-90 29t-117 27q-11 3 -17 4q-79 17 -137 34.5t-120.5 48t-102 69.5t-65.5 98.5t-26 134.5q0 180 133 284t344 104q157 0 290.5 -62.5t221.5 -179.5l-147 -105 q-64 86 -161 131.5t-214 45.5q-76 0 -135 -18.5t-99 -65t-40 -115.5q0 -27 5.5 -49.5t20 -40.5t27.5 -32t40 -27t45.5 -21t55 -18t57.5 -15.5t64 -15.5q66 -15 111.5 -27.5t102.5 -32t95.5 -40.5t78 -51.5t63 -66.5t38.5 -84.5t15 -105.5q0 -188 -141.5 -303t-376.5 -115 q-189 0 -333 75t-222 206zM279 1536q163 115 260 207h139q108 -100 260 -207l-49 -86q-78 26 -153.5 70t-127.5 92q-116 -107 -278 -162z" />
<glyph unicode="&#x15d;" horiz-adv-x="1060" d="M66 203l131 98q125 -172 350 -172q112 0 180 44.5t68 127.5q0 20 -4 36.5t-14.5 30t-21.5 24t-33.5 20t-40 15.5t-51.5 14t-58.5 13t-69.5 13q-70 13 -121 27t-103 38.5t-84 56t-52.5 79t-20.5 108.5q0 79 33 140.5t89.5 98.5t126.5 56t150 19q139 0 249 -51.5 t183 -127.5l-118 -112q-118 137 -316 137q-94 0 -159.5 -36t-65.5 -107q0 -23 8 -42t19 -32.5t33 -25.5t39.5 -19.5t50 -16t54 -13t60.5 -11.5q54 -10 90.5 -18.5t84.5 -23t79 -29.5t64.5 -39t53 -52.5t32 -68.5t12.5 -87q0 -154 -116.5 -247t-319.5 -93q-156 0 -277.5 59.5 t-193.5 168.5zM197 1278q163 115 260 207h139q108 -100 260 -207l-49 -86q-78 26 -153.5 70t-127.5 92q-116 -107 -278 -162z" />
<glyph unicode="&#x15e;" horiz-adv-x="1243" d="M72 256l157 100q68 -108 176 -160.5t236 -52.5q140 0 224.5 62.5t84.5 171.5q0 46 -20 81.5t-42 56t-80 41.5t-90 29t-117 27q-11 3 -17 4q-79 17 -137 34.5t-120.5 48t-102 69.5t-65.5 98.5t-26 134.5q0 180 133 284t344 104q157 0 290.5 -62.5t221.5 -179.5l-147 -105 q-64 86 -161 131.5t-214 45.5q-76 0 -135 -18.5t-99 -65t-40 -115.5q0 -27 5.5 -49.5t20 -40.5t27.5 -32t40 -27t45.5 -21t55 -18t57.5 -15.5t64 -15.5q66 -15 111.5 -27.5t102.5 -32t95.5 -40.5t78 -51.5t63 -66.5t38.5 -84.5t15 -105.5q0 -175 -123 -286.5t-332 -126.5 q80 -67 80 -154q0 -76 -59.5 -123t-147.5 -47q-99 0 -155 49v123q57 -57 131 -57q43 0 71.5 24t28.5 64q0 64 -70 118q-168 10 -296.5 84t-200.5 195z" />
<glyph unicode="&#x15f;" horiz-adv-x="1062" d="M68 203l131 98q125 -172 350 -172q112 0 180 44.5t68 127.5q0 20 -4 36.5t-14.5 30t-21.5 24t-33.5 20t-40 15.5t-51.5 14t-58.5 13t-69.5 13q-70 13 -121 27t-103 38.5t-84 56t-52.5 79t-20.5 108.5q0 79 33 140.5t89.5 98.5t126.5 56t150 19q139 0 249 -51.5 t183 -127.5l-118 -112q-118 137 -316 137q-94 0 -159.5 -36t-65.5 -107q0 -23 8 -42t19 -32.5t33 -25.5t39.5 -19.5t50 -16t54 -13t60.5 -11.5q54 -10 90.5 -18.5t84.5 -23t79 -29.5t64.5 -39t53 -52.5t32 -68.5t12.5 -87q0 -140 -97.5 -230t-269.5 -105q80 -67 80 -154 q0 -76 -59.5 -123t-147.5 -47q-99 0 -155 49v123q57 -57 131 -57q43 0 71.5 24t28.5 64q0 59 -68 118q-139 9 -247 67t-174 159z" />
<glyph unicode="&#x160;" horiz-adv-x="1239" d="M72 256l157 100q68 -108 176 -160.5t236 -52.5q140 0 224.5 62.5t84.5 171.5q0 46 -20 81.5t-42 56t-80 41.5t-90 29t-117 27q-11 3 -17 4q-79 17 -137 34.5t-120.5 48t-102 69.5t-65.5 98.5t-26 134.5q0 180 133 284t344 104q157 0 290.5 -62.5t221.5 -179.5l-147 -105 q-64 86 -161 131.5t-214 45.5q-76 0 -135 -18.5t-99 -65t-40 -115.5q0 -27 5.5 -49.5t20 -40.5t27.5 -32t40 -27t45.5 -21t55 -18t57.5 -15.5t64 -15.5q66 -15 111.5 -27.5t102.5 -32t95.5 -40.5t78 -51.5t63 -66.5t38.5 -84.5t15 -105.5q0 -188 -141.5 -303t-376.5 -115 q-189 0 -333 75t-222 206zM287 1661l51 86q159 -54 278 -160q119 106 281 160l49 -86q-139 -96 -260 -207h-139q-109 104 -260 207z" />
<glyph unicode="&#x161;" horiz-adv-x="1060" d="M66 203l131 98q125 -172 350 -172q112 0 180 44.5t68 127.5q0 20 -4 36.5t-14.5 30t-21.5 24t-33.5 20t-40 15.5t-51.5 14t-58.5 13t-69.5 13q-70 13 -121 27t-103 38.5t-84 56t-52.5 79t-20.5 108.5q0 79 33 140.5t89.5 98.5t126.5 56t150 19q139 0 249 -51.5 t183 -127.5l-118 -112q-118 137 -316 137q-94 0 -159.5 -36t-65.5 -107q0 -23 8 -42t19 -32.5t33 -25.5t39.5 -19.5t50 -16t54 -13t60.5 -11.5q54 -10 90.5 -18.5t84.5 -23t79 -29.5t64.5 -39t53 -52.5t32 -68.5t12.5 -87q0 -154 -116.5 -247t-319.5 -93q-156 0 -277.5 59.5 t-193.5 168.5zM190 1403l52 86q159 -54 278 -160q119 106 281 160l49 -86q-139 -96 -260 -207h-139q-107 101 -261 207z" />
<glyph unicode="&#x21a;" horiz-adv-x="1230" d="M55 1188v176h1121v-176h-465v-1188h-193v1188h-463zM389 -354q97 127 146 250l170 -25q-30 -70 -98.5 -147.5t-147.5 -133.5z" />
<glyph unicode="&#x162;" horiz-adv-x="1230" d="M55 1188v176h1121v-176h-465v-1188h-193v1188h-463zM389 -354q97 127 146 250l170 -25q-30 -70 -98.5 -147.5t-147.5 -133.5z" />
<glyph unicode="&#x21b;" horiz-adv-x="815" d="M43 918v147h184v299h179v-299h344v-147h-344v-596q0 -185 163 -185q81 0 138 45l75 -135q-93 -72 -231 -72q-195 0 -279 136q-45 70 -45 211v596h-184zM279 -354q95 125 145 250l170 -25q-30 -70 -98.5 -147.5t-147.5 -133.5z" />
<glyph unicode="&#x163;" horiz-adv-x="815" d="M43 918v147h184v299h179v-299h344v-147h-344v-596q0 -185 163 -185q81 0 138 45l75 -135q-93 -72 -231 -72q-195 0 -279 136q-45 70 -45 211v596h-184zM279 -354q95 125 145 250l170 -25q-30 -70 -98.5 -147.5t-147.5 -133.5z" />
<glyph unicode="&#x164;" horiz-adv-x="1226" d="M53 1188v176h1121v-176h-465v-1188h-193v1188h-463zM281 1661l51 86q159 -54 278 -160q119 106 281 160l49 -86q-139 -96 -260 -207h-139q-109 104 -260 207z" />
<glyph unicode="&#x165;" horiz-adv-x="806" d="M39 918v147h184v299h178v-299h344v-147h-344v-596q0 -185 164 -185q80 0 137 45l76 -135q-93 -72 -231 -72q-195 0 -279 136q-45 70 -45 211v596h-184zM573 1194q36 36 58 81t22 85q-1 30 -21 75.5t-20 77.5v29h164v-127q0 -83 -35.5 -149.5t-107.5 -128.5z" />
<glyph unicode="&#x166;" horiz-adv-x="1226" d="M53 1188v176h1121v-176h-465v-428h217v-113h-217v-647h-193v647h-219v113h219v428h-463z" />
<glyph unicode="&#x167;" horiz-adv-x="808" d="M41 545v110h182v263h-182v147h182v299h180v-299h345v-147h-345v-263h254v-110h-254v-223q0 -185 162 -185q80 0 137 45l76 -135q-93 -72 -231 -72q-199 0 -279 136q-45 74 -45 211v223h-182z" />
<glyph unicode="&#x168;" horiz-adv-x="1454" d="M168 512v852h190v-852q0 -164 98 -261t269 -97q170 0 270.5 97.5t100.5 260.5v852h190v-852q0 -244 -156.5 -390.5t-404.5 -146.5q-247 0 -402 146t-155 391zM391 1528q30 78 82.5 124t114.5 46q48 0 138 -39t128 -39q71 0 133 76l72 -47q-30 -78 -82.5 -124t-114.5 -46 q-49 0 -138 38.5t-126 38.5q-74 0 -135 -75z" />
<glyph unicode="&#x169;" horiz-adv-x="1222" d="M147 377v688h179v-647q0 -277 235 -277q140 0 232 92.5t92 239.5v592h178v-1065h-178v174q-141 -199 -365 -199q-173 0 -273 107t-100 295zM274 1270q30 78 82.5 124t114.5 46q47 0 137 -39t129 -39q71 0 133 76l72 -47q-30 -78 -82.5 -124t-114.5 -46q-49 0 -138 38.5 t-126 38.5q-74 0 -135 -75z" />
<glyph unicode="&#x16a;" horiz-adv-x="1454" d="M168 512v852h190v-852q0 -164 98 -261t269 -97q170 0 270.5 97.5t100.5 260.5v852h190v-852q0 -244 -156.5 -390.5t-404.5 -146.5q-247 0 -402 146t-155 391zM420 1503v119h614v-119h-614z" />
<glyph unicode="&#x16b;" horiz-adv-x="1222" d="M147 377v688h179v-647q0 -277 235 -277q140 0 232 92.5t92 239.5v592h178v-1065h-178v174q-141 -199 -365 -199q-173 0 -273 107t-100 295zM299 1245v119h614v-119h-614z" />
<glyph unicode="&#x16c;" horiz-adv-x="1454" d="M168 512v852h190v-852q0 -164 98 -261t269 -97q170 0 270.5 97.5t100.5 260.5v852h190v-852q0 -244 -156.5 -390.5t-404.5 -146.5q-247 0 -402 146t-155 391zM406 1708l104 31q18 -62 74.5 -101t142.5 -39t142.5 39t74.5 101l103 -31q-15 -104 -101.5 -172t-218.5 -68 t-217.5 67.5t-103.5 172.5z" />
<glyph unicode="&#x16d;" horiz-adv-x="1222" d="M147 377v688h179v-647q0 -277 235 -277q140 0 232 92.5t92 239.5v592h178v-1065h-178v174q-141 -199 -365 -199q-173 0 -273 107t-100 295zM285 1450l104 31q18 -62 74.5 -101t142.5 -39t142.5 39t74.5 101l103 -31q-15 -104 -101.5 -172t-218.5 -68t-217.5 67.5 t-103.5 172.5z" />
<glyph unicode="&#x16e;" horiz-adv-x="1454" d="M168 512v852h190v-852q0 -164 98 -261t269 -97q170 0 270.5 97.5t100.5 260.5v852h190v-852q0 -244 -156.5 -390.5t-404.5 -146.5q-247 0 -402 146t-155 391zM510 1595q0 87 63 149t154 62t154 -62t63 -149t-62.5 -148t-154.5 -61t-154.5 61t-62.5 148zM610 1595 q0 -49 34.5 -82.5t82.5 -33.5t81.5 33.5t33.5 82.5q0 47 -34 82t-81 35t-82 -35t-35 -82z" />
<glyph unicode="&#x16f;" horiz-adv-x="1222" d="M147 377v688h179v-647q0 -277 235 -277q140 0 232 92.5t92 239.5v592h178v-1065h-178v174q-141 -199 -365 -199q-173 0 -273 107t-100 295zM387 1391q0 87 63 149t154 62t154 -62t63 -149t-62.5 -148t-154.5 -61t-154.5 61t-62.5 148zM487 1391q0 -49 34.5 -83t82.5 -34 t81.5 34t33.5 83q0 47 -34 81.5t-81 34.5t-82 -34.5t-35 -81.5z" />
<glyph unicode="&#x170;" horiz-adv-x="1454" d="M168 512v852h190v-852q0 -164 98 -261t269 -97q170 0 270.5 97.5t100.5 260.5v852h190v-852q0 -244 -156.5 -390.5t-404.5 -146.5q-247 0 -402 146t-155 391zM471 1501q50 53 101.5 123t78.5 123l166 -27q-30 -69 -111 -148t-169 -130zM791 1501q50 53 101.5 122.5 t80.5 123.5l164 -27q-30 -69 -110.5 -148t-168.5 -130z" />
<glyph unicode="&#x171;" horiz-adv-x="1222" d="M147 377v688h179v-647q0 -277 235 -277q140 0 232 92.5t92 239.5v592h178v-1065h-178v174q-141 -199 -365 -199q-173 0 -273 107t-100 295zM354 1243q51 54 102.5 123.5t78.5 122.5l165 -27q-30 -69 -111 -148t-169 -130zM674 1243q50 53 101.5 122.5t80.5 123.5l164 -27 q-30 -69 -110.5 -148t-168.5 -130z" />
<glyph unicode="&#x172;" horiz-adv-x="1454" d="M168 514v850h190v-850q0 -165 98 -262.5t269 -97.5q170 0 270.5 98t100.5 262v850h190v-850q0 -89 -19 -161t-56 -126t-76 -92t-95 -78q-27 -19 -46 -34.5t-43 -41t-37 -56t-13 -62.5q0 -46 28.5 -70t74.5 -24q75 0 137 73v-141q-59 -59 -166 -59q-87 0 -147 45t-60 127 q0 96 86 176q-77 -15 -135 -15q-242 0 -396.5 147t-154.5 392z" />
<glyph unicode="&#x173;" horiz-adv-x="1222" d="M147 377v688h179v-637q0 -134 57.5 -210.5t181.5 -76.5q137 0 228.5 92.5t91.5 239.5v592h178v-1065q-44 -7 -86 -23t-77.5 -48.5t-35.5 -73.5q0 -37 28 -61.5t73 -24.5q70 0 127 65v-137q-23 -23 -64 -39t-88 -16q-87 0 -145 48.5t-58 121.5q0 58 37 110t111 78v174 q-138 -199 -365 -199q-92 0 -164 32t-117 87.5t-68.5 127t-23.5 155.5z" />
<glyph unicode="&#x174;" horiz-adv-x="1929" d="M53 1364h203l291 -1120l330 1120h184l330 -1124l288 1124h199l-381 -1364h-213l-319 1106l-320 -1106h-219zM637 1536q163 115 260 207h139q108 -100 260 -207l-49 -86q-163 54 -280 162q-52 -48 -127 -92t-152 -70z" />
<glyph unicode="&#x175;" horiz-adv-x="1613" d="M57 1065h191l215 -850l266 850h164l264 -850l217 850h182l-294 -1065h-195l-258 836l-262 -836h-195zM481 1278q163 115 260 207h140q108 -100 260 -207l-49 -86q-78 26 -153.5 70t-127.5 92q-52 -48 -127 -92t-152 -70z" />
<glyph unicode="&#x176;" horiz-adv-x="1257" d="M12 1364h226l395 -635l399 635h217l-524 -807v-557h-193v555zM301 1536q163 115 260 207h139q105 -97 261 -207l-50 -86q-163 54 -280 162q-52 -48 -127 -92t-152 -70z" />
<glyph unicode="&#x177;" horiz-adv-x="1095" d="M27 1065h204l340 -827l301 827h193l-426 -1114q-66 -173 -145.5 -250.5t-221.5 -77.5q-128 0 -217 66l78 131q61 -41 127 -41q68 0 111 42t78 120l28 63zM219 1278q163 115 260 207h139q105 -97 261 -207l-50 -86q-163 54 -280 162q-52 -48 -127 -92t-152 -70z" />
<glyph unicode="&#x178;" horiz-adv-x="1257" d="M12 1364h226l395 -635l399 635h217l-524 -807v-557h-193v555zM336 1481v159h156v-159h-156zM766 1481v159h154v-159h-154z" />
<glyph unicode="&#x179;" horiz-adv-x="1232" d="M84 0v160l793 1028h-762v176h1011v-156l-796 -1032h813v-176h-1059zM487 1501q50 53 102 123t81 123l170 -27q-30 -69 -111 -148t-170 -130z" />
<glyph unicode="&#x17a;" horiz-adv-x="1040" d="M82 0v145l618 760h-591v160h827v-143l-623 -764h641v-158h-872zM428 1239q96 122 152 250l170 -27q-33 -71 -101.5 -147t-150.5 -131z" />
<glyph unicode="&#x17b;" horiz-adv-x="1232" d="M84 0v160l793 1028h-762v176h1011v-156l-796 -1032h813v-176h-1059zM510 1483v157h160v-157h-160z" />
<glyph unicode="&#x17c;" horiz-adv-x="1040" d="M82 0v145l618 760h-591v160h827v-143l-623 -764h641v-158h-872zM434 1225v157h160v-157h-160z" />
<glyph unicode="&#x17d;" horiz-adv-x="1232" d="M84 0v160l793 1028h-762v176h1011v-156l-796 -1032h813v-176h-1059zM266 1661l51 86q76 -26 151 -69.5t128 -90.5q119 106 281 160l49 -86q-139 -96 -260 -207h-140q-109 104 -260 207z" />
<glyph unicode="&#x17e;" horiz-adv-x="1040" d="M82 0v145l618 760h-591v160h827v-143l-623 -764h641v-158h-872zM174 1403l51 86q76 -26 151 -69.5t128 -90.5q53 48 128 91.5t152 68.5l50 -86q-143 -98 -261 -207h-139q-109 104 -260 207z" />
<glyph unicode="&#x192;" d="M-8 -203l57 146q63 -25 119 -25q172 0 203 180l104 611h-207l25 143h209l33 195q26 161 121 252.5t257 91.5q97 0 172 -35l-55 -148q-58 25 -110 25q-97 0 -147 -44.5t-64 -133.5l-33 -203h266l-27 -143h-266l-102 -603q-28 -160 -122 -252t-257 -92q-94 0 -176 35z" />
<glyph unicode="&#x1fa;" horiz-adv-x="1357" d="M18 0l529 1298q-43 29 -68.5 74t-25.5 98q0 91 66 155.5t161 64.5t162 -64.5t67 -155.5q0 -52 -27.5 -97.5t-70.5 -74.5l530 -1298h-215l-145 379h-614l-148 -379h-201zM432 547h486l-240 631zM551 1780q50 53 101.5 122t80.5 123l170 -26q-30 -69 -111 -148.5 t-169 -130.5zM563 1468q0 -50 34 -83t85 -33q49 0 82 33t33 83t-33 85.5t-82 35.5q-50 0 -84.5 -35.5t-34.5 -85.5z" />
<glyph unicode="&#x1fb;" horiz-adv-x="1161" d="M78 299q0 60 16 108t46 80.5t64 56t79.5 38.5t81.5 22.5t81 13.5q22 3 61 8t61.5 7.5t56 9t53 13t42.5 17.5t35 24.5t20.5 33.5t8.5 45q0 43 -21.5 74.5t-57.5 48.5t-76.5 25t-85.5 8q-182 0 -332 -113l-82 135q198 136 426 136q191 0 301.5 -86t110.5 -263v-503 q0 -59 20 -87t64 -28q41 0 63 16l23 -135q-50 -20 -123 -20q-81 0 -138.5 42t-68.5 128q-66 -94 -162.5 -136.5t-204.5 -42.5q-166 0 -264 86.5t-98 237.5zM260 303q0 -91 61 -135.5t160 -44.5q61 0 114.5 17t97.5 50t69.5 90t25.5 130v184q-21 -26 -45 -43.5t-58.5 -28.5 t-57 -15.5t-73 -12t-73.5 -11.5q-53 -9 -87 -19t-67.5 -29t-50 -52t-16.5 -80zM330 1337q0 87 63 149t154 62t154 -62t63 -149t-62.5 -148t-154.5 -61t-154.5 61t-62.5 148zM414 1642q50 53 101.5 122.5t80.5 123.5l170 -26q-30 -69 -111.5 -148.5t-169.5 -130.5zM430 1337 q0 -49 34.5 -82.5t82.5 -33.5t81.5 33.5t33.5 82.5q0 47 -34 82t-81 35t-82 -35t-35 -82z" />
<glyph unicode="&#x1fc;" horiz-adv-x="1861" d="M-2 0l700 1364h1047v-176h-655v-385h557v-166h-557v-461h675v-176h-870v379h-496l-194 -379h-207zM481 547h414v649h-86zM866 1501q50 53 102 123t81 123l170 -27q-30 -69 -111 -148t-170 -130z" />
<glyph unicode="&#x1fd;" horiz-adv-x="1878" d="M78 301q0 70 24.5 124.5t60 87t88.5 55.5t96.5 33t98.5 17q20 3 56 7t56.5 7t51 7.5t48.5 10t41 13.5t36 18t25.5 24t18 31.5t5.5 39.5q0 43 -21 74.5t-57 48.5t-76 25t-85 8q-184 0 -334 -113l-82 135q193 136 418 136q273 0 368 -183q145 183 377 183q228 0 367 -151.5 t139 -379.5q0 -42 -4 -70h-836q7 -164 104.5 -257t254.5 -93q187 0 315 140l121 -117q-177 -187 -438 -187q-142 0 -254 56t-180 164q-128 -220 -408 -220q-179 0 -287 85.5t-108 240.5zM260 303q0 -91 61 -135.5t160 -44.5q61 0 114.5 17t97.5 50t69.5 90t25.5 130v184 q-21 -26 -45 -43.5t-58.5 -28.5t-57 -15.5t-73 -12t-73.5 -11.5q-53 -9 -87 -19t-67.5 -29t-50 -52t-16.5 -80zM788 1243q50 53 102 123t81 123l170 -27q-30 -69 -111 -148t-170 -130zM963 627h653q-13 148 -104 228.5t-224 80.5q-138 0 -226 -86t-99 -223z" />
<glyph unicode="&#x1fe;" horiz-adv-x="1525" d="M96 682q0 200 80.5 360.5t233 253.5t352.5 93q197 0 356 -97l66 94l96 -67l-70 -96q105 -96 162.5 -236t57.5 -305q0 -200 -81 -360.5t-234 -253.5t-353 -93q-205 0 -356 97l-66 -95l-96 66l69 96q-105 95 -161 235.5t-56 307.5zM297 682q0 -241 127 -383l588 842 q-109 67 -250 67q-215 0 -340 -145.5t-125 -380.5zM512 223q104 -69 250 -69q214 0 339.5 146.5t125.5 381.5t-127 381zM672 1501q50 53 101.5 122.5t80.5 123.5l170 -27q-30 -69 -111 -148t-170 -130z" />
<glyph unicode="&#x1ff;" horiz-adv-x="1228" d="M90 530q0 247 142.5 403.5t381.5 156.5q148 0 273 -72l47 67l92 -63l-49 -70q162 -156 162 -422q0 -243 -143.5 -399t-381.5 -156q-153 0 -274 70l-45 -68l-92 64l49 70q-162 156 -162 419zM279 530q0 -163 77 -266l432 615q-73 51 -174 51q-157 0 -246 -112.5 t-89 -287.5zM438 184q73 -51 176 -51q155 0 244.5 112.5t89.5 284.5q0 165 -78 269zM528 1243q50 53 102 123t81 123l170 -27q-30 -69 -111 -148t-170 -130z" />
<glyph unicode="&#x218;" horiz-adv-x="1239" d="M72 256l157 100q68 -108 176 -160.5t236 -52.5q140 0 224.5 62.5t84.5 171.5q0 46 -20 81.5t-42 56t-80 41.5t-90 29t-117 27q-11 3 -17 4q-79 17 -137 34.5t-120.5 48t-102 69.5t-65.5 98.5t-26 134.5q0 180 133 284t344 104q157 0 290.5 -62.5t221.5 -179.5l-147 -105 q-64 86 -161 131.5t-214 45.5q-76 0 -135 -18.5t-99 -65t-40 -115.5q0 -27 5.5 -49.5t20 -40.5t27.5 -32t40 -27t45.5 -21t55 -18t57.5 -15.5t64 -15.5q66 -15 111.5 -27.5t102.5 -32t95.5 -40.5t78 -51.5t63 -66.5t38.5 -84.5t15 -105.5q0 -188 -141.5 -303t-376.5 -115 q-189 0 -333 75t-222 206zM418 -354q95 125 145 250l170 -25q-30 -70 -98.5 -147.5t-147.5 -133.5z" />
<glyph unicode="&#x219;" horiz-adv-x="1060" d="M66 203l131 98q125 -172 350 -172q112 0 180 44.5t68 127.5q0 20 -4 36.5t-14.5 30t-21.5 24t-33.5 20t-40 15.5t-51.5 14t-58.5 13t-69.5 13q-70 13 -121 27t-103 38.5t-84 56t-52.5 79t-20.5 108.5q0 79 33 140.5t89.5 98.5t126.5 56t150 19q139 0 249 -51.5 t183 -127.5l-118 -112q-118 137 -316 137q-94 0 -159.5 -36t-65.5 -107q0 -23 8 -42t19 -32.5t33 -25.5t39.5 -19.5t50 -16t54 -13t60.5 -11.5q54 -10 90.5 -18.5t84.5 -23t79 -29.5t64.5 -39t53 -52.5t32 -68.5t12.5 -87q0 -154 -116.5 -247t-319.5 -93q-156 0 -277.5 59.5 t-193.5 168.5zM342 -354q95 125 145 250l170 -25q-30 -70 -98 -147.5t-147 -133.5z" />
<glyph unicode="&#x237;" horiz-adv-x="497" d="M-186 -342l49 147q53 -22 106 -22q101 0 146 54.5t45 156.5v1071h178v-1067q0 -183 -97 -277t-264 -94q-92 0 -163 31z" />
<glyph unicode="&#x259;" horiz-adv-x="1185" d="M80 504q0 41 6 71h823q-12 168 -109 258.5t-243 90.5q-205 0 -297 -170l-143 96q74 114 186.5 177t257.5 63q157 0 279.5 -73.5t189 -202t66.5 -288.5q0 -238 -144 -394.5t-377 -156.5q-118 0 -213.5 43t-156 117t-93 168.5t-32.5 200.5zM260 436q10 -134 92.5 -220.5 t227.5 -86.5q134 0 219.5 80.5t105.5 226.5h-645z" />
<glyph unicode="&#x2c6;" horiz-adv-x="663" d="M8 1278q163 115 260 207h140q108 -100 260 -207l-50 -86q-163 54 -280 162q-52 -48 -127 -92t-152 -70z" />
<glyph unicode="&#x2c7;" horiz-adv-x="663" d="M8 1403l51 86q76 -26 151 -69.5t128 -90.5q53 48 128 91.5t152 68.5l50 -86q-139 -96 -260 -207h-140q-109 104 -260 207z" />
<glyph unicode="&#x2d8;" horiz-adv-x="663" d="M16 1450l105 31q18 -62 74.5 -101t142.5 -39t142.5 39t74.5 101l102 -31q-15 -104 -101.5 -172t-217.5 -68q-132 0 -218 67.5t-104 172.5z" />
<glyph unicode="&#x2d9;" horiz-adv-x="655" d="M248 1225v157h160v-157h-160z" />
<glyph unicode="&#x2da;" horiz-adv-x="655" d="M117 1391q0 87 63 149t154 62t154 -62t63 -149t-62.5 -148t-154.5 -61t-154.5 61t-62.5 148zM217 1391q0 -49 34.5 -83t82.5 -34t81.5 34t33.5 83q0 47 -34 81.5t-81 34.5t-82 -34.5t-35 -81.5z" />
<glyph unicode="&#x2db;" horiz-adv-x="655" d="M162 -186q0 147 192 252h90q-149 -99 -149 -205q0 -46 28 -70t74 -24q73 0 135 69v-137q-55 -59 -163 -59q-88 0 -147.5 45.5t-59.5 128.5z" />
<glyph unicode="&#x2dc;" horiz-adv-x="679" d="M4 1270q30 78 82.5 124t114.5 46q47 0 137 -39t129 -39q71 0 133 76l72 -47q-30 -78 -82.5 -124t-114.5 -46q-49 0 -138 38.5t-126 38.5q-74 0 -135 -75z" />
<glyph unicode="&#x2dd;" horiz-adv-x="720" d="M82 1243q50 53 101.5 123t78.5 123l166 -27q-30 -69 -111 -148t-170 -130zM401 1243q50 53 102 123t81 123l164 -27q-30 -69 -110.5 -148t-168.5 -130z" />
<glyph unicode="&#x2206;" horiz-adv-x="1241" d="M66 0v29l542 1433h25l543 -1433v-29h-1110zM262 141h717l-358 953z" />
<glyph unicode="&#x394;" horiz-adv-x="1241" d="M66 0v29l542 1433h25l543 -1433v-29h-1110zM262 141h717l-358 953z" />
<glyph unicode="&#x2126;" horiz-adv-x="1273" d="M96 819q0 250 150 410t391 160q240 0 390.5 -161t150.5 -413q0 -57 -9 -112.5t-21.5 -100.5t-36.5 -95.5t-42.5 -84.5t-50.5 -81t-50.5 -71t-53.5 -69t-48 -62h291v-139h-424l-37 131q74 93 116.5 148.5t91 130t73 131.5t41 127t16.5 143q0 197 -108.5 319.5 t-288.5 122.5q-181 0 -289 -122.5t-108 -319.5q0 -73 16 -142.5t40.5 -127.5t71.5 -131t90.5 -130.5t116.5 -148.5l-34 -131h-424v139h291q-14 18 -50 64t-54 70.5t-50.5 71.5t-50.5 80.5t-41.5 84t-35.5 95t-21 101t-9 113.5z" />
<glyph unicode="&#x3a9;" horiz-adv-x="1273" d="M96 819q0 250 150 410t391 160q240 0 390.5 -161t150.5 -413q0 -57 -9 -112.5t-21.5 -100.5t-36.5 -95.5t-42.5 -84.5t-50.5 -81t-50.5 -71t-53.5 -69t-48 -62h291v-139h-424l-37 131q74 93 116.5 148.5t91 130t73 131.5t41 127t16.5 143q0 197 -108.5 319.5 t-288.5 122.5q-181 0 -289 -122.5t-108 -319.5q0 -73 16 -142.5t40.5 -127.5t71.5 -131t90.5 -130.5t116.5 -148.5l-34 -131h-424v139h291q-14 18 -50 64t-54 70.5t-50.5 71.5t-50.5 80.5t-41.5 84t-35.5 95t-21 101t-9 113.5z" />
<glyph unicode="&#x3c0;" horiz-adv-x="1218" d="M68 922v143h1083v-143h-143v-922h-144v922h-510v-922h-143v922h-143z" />
<glyph unicode="&#x1e80;" horiz-adv-x="1929" d="M53 1364h203l291 -1120l330 1120h184l330 -1124l288 1124h199l-381 -1364h-213l-319 1106l-320 -1106h-219zM731 1720l170 27q63 -116 180 -246l-69 -59q-89 51 -170 130t-111 148z" />
<glyph unicode="&#x1e81;" horiz-adv-x="1613" d="M57 1065h191l215 -850l266 850h164l264 -850l217 850h182l-294 -1065h-195l-258 836l-262 -836h-195zM565 1462l170 27q63 -116 180 -246l-69 -59q-89 51 -170 130t-111 148z" />
<glyph unicode="&#x1e82;" horiz-adv-x="1929" d="M53 1364h203l291 -1120l330 1120h184l330 -1124l288 1124h199l-381 -1364h-213l-319 1106l-320 -1106h-219zM854 1501q50 53 101.5 122.5t80.5 123.5l170 -27q-30 -69 -111 -148t-169 -130z" />
<glyph unicode="&#x1e83;" horiz-adv-x="1613" d="M57 1065h191l215 -850l266 850h164l264 -850l217 850h182l-294 -1065h-195l-258 836l-262 -836h-195zM707 1243q50 53 101.5 122.5t80.5 123.5l170 -27q-30 -69 -111 -148t-170 -130z" />
<glyph unicode="&#x1e84;" horiz-adv-x="1929" d="M53 1364h203l291 -1120l330 1120h184l330 -1124l288 1124h199l-381 -1364h-213l-319 1106l-320 -1106h-219zM676 1481v159h155v-159h-155zM1106 1481v159h154v-159h-154z" />
<glyph unicode="&#x1e85;" horiz-adv-x="1613" d="M57 1065h191l215 -850l266 850h164l264 -850l217 850h182l-294 -1065h-195l-258 836l-262 -836h-195zM518 1223v159h156v-159h-156zM948 1223v159h154v-159h-154z" />
<glyph unicode="&#x1ef2;" horiz-adv-x="1257" d="M12 1364h226l395 -635l399 635h217l-524 -807v-557h-193v555zM391 1720l170 27q63 -116 180 -246l-69 -59q-89 51 -170 130t-111 148z" />
<glyph unicode="&#x1ef3;" horiz-adv-x="1095" d="M27 1065h204l340 -827l301 827h193l-426 -1114q-66 -173 -145.5 -250.5t-221.5 -77.5q-128 0 -217 66l78 131q61 -41 127 -41q68 0 111 42t78 120l28 63zM322 1462l170 27q63 -116 180 -246l-70 -59q-88 51 -169 130t-111 148z" />
<glyph unicode="&#x2000;" horiz-adv-x="1015" />
<glyph unicode="&#x2001;" horiz-adv-x="2030" />
<glyph unicode="&#x2002;" horiz-adv-x="1015" />
<glyph unicode="&#x2003;" horiz-adv-x="2030" />
<glyph unicode="&#x2004;" horiz-adv-x="676" />
<glyph unicode="&#x2005;" horiz-adv-x="507" />
<glyph unicode="&#x2006;" horiz-adv-x="338" />
<glyph unicode="&#x2007;" horiz-adv-x="338" />
<glyph unicode="&#x2008;" horiz-adv-x="253" />
<glyph unicode="&#x2009;" horiz-adv-x="406" />
<glyph unicode="&#x200a;" horiz-adv-x="112" />
<glyph unicode="&#x2010;" horiz-adv-x="804" d="M127 496v159h551v-159h-551z" />
<glyph unicode="&#x2011;" horiz-adv-x="804" d="M127 496v159h551v-159h-551z" />
<glyph unicode="&#x2012;" horiz-adv-x="804" d="M127 496v159h551v-159h-551z" />
<glyph unicode="&#x2013;" d="M106 545v155h975v-155h-975z" />
<glyph unicode="&#x2014;" horiz-adv-x="1910" d="M125 545v155h1661v-155h-1661z" />
<glyph unicode="&#x2018;" horiz-adv-x="458" d="M117 870v193q0 180 162 326l65 -70q-115 -92 -115 -203v-45h107v-201h-219z" />
<glyph unicode="&#x2019;" horiz-adv-x="438" d="M113 915q112 92 112 203v45h-104v201h219v-190q0 -182 -162 -328z" />
<glyph unicode="&#x201a;" horiz-adv-x="503" d="M133 -242q113 90 113 203v45h-105v201h219v-191q0 -183 -161 -325z" />
<glyph unicode="&#x201c;" horiz-adv-x="839" d="M119 870v193q0 180 162 326l65 -70q-115 -92 -115 -203v-45h107v-201h-219zM498 870v191q0 183 164 328l63 -70q-113 -90 -113 -203v-45h105v-201h-219z" />
<glyph unicode="&#x201d;" horiz-adv-x="815" d="M113 915q112 92 112 203v45h-104v201h219v-190q0 -182 -162 -328zM492 915q114 94 114 203v45h-106v201h219v-190q0 -182 -162 -328z" />
<glyph unicode="&#x201e;" horiz-adv-x="882" d="M133 -242q113 90 113 203v45h-105v201h219v-191q0 -183 -161 -325zM512 -242q115 92 115 203v45h-107v201h219v-191q0 -183 -161 -325z" />
<glyph unicode="&#x2020;" horiz-adv-x="966" d="M72 905v154h325v305h172v-305h326v-154h-326v-905h-172v905h-325z" />
<glyph unicode="&#x2021;" horiz-adv-x="1015" d="M96 307v154h326v442h-326v154h326v307h172v-307h326v-154h-326v-442h326v-154h-326v-307h-172v307h-326z" />
<glyph unicode="&#x2022;" horiz-adv-x="753" d="M102 682q0 114 80.5 194t194.5 80q113 0 193.5 -80t80.5 -194t-80.5 -194t-193.5 -80q-114 0 -194.5 80t-80.5 194z" />
<glyph unicode="&#x2025;" horiz-adv-x="989" d="M147 0v217h220v-217h-220zM625 0v217h217v-217h-217z" />
<glyph unicode="&#x2026;" horiz-adv-x="1441" d="M147 0v217h220v-217h-220zM610 0v217h219v-217h-219zM1075 0v217h219v-217h-219z" />
<glyph unicode="&#x202f;" horiz-adv-x="406" />
<glyph unicode="&#x2030;" horiz-adv-x="2291" d="M76 1051q0 141 90 236t231 95t231.5 -95t90.5 -236q0 -146 -90.5 -242t-231.5 -96t-231 96t-90 242zM201 1051q0 -91 53.5 -151t142.5 -60q88 0 141.5 60t53.5 151q0 89 -54 147.5t-141 58.5q-89 0 -142.5 -58t-53.5 -148zM358 0l709 1364h143l-710 -1364h-142zM850 317 q0 142 90.5 238t230.5 96q143 0 232.5 -95.5t89.5 -238.5q0 -144 -89.5 -239.5t-232.5 -95.5q-140 0 -230.5 95.5t-90.5 239.5zM977 317q0 -90 54 -150.5t140 -60.5q88 0 142.5 60.5t54.5 150.5q0 89 -54.5 149t-142.5 60q-86 0 -140 -60t-54 -149zM1579 317 q0 143 90.5 238.5t231.5 95.5t231 -95.5t90 -238.5q0 -144 -90 -239.5t-231 -95.5t-231.5 95.5t-90.5 239.5zM1706 317q0 -89 54.5 -150t140.5 -61q87 0 140.5 60.5t53.5 150.5t-53.5 149.5t-140.5 59.5q-86 0 -140.5 -60t-54.5 -149z" />
<glyph unicode="&#x2039;" horiz-adv-x="563" d="M66 502v61l294 393l105 -82l-248 -342l248 -344l-105 -79z" />
<glyph unicode="&#x203a;" horiz-adv-x="565" d="M98 188l248 344l-248 342l107 82l293 -393v-61l-293 -393z" />
<glyph unicode="&#x2044;" horiz-adv-x="456" d="M-330 0l985 1364h136l-986 -1364h-135z" />
<glyph unicode="&#x205f;" horiz-adv-x="507" />
<glyph unicode="&#x2070;" horiz-adv-x="819" d="M82 1122q0 79 9 143t31.5 122.5t59 98t94 62.5t132.5 23q77 0 135 -23t94.5 -62.5t59 -98t31.5 -122.5t9 -143t-9 -143t-31.5 -123t-59 -98.5t-94.5 -62.5t-135 -23q-75 0 -132.5 23t-94 62.5t-59 98.5t-31.5 123t-9 143zM225 1122q0 -78 8 -134t28 -101t56.5 -67.5 t90.5 -22.5q56 0 93 22.5t57 67.5t28 101t8 134t-8 133.5t-28 100.5t-57 67.5t-93 22.5q-54 0 -90.5 -22.5t-56.5 -67t-28 -100.5t-8 -134z" />
<glyph unicode="&#x2074;" horiz-adv-x="784" d="M45 887v117q74 127 122.5 276.5t51.5 273.5h139q-3 -124 -48.5 -268t-116.5 -272h286v344h137v-344h129v-127h-129v-199h-139v199h-432z" />
<glyph unicode="&#x2075;" horiz-adv-x="778" d="M53 842l121 67q61 -106 209 -106q77 0 129.5 43.5t52.5 122.5q0 77 -50 120.5t-140 43.5q-117 0 -187 -82l-82 39l27 464h531v-131h-410q-2 -40 -21 -219q75 49 179 49q135 0 218 -77t83 -209q0 -55 -19 -105.5t-57 -94t-104.5 -69.5t-151.5 -26q-220 0 -328 170z" />
<glyph unicode="&#x2076;" horiz-adv-x="788" d="M74 1006q0 290 282 548h201q-104 -78 -185.5 -172t-119.5 -188q36 35 91.5 52.5t100.5 17.5q129 0 213 -79.5t84 -209.5q0 -133 -92 -218t-239 -85q-154 0 -245 88t-91 246zM219 971q0 -76 50.5 -122t138.5 -46q90 0 139 46t49 124t-49 125t-139 47q-88 0 -138.5 -48 t-50.5 -126z" />
<glyph unicode="&#x2077;" horiz-adv-x="710" d="M31 1423v131h663v-112q-59 -73 -112.5 -150t-114.5 -181t-100 -215t-43 -208h-154q5 80 33 171t61 160.5t88 158t85.5 131.5t82.5 114h-489z" />
<glyph unicode="&#x2078;" horiz-adv-x="817" d="M76 928q0 154 147 223q-114 56 -114 188q0 108 83 170t218 62q136 0 218.5 -61.5t82.5 -170.5q0 -120 -119 -188q72 -35 111.5 -93.5t39.5 -129.5q0 -121 -92 -188.5t-241 -67.5q-150 0 -242 67t-92 189zM219 940q0 -72 54 -107.5t137 -35.5q82 0 135 34.5t53 106.5 q0 74 -53.5 111.5t-134.5 37.5q-82 0 -136.5 -37.5t-54.5 -109.5zM252 1331q0 -62 45 -94.5t111 -32.5q68 0 114.5 32.5t46.5 94.5q0 58 -45.5 86.5t-113.5 28.5q-69 0 -113.5 -28.5t-44.5 -86.5z" />
<glyph unicode="&#x2079;" horiz-adv-x="788" d="M47 1266q0 134 92.5 219.5t239.5 85.5q154 0 245 -88t91 -246q0 -288 -281 -549h-201q105 78 187 171.5t117 184.5q-36 -33 -90.5 -49t-100.5 -16q-131 0 -215 79t-84 208zM193 1268q0 -78 48.5 -124t137.5 -46t140.5 47t51.5 125q0 76 -51.5 123t-140.5 47t-137.5 -47 t-48.5 -125z" />
<glyph unicode="&#x2080;" horiz-adv-x="819" d="M82 242q0 100 15 176.5t50.5 140t101 97.5t159.5 34q77 0 135 -23t94.5 -62t59 -97.5t31.5 -122.5t9 -143t-9 -142.5t-31.5 -122t-59 -98t-94.5 -63t-135 -23.5q-94 0 -159.5 34.5t-101 98.5t-50.5 140.5t-15 175.5zM225 242q0 -78 8 -134t28 -100.5t56.5 -67t90.5 -22.5 q56 0 93 22.5t57 67.5t28 100.5t8 133.5t-8 134t-28 101t-57 67.5t-93 22.5q-54 0 -90.5 -22.5t-56.5 -67.5t-28 -101t-8 -134z" />
<glyph unicode="&#x2081;" horiz-adv-x="665" d="M63 563q200 42 277 111h106v-737h193v-127h-555v127h221v571q-85 -40 -221 -53z" />
<glyph unicode="&#x2082;" horiz-adv-x="782" d="M53 516q127 174 320 174q137 0 224 -72t87 -198q0 -59 -17 -106t-65.5 -105t-114 -116t-184.5 -154h414v-129h-637v108q264 209 359.5 311t95.5 185q0 67 -50.5 106t-122.5 39q-61 0 -111.5 -30.5t-84.5 -82.5z" />
<glyph unicode="&#x2083;" horiz-adv-x="792" d="M53 -16l131 51q61 -111 213 -111q80 0 126 39t46 100q0 57 -39.5 89t-111.5 32h-113v127h107q51 0 94 31t43 92t-49 93t-121 32q-134 0 -201 -98l-110 67q113 162 321 162q131 0 216 -62.5t85 -174.5q0 -131 -104 -189q47 -17 78 -53.5t42 -74t11 -79.5q0 -118 -90 -191 t-230 -73q-246 0 -344 191z" />
<glyph unicode="&#x2084;" horiz-adv-x="790" d="M47 6v117q74 129 122.5 278t51.5 273h139q-3 -123 -48.5 -268.5t-116.5 -272.5h286v346h137v-346h130v-127h-130v-196h-139v196h-432z" />
<glyph unicode="&#x2085;" horiz-adv-x="778" d="M53 -37l121 66q62 -105 209 -105q77 0 129.5 42.5t52.5 121.5q0 77 -50 121.5t-140 44.5q-116 0 -187 -84l-82 39l27 465h531v-131h-410q-2 -41 -21 -219q75 49 179 49q135 0 218 -77t83 -208q0 -55 -19 -105.5t-57 -94t-104.5 -69.5t-151.5 -26q-220 0 -328 170z" />
<glyph unicode="&#x2086;" horiz-adv-x="788" d="M74 127q0 292 282 547h201q-102 -75 -184 -170.5t-121 -188.5q37 34 92.5 52t99.5 18q129 0 213 -79.5t84 -209.5q0 -134 -92 -218.5t-239 -84.5q-155 0 -245.5 87.5t-90.5 246.5zM219 92q0 -76 50.5 -123t138.5 -47q90 0 139 47t49 125q0 77 -49 123.5t-139 46.5 q-88 0 -138.5 -47t-50.5 -125z" />
<glyph unicode="&#x2087;" horiz-adv-x="710" d="M31 543v131h663v-113q-59 -73 -112.5 -150t-114.5 -180.5t-100 -214t-43 -206.5h-154q5 80 33 170.5t61.5 161t87.5 157t86 132t82 112.5h-489z" />
<glyph unicode="&#x2088;" horiz-adv-x="815" d="M74 49q0 152 147 221q-115 56 -115 189q0 110 83 170.5t219 60.5q137 0 219 -60.5t82 -170.5q0 -123 -119 -187q72 -35 111.5 -93.5t39.5 -129.5q0 -121 -92 -188.5t-241 -67.5q-150 0 -242 67t-92 189zM217 59q0 -71 54 -107t137 -36q81 0 134.5 35t53.5 106 q0 75 -53.5 113.5t-134.5 38.5q-82 0 -136.5 -38t-54.5 -112zM250 451q0 -61 45 -93t111 -32q68 0 114.5 32t46.5 93q0 58 -46 87t-113 29q-68 0 -113 -29t-45 -87z" />
<glyph unicode="&#x2089;" horiz-adv-x="788" d="M47 385q0 135 92 220t240 85q155 0 245.5 -87.5t90.5 -246.5q0 -288 -281 -546h-201q103 76 186 170t118 184q-36 -32 -91 -48t-100 -16q-131 0 -215 78t-84 207zM193 387q0 -77 48.5 -122.5t137.5 -45.5t140.5 47t51.5 123q0 78 -51.5 125t-140.5 47t-137.5 -47 t-48.5 -127z" />
<glyph unicode="&#x20ac;" horiz-adv-x="1474" d="M82 496v106h151q-4 23 -4 80q0 53 4 78h-151v106h166q50 238 216 380.5t408 142.5q164 0 296.5 -71t222.5 -204l-150 -104q-126 202 -364 202q-162 0 -274 -92.5t-152 -253.5h540v-106h-559q-4 -50 -4 -78q0 -34 4 -80h559v-106h-538q40 -161 151.5 -253.5t272.5 -92.5 q236 0 362 206l156 -98q-87 -135 -220 -209t-303 -74q-241 0 -407.5 142t-216.5 379h-166z" />
<glyph unicode="&#x2113;" horiz-adv-x="985" d="M68 465q84 35 200 113v385q0 54 3.5 97.5t13.5 95.5t31 91t52.5 72.5t81.5 51.5t115 18q136 0 208.5 -83t72.5 -212q0 -150 -115 -308.5t-297 -285.5v-181q0 -93 41.5 -141.5t122.5 -48.5q65 0 112.5 35t77.5 82l117 -99q-20 -30 -45.5 -56.5t-64 -54.5t-93 -44.5 t-116.5 -16.5q-157 0 -237.5 88t-80.5 252v82q-70 -49 -139 -75zM434 694q113 97 182.5 202t69.5 202q0 64 -30 102.5t-89 38.5q-133 0 -133 -186v-359z" />
<glyph unicode="&#x2116;" horiz-adv-x="2531" d="M55 59l92 99q37 -43 89 -43q72 0 98 78t26 241v930h148l627 -1059q-19 415 -19 592q0 128 11 214.5t44 148.5q68 129 211 129q127 0 197 -86l-92 -99q-33 45 -88 45q-37 0 -62 -21t-38 -65t-18 -99t-5 -136v-928h-148l-626 1059q16 -419 16 -594q0 -129 -10.5 -215 t-42.5 -146q-68 -129 -211 -129q-128 0 -199 84zM1548 696q0 197 124 323t308 126t309.5 -126t125.5 -323q0 -196 -125 -320t-310 -124q-184 0 -308 124t-124 320zM1575 0v121h811v-121h-811zM1704 696q0 -133 75 -219t201 -86t200.5 85.5t74.5 219.5t-74.5 221t-200.5 87 t-201 -87t-75 -221z" />
<glyph unicode="&#x2117;" horiz-adv-x="1601" d="M80 682q0 146 57.5 279.5t154 229.5t230 153t279.5 57q117 0 226.5 -36.5t198 -103t155 -154.5t103 -198t36.5 -227q0 -116 -36.5 -226t-103 -198.5t-155 -155t-198.5 -103t-226 -36.5q-146 0 -279.5 57t-230 153.5t-154 230t-57.5 278.5zM190 682q0 -166 81.5 -306.5 t222.5 -222t307 -81.5q165 0 305 81.5t221.5 222t81.5 306.5t-81.5 306.5t-221.5 222t-305 81.5t-306 -81.5t-223 -222t-82 -306.5zM541 285v784h342q124 0 199 -68.5t75 -177.5q0 -107 -71.5 -177.5t-202.5 -70.5h-205v-290h-137zM678 686h182q77 0 117.5 35t40.5 100 q0 64 -41.5 98.5t-116.5 34.5h-182v-268z" />
<glyph unicode="&#x2122;" horiz-adv-x="1437" d="M90 1264v100h498v-100h-197v-476h-108v476h-193zM684 788v576h160l155 -467l158 467h156v-576h-105v455l-153 -455h-115l-152 455v-455h-104z" />
<glyph unicode="&#x212e;" horiz-adv-x="1275" d="M104 559q0 122 39 229.5t108.5 186t172.5 123.5t225 45q243 0 394 -163t153 -421h-854v-383q128 -125 307 -125q133 0 232 61t176 193l73 -45q-98 -153 -207.5 -219t-273.5 -66q-162 0 -287.5 78t-191.5 210.5t-66 295.5zM342 635h616v307q-136 127 -311 127t-305 -127 v-307z" />
<glyph unicode="&#x2139;" horiz-adv-x="1880" d="M82 682q0 174 68 333t183 274t274 183t333 68t333 -68t274 -183t183 -274t68 -333t-68 -333t-183 -274t-274 -183t-333 -68t-333 68t-274 183t-183 274t-68 333zM678 303q0 -111 72.5 -172t197.5 -61q151 0 289 77l-39 84q-69 -38 -139 -38q-66 0 -106 34.5t-40 104.5 q0 59 33 172l107 356h-250l-70 -270q-55 -211 -55 -287zM836 985h194q69 0 117.5 49t48.5 121q0 71 -47 117.5t-123 46.5q-145 0 -168 -184q-11 -93 -22 -150z" />
<glyph unicode="&#x2153;" horiz-adv-x="1945" d="M117 1253q198 38 276 111h107v-737h192v-129h-555v129h221v569q-91 -37 -221 -53zM406 0l985 1364h135l-983 -1364h-137zM1176 174l131 51q60 -110 213 -110q80 0 126 39t46 100q0 57 -40 89t-112 32h-113v127h109q50 0 92.5 31t42.5 92t-49 93t-121 32q-133 0 -201 -99 l-110 68q113 162 319 162q132 0 217.5 -63t85.5 -175q0 -132 -104 -188q47 -17 78 -53.5t42 -74t11 -79.5q0 -118 -89.5 -191t-229.5 -73q-247 0 -344 190z" />
<glyph unicode="&#x2154;" horiz-adv-x="1945" d="M88 1206q125 174 320 174q137 0 224 -71.5t87 -196.5q0 -48 -12.5 -88.5t-36 -79t-73 -88t-106.5 -99t-153 -126.5h414v-131h-637v108q263 209 358.5 310.5t95.5 185.5q0 67 -50.5 106t-121.5 39q-60 0 -111 -30t-85 -80zM426 0l985 1364h135l-983 -1364h-137zM1196 174 l131 51q60 -110 213 -110q80 0 126 39t46 100q0 57 -39.5 89t-111.5 32h-113v127h108q50 0 93 31t43 92t-49 93t-121 32q-134 0 -201 -99l-111 68q113 162 320 162q132 0 217.5 -63t85.5 -175q0 -132 -104 -188q47 -17 78 -53.5t42 -74t11 -79.5q0 -118 -90 -191t-230 -73 q-247 0 -344 190z" />
<glyph unicode="&#x2155;" horiz-adv-x="1945" d="M111 1253q198 38 276 111h107v-737h192v-129h-555v129h221v569q-91 -37 -221 -53zM399 0l985 1364h136l-983 -1364h-138zM1182 154l121 65q61 -104 208 -104q77 0 130 42.5t53 121.5q0 77 -51.5 121t-141.5 44q-113 0 -184 -84l-82 39l27 465h528v-131h-408 q-2 -40 -10 -114.5t-10 -104.5q75 49 178 49q135 0 217 -76.5t82 -207.5q0 -55 -18.5 -105.5t-56.5 -94t-104 -69.5t-151 -26q-219 0 -327 170z" />
<glyph unicode="&#x2156;" horiz-adv-x="1945" d="M84 1206q125 174 319 174q137 0 224.5 -71.5t87.5 -196.5q0 -48 -12.5 -88.5t-36 -79t-73 -88t-106.5 -99t-153 -126.5h414v-131h-637v108q263 209 358.5 310.5t95.5 185.5q0 67 -50.5 106t-121.5 39q-60 0 -111 -30t-85 -80zM422 0l985 1364h135l-983 -1364h-137z M1204 154l121 65q61 -104 209 -104q77 0 129.5 42.5t52.5 121.5q0 77 -51 121t-141 44q-114 0 -185 -84l-82 39l27 465h528v-131h-407q-2 -40 -10 -113.5t-11 -105.5q75 49 179 49q135 0 217 -76.5t82 -207.5q0 -55 -18.5 -105.5t-56.5 -94t-104 -69.5t-151 -26 q-220 0 -328 170z" />
<glyph unicode="&#x2157;" horiz-adv-x="1945" d="M78 674l131 51q62 -111 213 -111q80 0 126 39t46 101q0 57 -40 88.5t-112 31.5h-112v127h106q51 0 94 31.5t43 91.5q0 62 -49 93.5t-121 31.5q-133 0 -200 -98l-111 70q114 159 320 159q132 0 217.5 -62.5t85.5 -174.5q0 -130 -105 -189q69 -26 100 -82.5t31 -123.5 q0 -117 -89.5 -191t-229.5 -74q-246 0 -344 191zM420 0l985 1364h135l-983 -1364h-137zM1202 154l121 65q61 -104 209 -104q77 0 129.5 42.5t52.5 121.5q0 77 -51 121t-141 44q-114 0 -185 -84l-82 39l27 465h528v-131h-407q-2 -40 -10 -113.5t-11 -105.5q75 49 179 49 q135 0 217 -76.5t82 -207.5q0 -55 -18.5 -105.5t-56.5 -94t-104 -69.5t-151 -26q-220 0 -328 170z" />
<glyph unicode="&#x2158;" horiz-adv-x="1945" d="M70 696v117q74 127 122.5 276.5t51.5 274.5h139q-3 -124 -49 -268.5t-117 -272.5h287v344h137v-344h129v-127h-129v-198h-139v198h-432zM424 0l985 1364h135l-983 -1364h-137zM1206 154l121 65q61 -104 209 -104q77 0 129.5 42.5t52.5 121.5q0 77 -51 121t-141 44 q-114 0 -185 -84l-81 39l26 465h529v-131h-408q-2 -40 -10 -113.5t-11 -105.5q75 49 179 49q135 0 217 -76.5t82 -207.5q0 -55 -18.5 -105.5t-56.5 -94t-104 -69.5t-151 -26q-220 0 -328 170z" />
<glyph unicode="&#x2159;" horiz-adv-x="1945" d="M127 1253q198 38 276 111h107v-737h192v-129h-555v129h222v569q-91 -37 -222 -53zM416 0l985 1364h135l-983 -1364h-137zM1180 317q0 295 282 547h201q-103 -76 -184.5 -170.5t-120.5 -187.5q37 34 91.5 51.5t98.5 17.5q131 0 215 -79t84 -209q0 -134 -92 -218.5 t-239 -84.5q-155 0 -245.5 87t-90.5 246zM1325 283q0 -76 50 -123t138 -47q89 0 139 47t50 125q0 77 -50 123.5t-139 46.5q-88 0 -138 -47t-50 -125z" />
<glyph unicode="&#x215a;" horiz-adv-x="1945" d="M92 653l121 68q61 -107 209 -107q77 0 129.5 43t52.5 123q0 77 -50 120.5t-140 43.5q-118 0 -187 -84l-82 41l27 463h530v-129h-409q-3 -50 -21 -219q75 49 179 49q135 0 218 -77.5t83 -209.5q0 -55 -19 -105.5t-57 -94t-104.5 -69.5t-151.5 -26q-220 0 -328 170zM432 0 l985 1364h135l-983 -1364h-137zM1196 317q0 294 283 547h200q-103 -76 -184.5 -170.5t-120.5 -187.5q37 34 92 51.5t99 17.5q131 0 215 -79t84 -209q0 -134 -92.5 -218.5t-239.5 -84.5q-155 0 -245.5 87t-90.5 246zM1341 283q0 -76 50.5 -123t138.5 -47q89 0 138.5 47 t49.5 125q0 77 -49.5 123.5t-138.5 46.5q-88 0 -138.5 -47t-50.5 -125z" />
<glyph unicode="&#x215b;" horiz-adv-x="1945" d="M111 1255q197 38 276 109h107v-737h192v-127h-555v127h221v571q-85 -40 -221 -53zM399 0l985 1364h136l-983 -1364h-138zM1176 240q0 152 147 221q-115 56 -115 188q0 110 83.5 171t217.5 61q137 0 219 -61t82 -171q0 -121 -116 -186q71 -35 110 -94t39 -129 q0 -122 -92 -189t-242 -67t-241.5 67t-91.5 189zM1321 250q0 -71 53 -107.5t135 -36.5q81 0 135 35.5t54 106.5q0 75 -54 113t-135 38q-82 0 -135 -37.5t-53 -111.5zM1352 641q0 -61 45.5 -93t111.5 -32q68 0 114 32t46 93q0 58 -45.5 87.5t-112.5 29.5q-68 0 -113.5 -29.5 t-45.5 -87.5z" />
<glyph unicode="&#x215c;" horiz-adv-x="1945" d="M78 674l131 51q62 -111 213 -111q80 0 126 39t46 101q0 57 -40 88.5t-112 31.5h-112v127h106q51 0 94 31.5t43 91.5q0 62 -49 93.5t-121 31.5q-133 0 -200 -98l-111 70q114 159 320 159q132 0 217.5 -62.5t85.5 -174.5q0 -130 -105 -189q69 -26 100 -82.5t31 -123.5 q0 -117 -89.5 -191t-229.5 -74q-246 0 -344 191zM420 0l985 1364h135l-983 -1364h-137zM1196 240q0 152 147 221q-114 56 -114 188q0 110 83.5 171t217.5 61q137 0 219 -61t82 -171q0 -121 -117 -186q71 -35 110.5 -94t39.5 -129q0 -122 -92 -189t-242 -67t-242 67t-92 189z M1341 250q0 -71 53.5 -107.5t135.5 -36.5q81 0 134.5 35.5t53.5 106.5q0 75 -53.5 113t-134.5 38q-82 0 -135.5 -37.5t-53.5 -111.5zM1372 641q0 -61 45.5 -93t112.5 -32q68 0 114 32t46 93q0 58 -45.5 87.5t-112.5 29.5q-68 0 -114 -29.5t-46 -87.5z" />
<glyph unicode="&#x215d;" horiz-adv-x="1945" d="M78 653l121 68q64 -107 209 -107q78 0 131 43t53 123q0 77 -51 120.5t-142 43.5q-118 0 -184 -84l-84 41l29 463h528v-129h-407q-3 -37 -10.5 -109.5t-10.5 -109.5q73 49 176 49q135 0 218 -77.5t83 -209.5q0 -43 -11 -84t-36.5 -79.5t-63 -67.5t-94.5 -46.5t-126 -17.5 q-218 0 -328 170zM416 0l985 1364h135l-983 -1364h-137zM1192 240q0 152 147 221q-114 56 -114 188q0 110 83.5 171t217.5 61q137 0 219 -61t82 -171q0 -121 -117 -186q71 -35 110.5 -94t39.5 -129q0 -122 -92 -189t-242 -67t-242 67t-92 189zM1337 250q0 -71 53.5 -107.5 t135.5 -36.5q81 0 134.5 35.5t53.5 106.5q0 75 -53.5 113t-134.5 38q-82 0 -135.5 -37.5t-53.5 -111.5zM1368 641q0 -61 45.5 -93t112.5 -32q68 0 114 32t46 93q0 58 -45.5 87.5t-112.5 29.5q-68 0 -114 -29.5t-46 -87.5z" />
<glyph unicode="&#x215e;" horiz-adv-x="1945" d="M123 1235v129h661v-113q-59 -73 -111.5 -148.5t-114.5 -180t-101 -215t-43 -207.5h-154q5 80 33.5 170.5t61.5 161t87 157.5t86 132.5t82 113.5h-487zM350 0l985 1364h135l-983 -1364h-137zM1126 240q0 151 148 221q-115 56 -115 188q0 110 83.5 171t217.5 61 q137 0 219 -61t82 -171q0 -121 -116 -186q71 -35 110 -94t39 -129q0 -122 -92 -189t-242 -67t-242 67t-92 189zM1272 250q0 -71 53 -107.5t135 -36.5q81 0 135 35.5t54 106.5q0 75 -54 113t-135 38q-82 0 -135 -37.5t-53 -111.5zM1303 641q0 -61 45.5 -93t111.5 -32 q68 0 114 32t46 93q0 58 -45.5 87.5t-112.5 29.5q-68 0 -113.5 -29.5t-45.5 -87.5z" />
<glyph unicode="&#x2190;" horiz-adv-x="1880" d="M180 682l676 676l107 -107l-494 -493h1204v-152h-1204l494 -495l-107 -107z" />
<glyph unicode="&#x2191;" horiz-adv-x="1880" d="M229 782l711 711l709 -711l-105 -106l-528 526v-1202h-152v1202l-528 -526z" />
<glyph unicode="&#x2192;" horiz-adv-x="1880" d="M207 606v152h1202l-491 493l106 107l676 -676l-676 -678l-106 107l491 495h-1202z" />
<glyph unicode="&#x2193;" horiz-adv-x="1880" d="M229 678l107 106l528 -526v1204h152v-1204l528 526l105 -106l-709 -709z" />
<glyph unicode="&#x2196;" horiz-adv-x="1880" d="M391 225v1004h1006v-148h-748l854 -852l-108 -108l-854 852v-748h-150z" />
<glyph unicode="&#x2197;" horiz-adv-x="1880" d="M377 229l854 852h-748v148h1004v-1004h-148v748l-854 -852z" />
<glyph unicode="&#x2198;" horiz-adv-x="1880" d="M377 1137l108 108l854 -854v748h148v-1004h-1004v150h748z" />
<glyph unicode="&#x2199;" horiz-adv-x="1880" d="M391 135v1004h150v-748l854 854l108 -108l-854 -852h748v-150h-1006z" />
<glyph unicode="&#x2202;" horiz-adv-x="1214" d="M74 500q0 221 135 366.5t348 145.5q93 0 178 -31.5t146 -95.5q-67 144 -200.5 271t-293.5 208l121 121q99 -54 187 -121.5t168 -156t137.5 -187t91.5 -218.5t34 -247q0 -135 -40 -245t-111 -183t-168.5 -112.5t-212.5 -39.5q-234 0 -377 147.5t-143 377.5zM262 494 q0 -155 86.5 -256t249.5 -101q164 0 256 101.5t92 255.5q0 155 -93 256.5t-255 101.5q-109 0 -186.5 -49.5t-113.5 -129t-36 -179.5z" />
<glyph unicode="&#x220f;" horiz-adv-x="1247" d="M82 1221v143h1083v-143h-143v-1221h-143v1221h-510v-1221h-144v1221h-143z" />
<glyph unicode="&#x2211;" horiz-adv-x="1155" d="M74 0v49l618 633l-618 633v49h985v-143h-699l529 -539l-529 -541h699v-141h-985z" />
<glyph unicode="&#x2212;" d="M106 545v155h975v-155h-975z" />
<glyph unicode="&#x2217;" horiz-adv-x="1204" d="M80 449q0 61 55 92q22 13 53 22t77.5 19t74.5 18q93 25 203 82q-105 55 -203 82q-28 8 -74 18t-77.5 19t-53.5 22q-55 30 -55 92q0 31 16 60q36 55 94 55q31 0 56 -14q20 -11 41 -31t55.5 -57.5t56.5 -59.5q74 -74 172 -135q-3 114 -28 217q-7 26 -21 71.5t-22 77 t-8 56.5q0 50 31 80.5t79 30.5t79.5 -30.5t31.5 -80.5q0 -25 -8 -56.5t-22 -77t-21 -71.5q-25 -99 -31 -217q98 59 174 135q19 19 53 56t56.5 58.5t43.5 33.5q25 14 56 14q58 0 94 -55q16 -29 16 -60q0 -62 -55 -92q-22 -13 -54 -22.5t-80 -20t-71 -16.5q-94 -25 -205 -82 q119 -61 205 -82q34 -9 83 -20t75.5 -19t46.5 -20q55 -31 55 -92q0 -31 -16 -60q-36 -55 -94 -55q-31 0 -56 14q-20 11 -41 31t-55.5 57.5t-56.5 59.5q-68 68 -174 135q6 -112 31 -217q8 -30 23 -77.5t21.5 -74.5t6.5 -51q0 -51 -31.5 -82t-79.5 -31t-79 30.5t-31 82.5 q0 24 6.5 51t21.5 74.5t23 77.5q25 99 28 217q-109 -72 -172 -135q-18 -18 -52.5 -55.5t-57.5 -59.5t-43 -33q-25 -14 -56 -14q-58 0 -94 55q-16 29 -16 60z" />
<glyph unicode="&#x221a;" d="M25 672l127 63l270 -551l651 1332l129 -64l-766 -1563h-24z" />
<glyph unicode="&#x221e;" horiz-adv-x="1605" d="M92 563q0 138 98 236t236 98q137 0 231 -94l146 -146l143 146q94 94 232 94q139 0 237 -98t98 -236q0 -140 -98 -238t-237 -98q-135 0 -232 97l-143 143l-146 -143q-97 -97 -231 -97q-138 0 -236 98.5t-98 237.5zM231 563q0 -81 57.5 -138.5t137.5 -57.5q33 0 64 11 t62.5 36t51.5 43t55 55.5t48 50.5l-138 135q-60 60 -143 60q-80 0 -137.5 -58t-57.5 -137zM899 563l137 -137q62 -59 142 -59q82 0 139 57t57 139q0 80 -57.5 137.5t-138.5 57.5q-33 0 -64 -11t-62.5 -36t-51.5 -43.5t-54 -55t-47 -49.5z" />
<glyph unicode="&#x222b;" horiz-adv-x="636" d="M49 -176l86 92q36 -45 84 -45q84 0 84 123q0 75 -55 616q-51 510 -51 619q0 123 56 189.5t157 66.5q108 0 184 -80l-86 -92q-39 45 -84 45q-84 0 -84 -123q0 -80 55 -617q51 -510 51 -620q0 -123 -56 -188.5t-157 -65.5q-108 0 -184 80z" />
<glyph unicode="&#x2248;" d="M78 389q26 36 51.5 63.5t61.5 57.5t80 46.5t91 16.5q36 0 76 -9.5t70.5 -21t93.5 -38.5q83 -37 133 -52.5t99 -15.5q112 0 217 101l65 -66q-131 -184 -282 -184q-36 0 -76 9.5t-70.5 21t-93.5 38.5q-83 37 -133 52.5t-99 15.5q-110 0 -217 -100zM78 778q27 36 52 62.5 t61 57t80 47t91 16.5q36 0 77 -10t69 -21t94 -39q87 -38 135.5 -54t96.5 -16q114 0 217 103l65 -68q-133 -182 -282 -182q-36 0 -76 9.5t-70.5 21t-93.5 38.5q-62 26 -91 37t-68.5 21t-72.5 10q-111 0 -217 -102z" />
<glyph unicode="&#x2260;" d="M51 326v147h451l61 184h-512v150h561l117 348h123l-115 -348h402v-150h-453l-61 -184h514v-147h-561l-117 -346h-123l117 346h-404z" />
<glyph unicode="&#x2264;" d="M106 0v150h975v-150h-975zM123 774l831 520l78 -131l-637 -389l637 -389l-78 -131z" />
<glyph unicode="&#x2265;" d="M104 0v150h975v-150h-975zM154 385l637 389l-637 389l77 131l834 -520l-834 -520z" />
<glyph unicode="&#x229b;" horiz-adv-x="1880" d="M82 682q0 174 68 333t183 274t274 183t333 68t333 -68t274 -183t183 -274t68 -333t-68 -333t-183 -274t-274 -183t-333 -68t-333 68t-274 183t-183 274t-68 333zM184 682q0 -153 60 -293t161.5 -241.5t241.5 -161.5t293 -60t293 60t241.5 161.5t161.5 241.5t60 293 t-60 293t-161.5 241.5t-241.5 161.5t-293 60t-293 -60t-241.5 -161.5t-161.5 -241.5t-60 -293zM418 449q0 61 55 92q22 13 53 22t77.5 19t74.5 18q93 25 203 82q-105 55 -203 82q-28 8 -74 18t-77.5 19t-53.5 22q-55 30 -55 92q0 31 16 60q36 55 94 55q31 0 56 -14 q20 -11 41 -31t55.5 -57.5t56.5 -59.5q74 -74 172 -135q-3 114 -28 217q-7 27 -21.5 72t-22.5 77t-8 56q0 50 31.5 80.5t79.5 30.5t79.5 -30.5t31.5 -80.5q0 -24 -8 -56t-22.5 -77t-21.5 -72q-24 -94 -30 -217q98 59 174 135q19 19 53 56t56.5 58.5t43.5 33.5q25 14 56 14 q58 0 94 -55q16 -29 16 -60q0 -62 -55 -92q-22 -13 -54 -22.5t-80 -20t-71 -16.5q-94 -25 -205 -82q119 -61 205 -82q34 -9 83 -20t75.5 -19t46.5 -20q55 -31 55 -92q0 -31 -16 -60q-36 -55 -94 -55q-31 0 -56 14q-20 11 -41 31t-55.5 57.5t-56.5 59.5q-68 68 -174 135 q6 -117 30 -217q8 -31 23 -77.5t22 -74t7 -51.5q0 -51 -31.5 -82t-79.5 -31t-79.5 31t-31.5 82q0 24 7 51.5t22 74t23 77.5q25 99 28 217q-109 -72 -172 -135q-18 -18 -52.5 -55.5t-57.5 -59.5t-43 -33q-25 -14 -56 -14q-58 0 -94 55q-16 29 -16 60z" />
<glyph unicode="&#x25a0;" horiz-adv-x="1568" d="M102 0v1364h1364v-1364h-1364z" />
<glyph unicode="&#x25a1;" horiz-adv-x="1568" d="M102 0v1364h1364v-1364h-1364zM205 102h1159v1160h-1159v-1160z" />
<glyph unicode="&#x25b2;" horiz-adv-x="1089" d="M66 0l479 1475l479 -1475h-958z" />
<glyph unicode="&#x25b6;" horiz-adv-x="960" d="M143 -41v1446l723 -723z" />
<glyph unicode="&#x25b7;" horiz-adv-x="960" d="M143 -41v1446l723 -723zM233 176l506 506l-506 506v-1012z" />
<glyph unicode="&#x25ba;" horiz-adv-x="1699" d="M143 203v958l1475 -479z" />
<glyph unicode="&#x25bb;" horiz-adv-x="1699" d="M143 203v958l1475 -479zM225 315l1131 367l-1131 367v-734z" />
<glyph unicode="&#x25bc;" horiz-adv-x="1089" d="M66 1364h958l-479 -1475z" />
<glyph unicode="&#x25c0;" horiz-adv-x="960" d="M94 682l723 723v-1446z" />
<glyph unicode="&#x25c1;" horiz-adv-x="960" d="M94 682l723 723v-1446zM221 682l506 -506v1012z" />
<glyph unicode="&#x25c4;" horiz-adv-x="1699" d="M82 682l1474 479v-958z" />
<glyph unicode="&#x25c5;" horiz-adv-x="1699" d="M82 682l1474 479v-958zM344 682l1131 -367v734z" />
<glyph unicode="&#x25ca;" horiz-adv-x="1247" d="M80 682l522 780h25l522 -780l-522 -780h-25zM250 682l364 -545l363 545l-363 543z" />
<glyph unicode="&#x25cb;" horiz-adv-x="1568" d="M61 682q0 196 97 362.5t263.5 263.5t362.5 97t362.5 -97t263.5 -263.5t97 -362.5t-97 -362.5t-263.5 -263.5t-362.5 -97t-362.5 97t-263.5 263.5t-97 362.5zM164 682q0 -168 83 -311t226 -226.5t311 -83.5t311 83.5t226.5 226.5t83.5 311t-83.5 311t-226.5 226.5 t-311 83.5t-311 -83.5t-226 -226.5t-83 -311z" />
<glyph unicode="&#x25cf;" horiz-adv-x="1568" d="M61 682q0 196 97 362.5t263.5 263.5t362.5 97t362.5 -97t263.5 -263.5t97 -362.5t-97 -362.5t-263.5 -263.5t-362.5 -97t-362.5 97t-263.5 263.5t-97 362.5z" />
<glyph unicode="&#x25fc;" horiz-adv-x="1064" d="M0 0v1065h1065v-1065h-1065z" />
<glyph unicode="&#x2605;" horiz-adv-x="1732" d="M66 889h610l190 581l191 -581h610l-493 -359l188 -583l-496 358l-495 -358l188 583z" />
<glyph unicode="&#x2606;" horiz-adv-x="1732" d="M66 889h610l190 581l191 -581h610l-493 -359l188 -583l-496 358l-495 -358l188 583zM866 346l434 -315l-165 512l432 313h-533l-168 514v-1024z" />
<glyph unicode="&#x271a;" horiz-adv-x="1568" d="M102 455v454h455v455h455v-455h454v-454h-454v-455h-455v455h-455z" />
<glyph unicode="&#x2765;" horiz-adv-x="1130" d="M0 672v20q116 0 276 316q7 14 28 56.5t32 63t30 53t38 57.5t40 46q105 105 250 105q146 0 250.5 -104.5t104.5 -250.5t-104 -248t-251 -102v-6q147 0 251 -101t104 -247t-104.5 -250.5t-250.5 -104.5q-145 0 -250 105q-13 13 -25.5 28.5t-22 27.5t-22.5 33.5t-19.5 32 t-20.5 37.5t-18 36t-20 41.5t-20 39.5q-160 316 -276 316z" />
<glyph unicode="&#x3008;" horiz-adv-x="608" d="M39 674v16l389 758l133 -68l-358 -698l358 -698l-133 -68z" />
<glyph unicode="&#x3009;" horiz-adv-x="608" d="M47 -16l359 698l-359 698l133 68l389 -758v-16l-389 -758z" />
<glyph unicode="&#x300a;" horiz-adv-x="956" d="M39 674v16l389 758l133 -68l-358 -698l358 -698l-133 -68zM387 674v16l389 758l133 -68l-358 -698l358 -698l-133 -68z" />
<glyph unicode="&#x300b;" horiz-adv-x="956" d="M47 -16l359 698l-359 698l133 68l389 -758v-16l-389 -758zM395 -16l359 698l-359 698l133 68l390 -758v-16l-390 -758z" />
<glyph unicode="&#xfb06;" horiz-adv-x="1841" d="M66 203l137 88q114 -162 340 -162q116 0 184 43.5t68 126.5q0 24 -7 42.5t-16.5 32.5t-31.5 26t-40 20t-55.5 17t-64 14.5t-78.5 15.5q-70 13 -122 27.5t-103.5 38.5t-83.5 55.5t-52 78.5t-20 107q0 80 33 142t89.5 99t126.5 56t150 19q111 0 219 -43q-3 29 4 63 q5 72 33.5 138t77.5 119.5t126 85.5t171 32q132 0 208.5 -61t76.5 -183v-176h344v-152h-344v-591q0 -185 161 -185q83 0 140 45l75 -135q-93 -72 -231 -72q-196 0 -278 136q-46 71 -46 211v591h-184v152h184v166q0 57 -36.5 87t-104.5 30q-79 0 -133.5 -41t-77 -99.5 t-22.5 -128.5q0 -105 53 -184l-123 -90q-118 131 -295 131q-94 0 -159.5 -36t-65.5 -107q0 -23 8 -42t19 -32.5t33 -25.5t39.5 -19.5t50 -16t54 -13t60.5 -11.5q54 -10 90.5 -18.5t84.5 -23t79 -29.5t64.5 -39t53 -52.5t32 -68.5t12.5 -87q0 -154 -116.5 -247t-319.5 -93 q-158 0 -280 59.5t-191 168.5z" />
<glyph unicode="&#x1f4d5;" horiz-adv-x="1794" d="M123 1108q0 158 78.5 292.5t213 213t292.5 78.5v-82q-136 0 -251.5 -67.5t-183 -183t-67.5 -251.5h-82zM287 1108q0 173 123.5 296.5t296.5 123.5v-82q-139 0 -238.5 -99t-99.5 -239h-82zM451 74v1034q0 106 75 181t181 75h927v-1462h-1011q-71 0 -121.5 51t-50.5 121z M532 74q0 -37 27 -63.5t64 -26.5h938q-25 42 -25 90t25 90h-938q-37 0 -64 -26.5t-27 -63.5zM686 762q0 -159 97.5 -259t273.5 -100q187 0 329 129l-129 117q-86 -80 -188 -80q-74 0 -121 39.5t-51 108.5h498q2 14 2 49q0 163 -92 259.5t-256 96.5q-167 0 -265 -100.5 t-98 -259.5zM899 840q4 64 45.5 99.5t106.5 35.5t105 -34.5t46 -100.5h-303z" />
<glyph unicode="&#x1f4d6;" horiz-adv-x="1880" d="M160 164v1036q0 109 76.5 185.5t185.5 76.5h1036q109 0 185.5 -76.5t76.5 -185.5v-1036q0 -109 -76.5 -185.5t-185.5 -76.5h-1036q-109 0 -185.5 76.5t-76.5 185.5zM422 426q95 0 176.5 -20t135.5 -51t92.5 -68t55.5 -70.5t17 -60.5h21v700q0 34 -30.5 78t-88 88t-158 74 t-221.5 30v-700zM961 156h20q0 27 17 60.5t55.5 70.5t92.5 68t135.5 51t176.5 20v700q-98 0 -183 -20t-141 -51t-96.5 -68t-58.5 -70.5t-18 -60.5v-700z" />
<glyph unicode="&#x1f50c;" horiz-adv-x="1880" d="M82 682q0 174 68 333t183 274t274 183t333 68q211 0 395.5 -96.5t304 -264t148.5 -372.5h-248q-43 211 -211 350t-389 139q-62 0 -117 -12v-237h-346v-240h346v-250h-346v-240h346v-239q62 -10 117 -10q221 0 389 138.5t211 350.5h248q-29 -205 -148.5 -372.5t-304 -264 t-395.5 -96.5q-174 0 -333 68t-274 183t-183 274t-68 333z" />
<glyph unicode="&#x1f697;" horiz-adv-x="2605" d="M102 528q0 176 51 329.5t143 267.5t216 195.5t273 123t311 41.5q311 0 528 -152t301 -432q132 -15 240 -52t188.5 -95t125 -141.5t44.5 -184.5q0 -120 -57.5 -194t-153.5 -74h-31q-27 -86 -98 -139.5t-162 -53.5q-90 0 -162 54t-98 139h-897q-27 -86 -98 -139.5 t-162 -53.5q-90 0 -162 54t-98 139q-128 0 -185 95t-57 273zM469 950q0 -63 83.5 -84.5t274.5 -21.5h537q191 0 274.5 21.5t83.5 84.5q0 36 -20 72q-76 147 -244 233t-362 86t-362.5 -86t-244.5 -233q-20 -36 -20 -72z" />
<glyph unicode="&#x1f698;" horiz-adv-x="1970" d="M119 578q0 215 65 388t181 286t274.5 173t345.5 60t345.5 -60t274.5 -173t181 -286t65 -388q0 -120 -22.5 -204.5t-55 -129t-85.5 -84.5v-64q0 -69 -40.5 -95t-131.5 -26t-133 26t-42 95v64h-712v-64q0 -69 -41.5 -95t-132.5 -26t-131.5 26t-40.5 95v64q-53 41 -85.5 85 t-55.5 128.5t-23 204.5zM315 541q0 -61 43.5 -104.5t104.5 -43.5t104 43t43 105q0 61 -43 104t-104 43q-62 0 -105 -43t-43 -104zM358 950q0 -63 84 -84.5t275 -21.5h536q191 0 275 21.5t84 84.5q0 34 -21 72q-76 147 -244 233t-362 86t-362 -86t-244 -233q-21 -38 -21 -72z M1360 541q0 -62 43 -105t104 -43t104.5 43.5t43.5 104.5t-43 104t-105 43q-61 0 -104 -43t-43 -104z" />
<glyph horiz-adv-x="1034" d="M39 180l154 99q86 -127 239 -127q240 0 240 274v762h-398v176h590v-936q0 -217 -119.5 -335t-320.5 -118q-260 0 -385 205z" />
<glyph horiz-adv-x="1525" d="M96 682q0 200 80.5 360.5t233 253.5t352.5 93t353 -93t234 -253.5t81 -360.5q0 -163 -56 -301t-160 -234l158 -184l-139 -115l-162 197q-140 -70 -309 -70q-200 0 -352.5 93t-233 253.5t-80.5 360.5zM297 682q0 -236 125 -382t340 -146q214 0 339.5 146.5t125.5 381.5 t-125.5 380.5t-339.5 145.5q-215 0 -340 -145.5t-125 -380.5z" />
<glyph horiz-adv-x="1339" d="M92 530q0 159 58.5 285.5t171 200.5t260.5 74q238 0 379 -201v176h178v-827q0 -61 19 -88t63 -27q39 0 65 16l23 -135q-53 -20 -123 -20q-82 0 -141.5 44t-75.5 136q-129 -189 -381 -189q-153 0 -266.5 74t-171.5 198.5t-58 282.5zM281 532q0 -111 35.5 -198t112 -141 t185.5 -54q164 0 255.5 111.5t91.5 281.5q0 171 -91.5 281.5t-253.5 110.5t-248.5 -110.5t-86.5 -281.5z" />
<glyph horiz-adv-x="573" d="M162 260v1202h178v-1204q0 -67 25 -95t75 -28q58 0 90 23l39 -144q-55 -34 -151 -34q-149 0 -213 90q-43 61 -43 190z" />
<glyph horiz-adv-x="1224" d="M133 -250l88 141q133 -106 326 -106q71 0 130.5 17t107.5 52.5t75 96t27 141.5v158q-141 -199 -365 -199q-173 0 -272.5 107t-99.5 297v610h178v-569q0 -277 235 -277q140 0 232 92.5t92 239.5v514h178v-938q0 -228 -109 -348q-140 -156 -413 -156q-237 0 -410 127z" />
<glyph horiz-adv-x="1212" d="M33 0l473 1120h201l473 -1120h-191l-127 303h-522l-127 -303h-180zM399 453h406l-203 512z" />
<glyph horiz-adv-x="1181" d="M170 0v1120h510q161 0 257.5 -72.5t96.5 -199.5q0 -76 -39.5 -139.5t-115.5 -100.5q98 -40 149 -113t51 -173q0 -141 -97 -231.5t-275 -90.5h-537zM348 152h350q90 0 143.5 49t53.5 129q0 83 -52.5 133.5t-150.5 50.5h-344v-362zM348 662h320q86 0 135 44t49 113 q0 73 -50.5 109.5t-127.5 36.5h-326v-303z" />
<glyph horiz-adv-x="1189" d="M96 559q0 167 69 300t197.5 209.5t294.5 76.5q145 0 262 -60t193 -174l-143 -96q-47 83 -128.5 127.5t-181.5 44.5q-171 0 -273.5 -121.5t-102.5 -306.5q0 -184 102.5 -305t273.5 -121q100 0 181 45t131 127l143 -92q-71 -114 -188.5 -176t-268.5 -62q-250 0 -405.5 165 t-155.5 419z" />
<glyph horiz-adv-x="1277" d="M170 0v1120h459q173 0 298.5 -73t188 -198t62.5 -288t-62.5 -289t-188 -199t-298.5 -73h-459zM350 158h279q175 0 268.5 110t93.5 293t-93.5 292.5t-268.5 109.5h-279v-805z" />
<glyph horiz-adv-x="1110" d="M170 0v1120h821v-157h-641v-299h563v-150h-563v-360h662v-154h-842z" />
<glyph horiz-adv-x="1079" d="M170 0v1120h840v-157h-660v-312h561v-149h-561v-502h-180z" />
<glyph horiz-adv-x="1273" d="M96 559q0 168 69.5 301t199 209t297.5 76q145 0 261 -60t193 -174l-143 -96q-47 83 -128 127.5t-181 44.5q-174 0 -276.5 -121t-102.5 -309q0 -187 102.5 -305.5t278.5 -118.5q154 0 249.5 85.5t106.5 215.5h-354v150h520q6 -30 6 -80q0 -106 -35 -200.5t-100.5 -168.5 t-168 -117t-228.5 -43q-170 0 -299.5 76.5t-198 208.5t-68.5 299z" />
<glyph horiz-adv-x="1296" d="M170 0v1120h180v-450h596v450h180v-1120h-180v512h-596v-512h-180z" />
<glyph horiz-adv-x="520" d="M170 0v1120h180v-1120h-180z" />
<glyph horiz-adv-x="888" d="M20 152l142 90q70 -111 200 -111q191 0 191 217v772h178v-772q0 -176 -101 -274.5t-274 -98.5q-229 0 -336 177z" />
<glyph horiz-adv-x="899" d="M31 152l141 90q70 -111 201 -111q190 0 190 217v613h-325v159h503v-772q0 -176 -100.5 -274.5t-273.5 -98.5q-229 0 -336 177z" />
<glyph horiz-adv-x="1161" d="M170 0v1120h178v-590l529 590h223l-443 -479l482 -641h-221l-383 518l-187 -203v-315h-178z" />
<glyph horiz-adv-x="1019" d="M170 0v1120h178v-962h629v-158h-807z" />
<glyph horiz-adv-x="1564" d="M170 0v1120h258l358 -895l355 895h254v-1120h-172v924l-371 -924h-139l-371 922v-922h-172z" />
<glyph horiz-adv-x="1296" d="M170 0v1120h233l553 -891v891h170v-1120h-219l-569 909v-909h-168z" />
<glyph horiz-adv-x="1318" d="M96 559q0 165 67.5 297.5t197 210.5t298.5 78t298.5 -77.5t197.5 -210t68 -296.5q0 -165 -68 -297.5t-197.5 -210.5t-298.5 -78q-127 0 -233.5 45t-178 123.5t-111.5 185.5t-40 230zM285 559q0 -184 100.5 -303t273.5 -119t275 120.5t102 303.5t-102 302.5t-275 119.5 q-172 0 -273 -120t-101 -304z" />
<glyph horiz-adv-x="1130" d="M170 0v1120h506q178 0 283.5 -95.5t105.5 -256.5q0 -154 -96.5 -248t-261.5 -100q-86 -4 -127 -4h-232v-416h-178zM348 573h328q99 0 153 52.5t54 142.5q0 92 -56 142.5t-159 50.5h-320v-388z" />
<glyph horiz-adv-x="1318" d="M96 559q0 164 67.5 296.5t197 211t298.5 78.5t298.5 -78t197.5 -210.5t68 -295.5q0 -135 -48 -250.5t-135 -195.5l129 -148l-114 -98l-140 162q-118 -56 -256 -56q-127 0 -233.5 45t-178 123.5t-111.5 185.5t-40 230zM285 557q0 -184 101 -304t273 -120q75 0 146 33 l-119 139l109 94l129 -149q112 115 112 309q0 183 -102 303.5t-275 120.5q-172 0 -273 -121t-101 -305z" />
<glyph horiz-adv-x="1320" d="M96 559q0 164 67.5 296.5t197 211t298.5 78.5t298.5 -78t197.5 -210.5t68 -295.5q0 -127 -45 -238.5t-129 -193.5l131 -152l-125 -108l-142 166q-114 -60 -254 -60q-127 0 -233.5 45t-178 123.5t-111.5 185.5t-40 230zM285 559q0 -184 100.5 -303t273.5 -119t275 120.5 t102 303.5q0 182 -102 302t-275 120q-172 0 -273 -120t-101 -304z" />
<glyph horiz-adv-x="1185" d="M170 0v1120h514q180 0 283.5 -91t103.5 -243q0 -114 -60.5 -193t-172.5 -120l262 -473h-199l-239 442h-314v-442h-178zM348 594h332q97 0 153 49.5t56 134.5q0 86 -55 136.5t-154 50.5h-332v-371z" />
<glyph horiz-adv-x="1091" d="M72 213l141 94q56 -90 149.5 -135t200.5 -45q111 0 181.5 49t70.5 133q0 90 -91 132q-54 25 -213 55h-1l-1 1h-1h-1h-1h-1l-1 1h-2q-84 16 -145.5 37.5t-117 57.5t-85 93t-29.5 133q0 151 115.5 238.5t291.5 87.5q138 0 252.5 -55.5t194.5 -151.5l-127 -100 q-57 74 -141 113.5t-183 39.5q-96 0 -159.5 -37.5t-63.5 -117.5q0 -34 13.5 -59.5t33 -41.5t58 -30t71 -22t88.5 -19q65 -13 112 -25.5t100 -31.5t88.5 -43.5t66.5 -57.5t46 -78t15 -100q0 -157 -121.5 -255t-324.5 -98q-164 0 -286.5 64t-192.5 174z" />
<glyph horiz-adv-x="1075" d="M61 961v159h953v-159h-389v-961h-179v961h-385z" />
<glyph horiz-adv-x="1261" d="M156 434v686h178v-686q0 -145 80 -222t215 -77q134 0 215.5 77t81.5 222v686h180v-686q0 -219 -131 -339t-346 -120q-213 0 -343 120t-130 339z" />
<glyph horiz-adv-x="1148" d="M33 1120h196l349 -909l346 909h192l-446 -1120h-189z" />
<glyph horiz-adv-x="1662" d="M61 1120h187l237 -897l269 897h164l266 -901l233 901h189l-318 -1120h-198l-259 881l-258 -881h-200z" />
<glyph horiz-adv-x="1173" d="M29 0l446 582l-414 538h220l307 -424l309 424h213l-410 -538l443 -582h-221l-334 451l-338 -451h-221z" />
<glyph horiz-adv-x="1105" d="M20 1120h213l324 -499q44 67 153 238t169 261h206l-444 -667v-453h-180v451q-212 328 -441 669z" />
<glyph horiz-adv-x="1081" d="M88 0v143l649 818h-622v159h860v-143l-651 -819h665v-158h-901z" />
<glyph horiz-adv-x="1339" d="M92 530q0 159 58.5 285.5t171 200.5t260.5 74q238 0 379 -201v176h178v-827q0 -61 19 -88t63 -27q39 0 65 16l23 -135q-53 -20 -123 -20q-82 0 -141.5 44t-75.5 136q-129 -189 -381 -189q-153 0 -266.5 74t-171.5 198.5t-58 282.5zM281 532q0 -111 35.5 -198t112 -141 t185.5 -54q164 0 255.5 111.5t91.5 281.5q0 171 -91.5 281.5t-253.5 110.5t-248.5 -110.5t-86.5 -281.5zM512 1243q50 53 101.5 122.5t80.5 123.5l170 -27q-30 -69 -111 -148t-169 -130z" />
<glyph horiz-adv-x="1212" d="M33 0l473 1120h201l473 -1120h-191l-127 303h-522l-127 -303h-180zM399 453h406l-203 512zM506 1243q50 53 101.5 122.5t80.5 123.5l170 -27q-30 -69 -111 -148t-169 -130z" />
<glyph horiz-adv-x="1339" d="M92 530q0 159 58.5 285.5t171 200.5t260.5 74q238 0 379 -201v176h178v-827q0 -61 19 -88t63 -27q39 0 65 16l23 -135q-53 -20 -123 -20q-82 0 -141.5 44t-75.5 136q-129 -189 -381 -189q-153 0 -266.5 74t-171.5 198.5t-58 282.5zM281 532q0 -111 35.5 -198t112 -141 t185.5 -54q164 0 255.5 111.5t91.5 281.5q0 171 -91.5 281.5t-253.5 110.5t-248.5 -110.5t-86.5 -281.5zM299 1450l104 31q18 -62 75 -101t143 -39t142.5 39t74.5 101l102 -31q-15 -104 -101.5 -172t-217.5 -68q-132 0 -218 67.5t-104 172.5z" />
<glyph horiz-adv-x="1212" d="M33 0l473 1120h201l473 -1120h-191l-127 303h-522l-127 -303h-180zM283 1450l104 31q18 -62 74.5 -101t142.5 -39t142.5 39t74.5 101l103 -31q-15 -104 -101.5 -172t-218.5 -68t-217.5 67.5t-103.5 172.5zM399 453h406l-203 512z" />
<glyph horiz-adv-x="1339" d="M92 530q0 159 58.5 285.5t171 200.5t260.5 74q238 0 379 -201v176h178v-827q0 -61 19 -88t63 -27q39 0 65 16l23 -135q-53 -20 -123 -20q-82 0 -141.5 44t-75.5 136q-129 -189 -381 -189q-153 0 -266.5 74t-171.5 198.5t-58 282.5zM281 532q0 -111 35.5 -198t112 -141 t185.5 -54q164 0 255.5 111.5t91.5 281.5q0 171 -91.5 281.5t-253.5 110.5t-248.5 -110.5t-86.5 -281.5zM287 1278q163 115 260 207h139q108 -100 260 -207l-49 -86q-78 26 -153.5 70t-127.5 92q-116 -107 -278 -162z" />
<glyph horiz-adv-x="1212" d="M33 0l473 1120h201l473 -1120h-191l-127 303h-522l-127 -303h-180zM274 1278q167 118 261 207h139q108 -100 260 -207l-49 -86q-78 26 -153.5 70t-127.5 92q-116 -107 -278 -162zM399 453h406l-203 512z" />
<glyph horiz-adv-x="1339" d="M92 530q0 159 58.5 285.5t171 200.5t260.5 74q238 0 379 -201v176h178v-827q0 -61 19 -88t63 -27q39 0 65 16l23 -135q-53 -20 -123 -20q-82 0 -141.5 44t-75.5 136q-129 -189 -381 -189q-153 0 -266.5 74t-171.5 198.5t-58 282.5zM281 532q0 -111 35.5 -198t112 -141 t185.5 -54q164 0 255.5 111.5t91.5 281.5q0 171 -91.5 281.5t-253.5 110.5t-248.5 -110.5t-86.5 -281.5zM322 1223v159h155v-159h-155zM752 1223v159h153v-159h-153z" />
<glyph horiz-adv-x="1212" d="M33 0l473 1120h201l473 -1120h-191l-127 303h-522l-127 -303h-180zM311 1223v159h156v-159h-156zM399 453h406l-203 512zM741 1223v159h154v-159h-154z" />
<glyph horiz-adv-x="1869" d="M-2 0l700 1364h1055v-176h-655v-385h557v-166h-557v-461h676v-176h-871v627q-412 -61 -606 -447l-92 -180h-207zM532 651q164 114 371 144v407h-92z" />
<glyph horiz-adv-x="2058" d="M90 535q0 155 58.5 280.5t171 200t260.5 74.5q237 0 378 -201v176h179v-156q139 181 350 181q221 0 356 -152t135 -381q0 -36 -4 -68h-835q7 -164 103 -257t253 -93q187 0 315 140l121 -117q-177 -187 -440 -187q-160 0 -277 67t-180 189q-59 -119 -173.5 -187.5 t-260.5 -68.5q-229 0 -369.5 157t-140.5 403zM279 532q0 -111 35.5 -198t112 -141t185.5 -54q164 0 255 111.5t91 281.5q0 171 -91.5 281.5t-254.5 110.5q-108 0 -184.5 -53.5t-112.5 -140.5t-36 -198zM1141 625h653q-13 149 -104 230t-222 81q-138 0 -226.5 -86 t-100.5 -225z" />
<glyph horiz-adv-x="1648" d="M14 0l609 1120h909v-155h-559v-301h477v-150h-477v-360h579v-154h-757v307h-424q0 1 1 2t1 2l-166 -311h-193zM451 457h344v514h-72z" />
<glyph horiz-adv-x="1660" d="M14 0l609 1120h921v-155h-559v-301h477v-150h-477v-360h580v-154h-758v504q-173 -31 -309 -118.5t-201 -213.5l-90 -172h-193zM487 530q130 91 320 123v318h-84z" />
<glyph horiz-adv-x="1869" d="M-2 0l700 1364h1055v-176h-655v-385h557v-166h-557v-461h676v-176h-871v627q-412 -61 -606 -447l-92 -180h-207zM532 651q164 114 371 144v407h-92zM868 1501q50 53 102 123t81 123l170 -27q-30 -69 -111 -148t-170 -130z" />
<glyph horiz-adv-x="2058" d="M90 535q0 155 58.5 280.5t171 200t260.5 74.5q237 0 378 -201v176h179v-156q139 181 350 181q221 0 356 -152t135 -381q0 -36 -4 -68h-835q7 -164 103 -257t253 -93q187 0 315 140l121 -117q-177 -187 -440 -187q-160 0 -277 67t-180 189q-59 -119 -173.5 -187.5 t-260.5 -68.5q-229 0 -369.5 157t-140.5 403zM279 532q0 -111 35.5 -198t112 -141t185.5 -54q164 0 255 111.5t91 281.5q0 171 -91.5 281.5t-254.5 110.5q-108 0 -184.5 -53.5t-112.5 -140.5t-36 -198zM944 1243q50 53 101.5 122.5t80.5 123.5l170 -27q-30 -69 -111 -148 t-169 -130zM1141 625h653q-13 149 -104 230t-222 81q-138 0 -226.5 -86t-100.5 -225z" />
<glyph horiz-adv-x="1648" d="M14 0l609 1120h909v-155h-559v-301h477v-150h-477v-360h579v-154h-757v307h-424q0 1 1 2t1 2l-166 -311h-193zM451 457h344v514h-72zM766 1243q50 53 101.5 122.5t80.5 123.5l170 -27q-30 -69 -111 -148t-169 -130z" />
<glyph horiz-adv-x="1660" d="M14 0l609 1120h921v-155h-559v-301h477v-150h-477v-360h580v-154h-758v504q-173 -31 -309 -118.5t-201 -213.5l-90 -172h-193zM487 530q130 91 320 123v318h-84zM764 1243q50 53 101.5 122.5t80.5 123.5l170 -27q-30 -69 -111 -148t-169 -130z" />
<glyph horiz-adv-x="1339" d="M92 530q0 159 58.5 285.5t171 200.5t260.5 74q238 0 379 -201v176h178v-827q0 -61 19 -88t63 -27q39 0 65 16l23 -135q-53 -20 -123 -20q-82 0 -141.5 44t-75.5 136q-129 -189 -381 -189q-153 0 -266.5 74t-171.5 198.5t-58 282.5zM281 532q0 -111 35.5 -198t112 -141 t185.5 -54q164 0 255.5 111.5t91.5 281.5q0 171 -91.5 281.5t-253.5 110.5t-248.5 -110.5t-86.5 -281.5zM395 1462l170 27q63 -116 180 -246l-69 -59q-89 51 -170 130t-111 148z" />
<glyph horiz-adv-x="1212" d="M33 0l473 1120h201l473 -1120h-191l-127 303h-522l-127 -303h-180zM375 1462l170 27q63 -116 180 -246l-70 -59q-88 51 -169 130t-111 148zM399 453h406l-203 512z" />
<glyph horiz-adv-x="1339" d="M92 530q0 159 58.5 285.5t171 200.5t260.5 74q238 0 379 -201v176h178v-827q0 -61 19 -88t63 -27q39 0 65 16l23 -135q-53 -20 -123 -20q-82 0 -141.5 44t-75.5 136q-129 -189 -381 -189q-153 0 -266.5 74t-171.5 198.5t-58 282.5zM281 532q0 -111 35.5 -198t112 -141 t185.5 -54q164 0 255.5 111.5t91.5 281.5q0 171 -91.5 281.5t-253.5 110.5t-248.5 -110.5t-86.5 -281.5zM315 1245v119h615v-119h-615z" />
<glyph horiz-adv-x="1212" d="M33 0l473 1120h201l473 -1120h-191l-127 303h-522l-127 -303h-180zM297 1245v119h614v-119h-614zM399 453h406l-203 512z" />
<glyph horiz-adv-x="1339" d="M92 530q0 159 58.5 285.5t171 200.5t260.5 74q238 0 379 -201v176h178v-827q0 -61 19 -88t63 -27q39 0 65 16l23 -135q-53 -20 -123 -20q-35 0 -62 8q-59 -65 -59 -131q0 -46 28 -70t74 -24q74 0 136 69v-137q-55 -59 -164 -59q-88 0 -147.5 45.5t-59.5 128.5 q0 112 121 206q-71 50 -84 144q-129 -189 -381 -189q-153 0 -266.5 74t-171.5 198.5t-58 282.5zM281 532q0 -111 35.5 -198t112 -141t185.5 -54q164 0 255.5 111.5t91.5 281.5q0 171 -91.5 281.5t-253.5 110.5t-248.5 -110.5t-86.5 -281.5z" />
<glyph horiz-adv-x="1212" d="M33 0l473 1120h201l473 -1120q-217 -40 -217 -154q0 -31 23.5 -55t66.5 -24q72 0 127 69v-137q-20 -25 -62.5 -42t-95.5 -17q-83 0 -138 45t-55 122q0 118 154 205l-121 291h-522l-127 -303h-180zM399 453h406l-203 512z" />
<glyph horiz-adv-x="1339" d="M92 530q0 159 58.5 285.5t171 200.5t260.5 74q238 0 379 -201v176h178v-827q0 -61 19 -88t63 -27q39 0 65 16l23 -135q-53 -20 -123 -20q-82 0 -141.5 44t-75.5 136q-129 -189 -381 -189q-153 0 -266.5 74t-171.5 198.5t-58 282.5zM281 532q0 -111 35.5 -198t112 -141 t185.5 -54q164 0 255.5 111.5t91.5 281.5q0 171 -91.5 281.5t-253.5 110.5t-248.5 -110.5t-86.5 -281.5zM401 1391q0 87 63 149t154 62q92 0 155 -62t63 -149t-63 -148t-155 -61t-154.5 61t-62.5 148zM502 1391q0 -49 34 -83t82 -34t81.5 34t33.5 83q0 47 -34 81.5t-81 34.5 t-81.5 -34.5t-34.5 -81.5z" />
<glyph horiz-adv-x="1216" d="M35 0l450 1067q-42 25 -68 72.5t-26 99.5q0 86 62 146.5t153 60.5t154 -60.5t63 -146.5q0 -50 -26 -96.5t-66 -75.5l451 -1067h-191l-127 303h-522l-127 -303h-180zM401 453h406l-203 512zM492 1237q0 -50 33.5 -83.5t82.5 -33.5q48 0 81.5 34t33.5 83q0 47 -34 82 t-81 35q-49 0 -82.5 -34.5t-33.5 -82.5z" />
<glyph horiz-adv-x="1339" d="M92 530q0 159 58.5 285.5t171 200.5t260.5 74q238 0 379 -201v176h178v-827q0 -61 19 -88t63 -27q39 0 65 16l23 -135q-53 -20 -123 -20q-82 0 -141.5 44t-75.5 136q-129 -189 -381 -189q-153 0 -266.5 74t-171.5 198.5t-58 282.5zM281 532q0 -111 35.5 -198t112 -141 t185.5 -54q164 0 255.5 111.5t91.5 281.5q0 171 -91.5 281.5t-253.5 110.5t-248.5 -110.5t-86.5 -281.5zM401 1337q0 87 63 149t154 62q92 0 155 -62t63 -149t-63 -148t-155 -61t-154.5 61t-62.5 148zM481 1642q50 53 102 123t81 123l170 -26q-30 -69 -111.5 -148.5 t-169.5 -130.5zM502 1337q0 -49 34 -82.5t82 -33.5t81.5 33.5t33.5 82.5q0 47 -34 82t-81 35t-81.5 -35t-34.5 -82z" />
<glyph horiz-adv-x="1216" d="M35 0l450 1067q-42 25 -68 72.5t-26 99.5q0 86 62 146.5t153 60.5t154 -60.5t63 -146.5q0 -50 -26 -96.5t-66 -75.5l451 -1067h-191l-127 303h-522l-127 -303h-180zM401 453h406l-203 512zM477 1546q50 53 101.5 122.5t80.5 123.5l170 -27q-30 -69 -111 -148t-169 -130z M492 1237q0 -50 33.5 -83.5t82.5 -33.5q48 0 81.5 34t33.5 83q0 47 -34 82t-81 35q-49 0 -82.5 -34.5t-33.5 -82.5z" />
<glyph horiz-adv-x="1339" d="M92 530q0 159 58.5 285.5t171 200.5t260.5 74q238 0 379 -201v176h178v-827q0 -61 19 -88t63 -27q39 0 65 16l23 -135q-53 -20 -123 -20q-82 0 -141.5 44t-75.5 136q-129 -189 -381 -189q-153 0 -266.5 74t-171.5 198.5t-58 282.5zM281 532q0 -111 35.5 -198t112 -141 t185.5 -54q164 0 255.5 111.5t91.5 281.5q0 171 -91.5 281.5t-253.5 110.5t-248.5 -110.5t-86.5 -281.5zM283 1270q30 78 82 124t114 46q48 0 137.5 -39t128.5 -39q72 0 134 76l71 -47q-30 -78 -82 -124t-114 -46q-49 0 -138.5 38.5t-126.5 38.5q-74 0 -135 -75z" />
<glyph horiz-adv-x="1212" d="M33 0l473 1120h201l473 -1120h-191l-127 303h-522l-127 -303h-180zM270 1270q30 78 82.5 124t114.5 46q47 0 137 -39t129 -39q71 0 133 76l72 -47q-30 -78 -82.5 -124t-114.5 -46q-49 0 -138 38.5t-126 38.5q-74 0 -135 -75zM399 453h406l-203 512z" />
<glyph horiz-adv-x="1189" d="M96 559q0 167 69 300t197.5 209.5t294.5 76.5q145 0 262 -60t193 -174l-143 -96q-47 83 -128.5 127.5t-181.5 44.5q-171 0 -273.5 -121.5t-102.5 -306.5q0 -184 102.5 -305t273.5 -121q100 0 181 45t131 127l143 -92q-71 -114 -188.5 -176t-268.5 -62q-250 0 -405.5 165 t-155.5 419zM559 1239q96 122 152 250l170 -27q-33 -71 -101.5 -147t-150.5 -131z" />
<glyph horiz-adv-x="1189" d="M96 559q0 167 69 300t197.5 209.5t294.5 76.5q145 0 262 -60t193 -174l-143 -96q-47 83 -128.5 127.5t-181.5 44.5q-171 0 -273.5 -121.5t-102.5 -306.5q0 -184 102.5 -305t273.5 -121q100 0 181 45t131 127l143 -92q-71 -114 -188.5 -176t-268.5 -62q-250 0 -405.5 165 t-155.5 419zM315 1403l52 86q159 -54 278 -160q119 106 281 160l49 -86q-139 -96 -260 -207h-140q-109 104 -260 207z" />
<glyph horiz-adv-x="1196" d="M98 559q0 167 69 300t197.5 209.5t294.5 76.5q145 0 262 -60t193 -174l-143 -96q-47 83 -128 127.5t-181 44.5q-171 0 -274 -122t-103 -306t103 -305t274 -121q99 0 180 45t131 127l143 -92q-65 -104 -168 -165t-235 -71q80 -64 80 -151q0 -76 -59.5 -123t-147.5 -47 q-100 0 -156 49v123q57 -57 131 -57q43 0 72 24t29 64q0 65 -72 121q-223 23 -357.5 183.5t-134.5 395.5z" />
<glyph horiz-adv-x="1189" d="M96 559q0 167 69 300t197.5 209.5t294.5 76.5q145 0 262 -60t193 -174l-143 -96q-47 83 -128.5 127.5t-181.5 44.5q-171 0 -273.5 -121.5t-102.5 -306.5q0 -184 102.5 -305t273.5 -121q100 0 181 45t131 127l143 -92q-71 -114 -188.5 -176t-268.5 -62q-250 0 -405.5 165 t-155.5 419zM565 1225v157h160v-157h-160z" />
<glyph horiz-adv-x="1189" d="M96 559q0 167 69 300t197.5 209.5t294.5 76.5q145 0 262 -60t193 -174l-143 -96q-47 83 -128.5 127.5t-181.5 44.5q-171 0 -273.5 -121.5t-102.5 -306.5q0 -184 102.5 -305t273.5 -121q100 0 181 45t131 127l143 -92q-71 -114 -188.5 -176t-268.5 -62q-250 0 -405.5 165 t-155.5 419zM311 1278q163 115 260 207h140q108 -100 260 -207l-49 -86q-78 26 -153.5 70t-127.5 92q-52 -48 -127 -92t-152 -70z" />
<glyph horiz-adv-x="1277" d="M170 0v1120h459q173 0 298.5 -73t188 -198t62.5 -288t-62.5 -289t-188 -199t-298.5 -73h-459zM297 1403l51 86q76 -26 151 -69.5t128 -90.5q53 48 128 91.5t152 68.5l49 -86q-139 -96 -260 -207h-139q-109 104 -260 207zM350 158h279q175 0 268.5 110t93.5 293 t-93.5 292.5t-268.5 109.5h-279v-805z" />
<glyph horiz-adv-x="1277" d="M41 494v133h129v493h459q173 0 298.5 -73t188 -198t62.5 -288t-62.5 -289t-188 -199t-298.5 -73h-459v494h-129zM350 158h279q175 0 268.5 110t93.5 293t-93.5 292.5t-268.5 109.5h-279v-336h289v-133h-289v-336z" />
<glyph horiz-adv-x="1110" d="M170 0v1120h821v-157h-641v-299h563v-150h-563v-360h662v-154h-842zM444 1243q50 53 102 123t81 123l170 -27q-30 -69 -111 -148t-170 -130z" />
<glyph horiz-adv-x="1110" d="M170 0v1120h821v-157h-641v-299h563v-150h-563v-360h662v-154h-842zM264 1450l105 31q18 -62 74.5 -101t142.5 -39t142.5 39t74.5 101l102 -31q-15 -104 -101.5 -172t-217.5 -68q-132 0 -218 67.5t-104 172.5z" />
<glyph horiz-adv-x="1110" d="M170 0v1120h821v-157h-641v-299h563v-150h-563v-360h662v-154h-842zM256 1403l51 86q76 -26 151 -69.5t128 -90.5q53 48 128 91.5t152 68.5l49 -86q-139 -96 -260 -207h-139q-109 104 -260 207z" />
<glyph horiz-adv-x="1110" d="M170 0v1120h821v-157h-641v-299h563v-150h-563v-360h662v-154h-842zM266 1278q163 115 260 207h140q108 -100 260 -207l-49 -86q-78 26 -153.5 70t-127.5 92q-52 -48 -127 -92t-152 -70z" />
<glyph horiz-adv-x="1110" d="M170 0v1120h821v-157h-641v-299h563v-150h-563v-360h662v-154h-842zM297 1223v159h156v-159h-156zM727 1223v159h154v-159h-154z" />
<glyph horiz-adv-x="1110" d="M170 0v1120h821v-157h-641v-299h563v-150h-563v-360h662v-154h-842zM508 1225v157h160v-157h-160z" />
<glyph horiz-adv-x="1110" d="M170 0v1120h821v-157h-641v-299h563v-150h-563v-360h662v-154h-842zM371 1462l170 27q63 -116 180 -246l-70 -59q-88 51 -169 130t-111 148z" />
<glyph horiz-adv-x="1110" d="M170 0v1120h821v-157h-641v-299h563v-150h-563v-360h662v-154h-842zM289 1245v119h614v-119h-614z" />
<glyph horiz-adv-x="1110" d="M170 0v1120h821v-157h-641v-299h563v-150h-563v-360h662v-154h-170q-68 -65 -68 -139q0 -46 28.5 -70t74.5 -24q73 0 135 69v-137q-55 -59 -164 -59q-88 0 -147.5 45.5t-59.5 128.5q0 105 96 186h-567z" />
<glyph horiz-adv-x="1280" d="M41 494v133h129v493h461q262 0 404.5 -153.5t142.5 -407.5q0 -253 -142.5 -406t-404.5 -153h-461v494h-129zM350 158h279q171 0 266.5 105.5t95.5 295.5t-95.5 296t-266.5 106h-279v-334h289v-133h-289v-336z" />
<glyph horiz-adv-x="1273" d="M96 559q0 168 69.5 301t199 209t297.5 76q145 0 261 -60t193 -174l-143 -96q-47 83 -128 127.5t-181 44.5q-174 0 -276.5 -121t-102.5 -309q0 -187 102.5 -305.5t278.5 -118.5q154 0 249.5 85.5t106.5 215.5h-354v150h520q6 -30 6 -80q0 -106 -35 -200.5t-100.5 -168.5 t-168 -117t-228.5 -43q-170 0 -299.5 76.5t-198 208.5t-68.5 299zM330 1450l104 31q18 -62 74.5 -101t142.5 -39t142.5 39t74.5 101l103 -31q-15 -104 -101.5 -172t-218.5 -68t-217.5 67.5t-103.5 172.5z" />
<glyph horiz-adv-x="1273" d="M98 559q0 168 69.5 301t199 209t297.5 76q145 0 261 -60t193 -174l-143 -96q-47 83 -128 127.5t-181 44.5q-174 0 -276.5 -121t-102.5 -309q0 -187 102.5 -305.5t278.5 -118.5q154 0 249.5 85.5t106.5 215.5h-354v150h520q6 -30 6 -80q0 -106 -35 -200.5t-100.5 -168.5 t-168 -117t-228.5 -43q-170 0 -299.5 76.5t-198 208.5t-68.5 299zM463 -354q95 125 145 250l170 -25q-30 -70 -98.5 -147.5t-147.5 -133.5z" />
<glyph horiz-adv-x="1273" d="M96 559q0 168 69.5 301t199 209t297.5 76q145 0 261 -60t193 -174l-143 -96q-47 83 -128 127.5t-181 44.5q-174 0 -276.5 -121t-102.5 -309q0 -187 102.5 -305.5t278.5 -118.5q154 0 249.5 85.5t106.5 215.5h-354v150h520q6 -30 6 -80q0 -106 -35 -200.5t-100.5 -168.5 t-168 -117t-228.5 -43q-170 0 -299.5 76.5t-198 208.5t-68.5 299zM578 1225v157h159v-157h-159z" />
<glyph horiz-adv-x="1273" d="M96 559q0 168 69.5 301t199 209t297.5 76q145 0 261 -60t193 -174l-143 -96q-47 83 -128 127.5t-181 44.5q-174 0 -276.5 -121t-102.5 -309q0 -187 102.5 -305.5t278.5 -118.5q154 0 249.5 85.5t106.5 215.5h-354v150h520q6 -30 6 -80q0 -106 -35 -200.5t-100.5 -168.5 t-168 -117t-228.5 -43q-170 0 -299.5 76.5t-198 208.5t-68.5 299zM319 1278q167 118 261 207h139q108 -100 260 -207l-49 -86q-78 26 -153.5 70t-127.5 92q-116 -107 -278 -162z" />
<glyph horiz-adv-x="1296" d="M66 858v113h104v149h178v-149h596v149h182v-149h103v-113h-103v-858h-182v512h-596v-512h-178v858h-104zM348 670h596v188h-596v-188z" />
<glyph horiz-adv-x="1296" d="M170 0v1120h180v-450h596v450h180v-1120h-180v512h-596v-512h-180zM317 1278q167 118 261 207h139q108 -100 260 -207l-49 -86q-78 26 -153.5 70t-127.5 92q-116 -107 -278 -162z" />
<glyph horiz-adv-x="520" d="M154 1243q50 53 101.5 122.5t80.5 123.5l170 -27q-30 -69 -111 -148t-170 -130zM170 0v1120h180v-1120h-180z" />
<glyph horiz-adv-x="520" d="M-63 1450l104 31q18 -62 74.5 -101t142.5 -39t142.5 39t74.5 101l103 -31q-15 -104 -101.5 -172t-218.5 -68t-217.5 67.5t-103.5 172.5zM170 0v1120h180v-1120h-180z" />
<glyph horiz-adv-x="520" d="M-72 1278q163 115 260 207h140q108 -100 260 -207l-49 -86q-78 26 -153.5 70t-127.5 92q-116 -107 -278 -162zM170 0v1120h180v-1120h-180z" />
<glyph horiz-adv-x="520" d="M6 1223v159h156v-159h-156zM170 0v1120h180v-1120h-180zM358 1223v159h156v-159h-156z" />
<glyph horiz-adv-x="520" d="M170 0v1120h180v-1120h-180zM180 1225v157h160v-157h-160z" />
<glyph horiz-adv-x="520" d="M16 1462l170 27q61 -113 181 -246l-70 -59q-89 51 -170 130t-111 148zM170 0v1120h180v-1120h-180z" />
<glyph horiz-adv-x="520" d="M-47 1245v119h614v-119h-614zM170 0v1120h180v-1120h-180z" />
<glyph horiz-adv-x="518" d="M39 -188q0 55 34.5 105t96.5 83v1120h178v-1120q-29 -5 -57.5 -15t-58.5 -26.5t-49 -43t-19 -58.5q0 -40 27.5 -63t70.5 -23q76 0 131 63v-137q-55 -55 -151 -55q-85 0 -144 48t-59 122z" />
<glyph horiz-adv-x="520" d="M-74 1270q30 78 82.5 124t114.5 46q47 0 137 -39t129 -39q71 0 133 76l72 -47q-30 -78 -82.5 -124t-114.5 -46q-49 0 -138 38.5t-126 38.5q-74 0 -135 -75zM170 0v1120h180v-1120h-180z" />
<glyph horiz-adv-x="1034" d="M39 180l154 99q86 -127 239 -127q240 0 240 274v762h-398v176h590v-936q0 -217 -119.5 -335t-320.5 -118q-260 0 -385 205zM240 1536q163 115 260 207h139q108 -100 260 -207l-49 -86q-78 26 -153.5 70t-127.5 92q-116 -107 -278 -162z" />
<glyph horiz-adv-x="888" d="M20 152l142 90q70 -111 200 -111q191 0 191 217v772h178v-772q0 -176 -101 -274.5t-274 -98.5q-229 0 -336 177zM305 1278q163 115 260 207h140q108 -100 260 -207l-50 -86q-163 54 -280 162q-52 -48 -127 -92t-152 -70z" />
<glyph horiz-adv-x="899" d="M31 152l141 90q70 -111 201 -111q190 0 190 217v613h-325v159h503v-772q0 -176 -100.5 -274.5t-273.5 -98.5q-229 0 -336 177zM160 1278q163 115 260 207h139q108 -100 260 -207l-49 -86q-78 26 -153.5 70t-127.5 92q-116 -107 -278 -162z" />
<glyph horiz-adv-x="1159" d="M172 0v1120h178v-590l529 590h223l-443 -479l482 -641h-221l-383 518l-187 -203v-315h-178zM436 -354q97 127 146 250l170 -25q-30 -70 -98.5 -147.5t-147.5 -133.5z" />
<glyph horiz-adv-x="573" d="M147 1559q50 53 102 122.5t81 122.5l170 -26q-30 -69 -111.5 -148.5t-169.5 -130.5zM162 260v1202h178v-1204q0 -67 25 -95t75 -28q58 0 90 23l39 -144q-55 -34 -151 -34q-149 0 -213 90q-43 61 -43 190z" />
<glyph horiz-adv-x="1019" d="M156 1243q50 53 101.5 122.5t80.5 123.5l170 -27q-30 -69 -111 -148t-170 -130zM170 0v1120h178v-962h629v-158h-807z" />
<glyph horiz-adv-x="610" d="M162 260v1202h178v-1204q0 -67 25 -95t75 -28q58 0 90 23l39 -144q-55 -34 -151 -34q-149 0 -213 90q-43 61 -43 190zM498 1051q41 42 64.5 94t23.5 102q-1 35 -23 88t-22 92v35h182v-151q0 -97 -40 -176t-120 -152z" />
<glyph horiz-adv-x="1019" d="M170 0v1120h178v-962h629v-158h-807zM543 721q39 41 62.5 91.5t23.5 98.5q-1 34 -23 85.5t-22 88.5v35h178v-147q0 -94 -39 -170t-117 -148z" />
<glyph horiz-adv-x="573" d="M147 -354q97 127 146 250l170 -25q-30 -70 -98.5 -147.5t-147.5 -133.5zM162 260v1202h178v-1204q0 -67 25 -95t75 -28q58 0 90 23l39 -144q-55 -34 -151 -34q-149 0 -213 90q-43 61 -43 190z" />
<glyph horiz-adv-x="1024" d="M172 0v1120h178v-962h629v-158h-807zM403 -354q97 127 146 250l170 -25q-30 -70 -98.5 -147.5t-147.5 -133.5z" />
<glyph horiz-adv-x="897" d="M162 260v1202h178v-1204q0 -67 25 -95t75 -28q58 0 90 23l39 -144q-55 -34 -151 -34q-149 0 -213 90q-43 61 -43 190zM594 623q0 53 38.5 92t90.5 39t89.5 -39t37.5 -92t-37.5 -91t-89.5 -38q-53 0 -91 38t-38 91z" />
<glyph horiz-adv-x="1019" d="M170 0v1120h178v-962h629v-158h-807zM635 623q0 53 38.5 92t90.5 39t89.5 -39t37.5 -92t-37.5 -91t-89.5 -38t-90.5 38t-38.5 91z" />
<glyph horiz-adv-x="665" d="M-4 631v153l231 105v573h179v-497l233 108v-153l-233 -109v-553q0 -70 23.5 -96.5t76.5 -26.5q60 0 106 23l39 -144q-66 -32 -168 -32q-147 0 -213 88q-43 61 -43 190v477z" />
<glyph horiz-adv-x="1062" d="M16 340v143l197 88v549h178v-473l377 176v-143l-377 -178v-344h629v-158h-807v430z" />
<glyph horiz-adv-x="1296" d="M170 0v1120h233l553 -891v891h170v-1120h-219l-569 909v-909h-168zM559 1239q96 122 152 250l170 -27q-33 -71 -101.5 -147t-150.5 -131z" />
<glyph horiz-adv-x="1296" d="M170 0v1120h233l553 -891v891h170v-1120h-219l-569 909v-909h-168zM334 1403l51 86q76 -26 151 -69.5t128 -90.5q53 48 128 91.5t152 68.5l49 -86q-139 -96 -260 -207h-139q-109 104 -260 207z" />
<glyph horiz-adv-x="1300" d="M172 0v1120h234l552 -891v891h170v-1120h-219l-569 909v-909h-168zM446 -354q97 127 146 250l170 -25q-30 -70 -98.5 -147.5t-147.5 -133.5z" />
<glyph horiz-adv-x="1296" d="M170 0v1120h233l553 -891v891h170v-1120h-219l-569 909v-909h-168zM324 1270q30 78 82 124t114 46q48 0 138 -39t128 -39q72 0 134 76l71 -47q-30 -78 -82 -124t-114 -46q-49 0 -138.5 38.5t-126.5 38.5q-74 0 -135 -75z" />
<glyph horiz-adv-x="1296" d="M170 0v1120h236l550 -825v825h170v-1059q0 -181 -99.5 -279.5t-272.5 -98.5q-108 0 -185 36l68 146q52 -25 111 -25q94 0 145.5 48t54.5 118l-610 907v-913h-168z" />
<glyph horiz-adv-x="1318" d="M96 559q0 165 67.5 297.5t197 210.5t298.5 78t298.5 -77.5t197.5 -210t68 -296.5q0 -165 -68 -297.5t-197.5 -210.5t-298.5 -78q-127 0 -233.5 45t-178 123.5t-111.5 185.5t-40 230zM285 559q0 -184 100.5 -303t273.5 -119t275 120.5t102 303.5t-102 302.5t-275 119.5 q-172 0 -273 -120t-101 -304zM571 1243q50 53 102 123t81 123l170 -27q-30 -69 -111 -148t-170 -130z" />
<glyph horiz-adv-x="1318" d="M96 559q0 165 67.5 297.5t197 210.5t298.5 78t298.5 -77.5t197.5 -210t68 -296.5q0 -165 -68 -297.5t-197.5 -210.5t-298.5 -78q-127 0 -233.5 45t-178 123.5t-111.5 185.5t-40 230zM285 559q0 -184 100.5 -303t273.5 -119t275 120.5t102 303.5t-102 302.5t-275 119.5 q-172 0 -273 -120t-101 -304zM338 1450l104 31q18 -62 74.5 -101t142.5 -39t143 39t75 101l102 -31q-15 -104 -101.5 -172t-218.5 -68t-217.5 67.5t-103.5 172.5z" />
<glyph horiz-adv-x="1318" d="M96 559q0 165 67.5 297.5t197 210.5t298.5 78t298.5 -77.5t197.5 -210t68 -296.5q0 -165 -68 -297.5t-197.5 -210.5t-298.5 -78q-127 0 -233.5 45t-178 123.5t-111.5 185.5t-40 230zM285 559q0 -184 100.5 -303t273.5 -119t275 120.5t102 303.5t-102 302.5t-275 119.5 q-172 0 -273 -120t-101 -304zM328 1278q163 115 260 207h139q108 -100 260 -207l-49 -86q-78 26 -153.5 70t-127.5 92q-116 -107 -278 -162z" />
<glyph horiz-adv-x="1318" d="M96 559q0 165 67.5 297.5t197 210.5t298.5 78t298.5 -77.5t197.5 -210t68 -296.5q0 -165 -68 -297.5t-197.5 -210.5t-298.5 -78q-127 0 -233.5 45t-178 123.5t-111.5 185.5t-40 230zM285 559q0 -184 100.5 -303t273.5 -119t275 120.5t102 303.5t-102 302.5t-275 119.5 q-172 0 -273 -120t-101 -304zM367 1223v159h155v-159h-155zM797 1223v159h153v-159h-153z" />
<glyph horiz-adv-x="2123" d="M96 682q0 200 81 360.5t233.5 253.5t351.5 93q98 0 190 -25h1057v-176h-776q74 -69 121.5 -170t62.5 -215h494v-166h-488q-6 -138 -55.5 -258.5t-136.5 -202.5h799v-176h-1078q-89 -25 -190 -25q-199 0 -351.5 93t-233.5 253.5t-81 360.5zM297 682q0 -236 125 -382 t340 -146t341 146.5t126 381.5q0 237 -126 382.5t-341 145.5t-340 -145.5t-125 -382.5z" />
<glyph horiz-adv-x="1796" d="M100 557q0 163 65 289.5t194.5 200t306.5 73.5h1011v-155h-618v-301h538v-150h-538v-360h639v-154h-1032q-177 0 -306.5 73t-194.5 198t-65 286zM287 557q0 -179 100 -291t279 -112h215v811h-215q-179 0 -279 -113.5t-100 -294.5z" />
<glyph horiz-adv-x="1832" d="M96 559q0 165 67.5 297.5t197 210.5t298.5 78q91 0 177 -25h878v-157h-647q113 -116 141 -299h428v-150h-424q-9 -218 -147 -356h670v-158h-901q-86 -25 -175 -25q-127 0 -233.5 45t-178 123.5t-111.5 185.5t-40 230zM283 559q0 -183 101.5 -302.5t274.5 -119.5 t275 120.5t102 303.5t-102 303.5t-275 120.5q-115 0 -201.5 -57t-130.5 -153t-44 -216z" />
<glyph horiz-adv-x="1318" d="M96 559q0 165 67.5 297.5t197 210.5t298.5 78t298.5 -77.5t197.5 -210t68 -296.5q0 -165 -68 -297.5t-197.5 -210.5t-298.5 -78q-127 0 -233.5 45t-178 123.5t-111.5 185.5t-40 230zM285 559q0 -184 100.5 -303t273.5 -119t275 120.5t102 303.5t-102 302.5t-275 119.5 q-172 0 -273 -120t-101 -304zM434 1462l170 27q63 -116 180 -246l-69 -59q-89 51 -170 130t-111 148z" />
<glyph horiz-adv-x="1318" d="M96 559q0 165 67.5 297.5t197 210.5t298.5 78t298.5 -77.5t197.5 -210t68 -296.5q0 -165 -68 -297.5t-197.5 -210.5t-298.5 -78q-127 0 -233.5 45t-178 123.5t-111.5 185.5t-40 230zM285 559q0 -184 100.5 -303t273.5 -119t275 120.5t102 303.5t-102 302.5t-275 119.5 q-172 0 -273 -120t-101 -304zM422 1243q50 53 101.5 123t78.5 123l166 -27q-30 -69 -111 -148t-170 -130zM741 1243q50 53 102 123t81 123l163 -27q-30 -69 -110.5 -148t-167.5 -130z" />
<glyph horiz-adv-x="1318" d="M96 559q0 165 67.5 297.5t197 210.5t298.5 78t298.5 -77.5t197.5 -210t68 -296.5q0 -165 -68 -297.5t-197.5 -210.5t-298.5 -78q-127 0 -233.5 45t-178 123.5t-111.5 185.5t-40 230zM285 559q0 -184 100.5 -303t273.5 -119t275 120.5t102 303.5t-102 302.5t-275 119.5 q-172 0 -273 -120t-101 -304zM352 1245v119h615v-119h-615z" />
<glyph horiz-adv-x="1318" d="M96 559q0 164 67.5 296.5t197 211t298.5 78.5q162 0 289 -76l51 74l91 -64l-52 -73q88 -80 136.5 -196t48.5 -249q0 -165 -68 -297.5t-197.5 -210.5t-298.5 -78q-161 0 -290 74l-52 -74l-90 64l52 74q-88 80 -135.5 195.5t-47.5 250.5zM285 559q0 -184 98 -297l467 668 q-85 53 -191 53q-172 0 -273 -120t-101 -304zM467 188q82 -51 192 -51q173 0 275 120.5t102 303.5q0 180 -102 297z" />
<glyph horiz-adv-x="1318" d="M96 559q0 164 67.5 296.5t197 211t298.5 78.5q162 0 289 -76l51 74l91 -64l-52 -73q88 -80 136.5 -196t48.5 -249q0 -165 -68 -297.5t-197.5 -210.5t-298.5 -78q-161 0 -290 74l-52 -74l-90 64l52 74q-88 80 -135.5 195.5t-47.5 250.5zM285 559q0 -184 98 -297l467 668 q-85 53 -191 53q-172 0 -273 -120t-101 -304zM467 188q82 -51 192 -51q173 0 275 120.5t102 303.5q0 180 -102 297zM571 1243q50 53 102 123t81 123l170 -27q-30 -69 -111 -148t-170 -130z" />
<glyph horiz-adv-x="1318" d="M96 559q0 165 67.5 297.5t197 210.5t298.5 78t298.5 -77.5t197.5 -210t68 -296.5q0 -165 -68 -297.5t-197.5 -210.5t-298.5 -78q-127 0 -233.5 45t-178 123.5t-111.5 185.5t-40 230zM285 559q0 -184 100.5 -303t273.5 -119t275 120.5t102 303.5t-102 302.5t-275 119.5 q-172 0 -273 -120t-101 -304zM322 1270q30 78 82 124t114 46q48 0 138 -39t128 -39q72 0 134 76l71 -47q-30 -78 -82 -124t-114 -46q-49 0 -138.5 38.5t-126.5 38.5q-74 0 -135 -75z" />
<glyph horiz-adv-x="1185" d="M170 0v1120h514q180 0 283.5 -91t103.5 -243q0 -114 -60.5 -193t-172.5 -120l262 -473h-199l-239 442h-314v-442h-178zM348 594h332q97 0 153 49.5t56 134.5q0 86 -55 136.5t-154 50.5h-332v-371zM475 1243q50 53 101.5 122.5t80.5 123.5l170 -27q-30 -69 -111 -148 t-169 -130z" />
<glyph horiz-adv-x="1185" d="M170 0v1120h514q180 0 283.5 -91t103.5 -243q0 -114 -60.5 -193t-172.5 -120l262 -473h-199l-239 442h-314v-442h-178zM260 1403l51 86q76 -26 151 -69.5t128 -90.5q53 48 128 91.5t152 68.5l50 -86q-143 -98 -261 -207h-139q-109 104 -260 207zM348 594h332 q97 0 153 49.5t56 134.5q0 86 -55 136.5t-154 50.5h-332v-371z" />
<glyph horiz-adv-x="1185" d="M172 0v1120h514q180 0 283.5 -91t103.5 -243q0 -114 -60.5 -193t-172.5 -120l262 -473h-199l-239 442h-314v-442h-178zM350 594h332q97 0 153 49.5t56 134.5q0 86 -55 136.5t-154 50.5h-332v-371zM403 -354q97 127 146 250l170 -25q-30 -70 -98.5 -147.5t-147.5 -133.5z " />
<glyph horiz-adv-x="1091" d="M72 213l141 94q56 -90 149.5 -135t200.5 -45q111 0 181.5 49t70.5 133q0 90 -91 132q-54 25 -213 55h-1l-1 1h-1h-1h-1h-1l-1 1h-2q-84 16 -145.5 37.5t-117 57.5t-85 93t-29.5 133q0 151 115.5 238.5t291.5 87.5q138 0 252.5 -55.5t194.5 -151.5l-127 -100 q-57 74 -141 113.5t-183 39.5q-96 0 -159.5 -37.5t-63.5 -117.5q0 -34 13.5 -59.5t33 -41.5t58 -30t71 -22t88.5 -19q65 -13 112 -25.5t100 -31.5t88.5 -43.5t66.5 -57.5t46 -78t15 -100q0 -157 -121.5 -255t-324.5 -98q-164 0 -286.5 64t-192.5 174zM205 1278 q163 115 260 207h139q108 -100 260 -207l-49 -86q-163 54 -280 162q-52 -48 -127 -92t-152 -70z" />
<glyph horiz-adv-x="1091" d="M72 213l141 94q56 -90 149.5 -135t200.5 -45q111 0 181.5 49t70.5 133q0 90 -91 132q-54 25 -213 55h-1l-1 1h-1h-1h-1h-1l-1 1h-2q-84 16 -145.5 37.5t-117 57.5t-85 93t-29.5 133q0 151 115.5 238.5t291.5 87.5q138 0 252.5 -55.5t194.5 -151.5l-127 -100 q-57 74 -141 113.5t-183 39.5q-96 0 -159.5 -37.5t-63.5 -117.5q0 -34 13.5 -59.5t33 -41.5t58 -30t71 -22t88.5 -19q65 -13 112 -25.5t100 -31.5t88.5 -43.5t66.5 -57.5t46 -78t15 -100q0 -157 -121.5 -255t-324.5 -98q-164 0 -286.5 64t-192.5 174zM449 1239 q94 119 151 250l170 -27q-33 -71 -101.5 -147t-150.5 -131z" />
<glyph horiz-adv-x="1091" d="M72 213l141 94q56 -90 149.5 -135t200.5 -45q111 0 181.5 49t70.5 133q0 90 -91 132q-54 25 -213 55h-1l-1 1h-1h-1h-1h-1l-1 1h-2q-84 16 -145.5 37.5t-117 57.5t-85 93t-29.5 133q0 151 115.5 238.5t291.5 87.5q138 0 252.5 -55.5t194.5 -151.5l-127 -100 q-57 74 -141 113.5t-183 39.5q-96 0 -159.5 -37.5t-63.5 -117.5q0 -34 13.5 -59.5t33 -41.5t58 -30t71 -22t88.5 -19q65 -13 112 -25.5t100 -31.5t88.5 -43.5t66.5 -57.5t46 -78t15 -100q0 -157 -121.5 -255t-324.5 -98q-164 0 -286.5 64t-192.5 174zM203 1403l51 86 q159 -54 278 -160q119 106 281 160l49 -86q-139 -96 -260 -207h-139q-109 104 -260 207z" />
<glyph horiz-adv-x="1095" d="M76 213l141 94q56 -90 149.5 -135t200.5 -45q111 0 181.5 49t70.5 133q0 90 -91 132q-54 25 -213 55h-1l-1 1h-1h-1h-1h-1l-1 1h-2q-84 16 -145.5 37.5t-117 57.5t-85 93t-29.5 133q0 151 116 238.5t292 87.5q138 0 252 -55.5t194 -151.5l-127 -100q-57 74 -141 113.5 t-183 39.5q-96 0 -159.5 -37.5t-63.5 -117.5q0 -34 13.5 -59.5t33 -41.5t58 -30t71 -22t88.5 -19q65 -13 112 -25.5t100 -31.5t88.5 -43.5t66.5 -57.5t46 -78t15 -100q0 -142 -101.5 -237.5t-274.5 -110.5q80 -67 80 -154q0 -76 -59.5 -123t-147.5 -47q-100 0 -156 49v123 q57 -57 131 -57q43 0 71.5 24t28.5 64q0 64 -69 118q-147 10 -255.5 72.5t-172.5 163.5z" />
<glyph horiz-adv-x="1091" d="M72 213l141 94q56 -90 149.5 -135t200.5 -45q111 0 181.5 49t70.5 133q0 90 -91 132q-54 25 -213 55h-1l-1 1h-1h-1h-1h-1l-1 1h-2q-84 16 -145.5 37.5t-117 57.5t-85 93t-29.5 133q0 151 115.5 238.5t291.5 87.5q138 0 252.5 -55.5t194.5 -151.5l-127 -100 q-57 74 -141 113.5t-183 39.5q-96 0 -159.5 -37.5t-63.5 -117.5q0 -34 13.5 -59.5t33 -41.5t58 -30t71 -22t88.5 -19q65 -13 112 -25.5t100 -31.5t88.5 -43.5t66.5 -57.5t46 -78t15 -100q0 -157 -121.5 -255t-324.5 -98q-164 0 -286.5 64t-192.5 174zM354 -354 q97 127 146 250l170 -25q-30 -70 -98.5 -147.5t-147.5 -133.5z" />
<glyph horiz-adv-x="1075" d="M61 961v159h953v-159h-389v-961h-179v961h-385zM207 1403l51 86q76 -26 151 -69.5t128 -90.5q53 48 128 91.5t152 68.5l49 -86q-139 -96 -260 -207h-139q-109 104 -260 207z" />
<glyph horiz-adv-x="1071" d="M59 961v159h953v-159h-389v-961h-179v961h-385zM307 -354q97 127 146 250l170 -25q-30 -70 -98.5 -147.5t-147.5 -133.5z" />
<glyph horiz-adv-x="1075" d="M61 961v159h953v-159h-389v-310h221v-110h-221v-541h-179v541h-217v110h217v310h-385z" />
<glyph horiz-adv-x="1144" d="M170 0v1120h178v-151h348q166 0 269.5 -96.5t103.5 -256.5q0 -159 -104 -255.5t-269 -96.5h-348v-264h-178zM348 424h348q85 0 138 52.5t53 139.5t-53 140t-138 53h-348v-385z" />
<glyph horiz-adv-x="1263" d="M158 434v686h178v-686q0 -145 80 -222t215 -77q134 0 215.5 77t81.5 222v686h180v-686q0 -219 -131 -339t-346 -120q-213 0 -343 120t-130 339zM545 1243q50 53 101.5 122.5t80.5 123.5l170 -27q-30 -69 -111 -148t-170 -130z" />
<glyph horiz-adv-x="1263" d="M158 434v686h178v-686q0 -145 80 -222t215 -77q134 0 215.5 77t81.5 222v686h180v-686q0 -219 -131 -339t-346 -120q-213 0 -343 120t-130 339zM311 1450l105 31q18 -62 74.5 -101t142.5 -39t142.5 39t74.5 101l102 -31q-15 -104 -101.5 -172t-217.5 -68 q-132 0 -218 67.5t-104 172.5z" />
<glyph horiz-adv-x="1263" d="M158 434v686h178v-686q0 -145 80 -222t215 -77q134 0 215.5 77t81.5 222v686h180v-686q0 -219 -131 -339t-346 -120q-213 0 -343 120t-130 339zM301 1278q163 115 260 207h139q105 -97 261 -207l-50 -86q-163 54 -280 162q-52 -48 -127 -92t-152 -70z" />
<glyph horiz-adv-x="1263" d="M158 434v686h178v-686q0 -145 80 -222t215 -77q134 0 215.5 77t81.5 222v686h180v-686q0 -219 -131 -339t-346 -120q-213 0 -343 120t-130 339zM338 1223v159h156v-159h-156zM768 1223v159h154v-159h-154z" />
<glyph horiz-adv-x="1263" d="M158 434v686h178v-686q0 -145 80 -222t215 -77q134 0 215.5 77t81.5 222v686h180v-686q0 -219 -131 -339t-346 -120q-213 0 -343 120t-130 339zM393 1462l170 27q63 -116 180 -246l-69 -59q-89 51 -170 130t-111 148z" />
<glyph horiz-adv-x="1263" d="M158 434v686h178v-686q0 -145 80 -222t215 -77q134 0 215.5 77t81.5 222v686h180v-686q0 -219 -131 -339t-346 -120q-213 0 -343 120t-130 339zM387 1243q50 53 101.5 123t78.5 123l166 -27q-30 -69 -111 -148t-169 -130zM707 1243q50 53 101.5 122.5t80.5 123.5l164 -27 q-30 -69 -110.5 -148t-168.5 -130z" />
<glyph horiz-adv-x="1263" d="M158 434v686h178v-686q0 -145 80 -222t215 -77q134 0 215.5 77t81.5 222v686h180v-686q0 -219 -131 -339t-346 -120q-213 0 -343 120t-130 339zM324 1245v119h614v-119h-614z" />
<glyph horiz-adv-x="1263" d="M156 436v684h178v-684q0 -147 80 -224t215 -77t217 77.5t82 223.5v684h178v-684q0 -254 -180 -377q-142 -99 -142 -196q0 -46 28.5 -70t74.5 -24q71 0 133 73v-141q-55 -59 -162 -59q-88 0 -146.5 45t-58.5 129q0 90 80 170q-61 -11 -104 -11q-213 0 -343 120.5 t-130 340.5z" />
<glyph horiz-adv-x="1263" d="M158 434v686h178v-686q0 -145 80 -222t215 -77q134 0 215.5 77t81.5 222v686h180v-686q0 -219 -131 -339t-346 -120q-213 0 -343 120t-130 339zM414 1391q0 87 63 149t154 62t154 -62t63 -149t-62.5 -148t-154.5 -61t-154.5 61t-62.5 148zM514 1391q0 -49 34.5 -83 t82.5 -34q47 0 80.5 34t33.5 83q0 47 -33.5 81.5t-80.5 34.5t-82 -34.5t-35 -81.5z" />
<glyph horiz-adv-x="1263" d="M158 434v686h178v-686q0 -145 80 -222t215 -77q134 0 215.5 77t81.5 222v686h180v-686q0 -219 -131 -339t-346 -120q-213 0 -343 120t-130 339zM299 1270q30 78 82.5 124t114.5 46q48 0 137.5 -39t128.5 -39q71 0 133 76l72 -47q-30 -78 -82.5 -124t-114.5 -46 q-49 0 -138 38.5t-126 38.5q-74 0 -135 -75z" />
<glyph horiz-adv-x="1662" d="M61 1120h187l237 -897l269 897h164l266 -901l233 901h189l-318 -1120h-198l-259 881l-258 -881h-200zM733 1243q50 53 101.5 122.5t80.5 123.5l170 -27q-30 -69 -111 -148t-169 -130z" />
<glyph horiz-adv-x="1662" d="M61 1120h187l237 -897l269 897h164l266 -901l233 901h189l-318 -1120h-198l-259 881l-258 -881h-200zM506 1278q163 115 260 207h139q108 -100 260 -207l-49 -86q-163 54 -280 162q-52 -48 -127 -92t-152 -70z" />
<glyph horiz-adv-x="1662" d="M61 1120h187l237 -897l269 897h164l266 -901l233 901h189l-318 -1120h-198l-259 881l-258 -881h-200zM543 1223v159h155v-159h-155zM973 1223v159h153v-159h-153z" />
<glyph horiz-adv-x="1662" d="M61 1120h187l237 -897l269 897h164l266 -901l233 901h189l-318 -1120h-198l-259 881l-258 -881h-200zM592 1462l170 27q63 -116 180 -246l-70 -59q-88 51 -169 130t-111 148z" />
<glyph horiz-adv-x="1224" d="M133 -250l88 141q133 -106 326 -106q71 0 130.5 17t107.5 52.5t75 96t27 141.5v158q-141 -199 -365 -199q-173 0 -272.5 107t-99.5 297v610h178v-569q0 -277 235 -277q140 0 232 92.5t92 239.5v514h178v-938q0 -228 -109 -348q-140 -156 -413 -156q-237 0 -410 127z M516 1243q50 53 101.5 122.5t80.5 123.5l170 -27q-30 -69 -111 -148t-169 -130z" />
<glyph horiz-adv-x="1105" d="M20 1120h213l324 -499q44 67 153 238t169 261h206l-444 -667v-453h-180v451q-212 328 -441 669zM446 1243q50 53 102 123t81 123l170 -27q-30 -69 -111 -148t-170 -130z" />
<glyph horiz-adv-x="1224" d="M133 -250l88 141q133 -106 326 -106q71 0 130.5 17t107.5 52.5t75 96t27 141.5v158q-141 -199 -365 -199q-173 0 -272.5 107t-99.5 297v610h178v-569q0 -277 235 -277q140 0 232 92.5t92 239.5v514h178v-938q0 -228 -109 -348q-140 -156 -413 -156q-237 0 -410 127z M274 1278q167 118 261 207h139q108 -100 260 -207l-49 -86q-78 26 -153.5 70t-127.5 92q-116 -107 -278 -162z" />
<glyph horiz-adv-x="1105" d="M20 1120h213l324 -499q44 67 153 238t169 261h206l-444 -667v-453h-180v451q-212 328 -441 669zM219 1278q163 115 260 207h139q105 -97 261 -207l-50 -86q-163 54 -280 162q-52 -48 -127 -92t-152 -70z" />
<glyph horiz-adv-x="1224" d="M133 -250l88 141q133 -106 326 -106q71 0 130.5 17t107.5 52.5t75 96t27 141.5v158q-141 -199 -365 -199q-173 0 -272.5 107t-99.5 297v610h178v-569q0 -277 235 -277q140 0 232 92.5t92 239.5v514h178v-938q0 -228 -109 -348q-140 -156 -413 -156q-237 0 -410 127z M311 1223v159h156v-159h-156zM741 1223v159h154v-159h-154z" />
<glyph horiz-adv-x="1105" d="M20 1120h213l324 -499q44 67 153 238t169 261h206l-444 -667v-453h-180v451q-212 328 -441 669zM260 1223v159h156v-159h-156zM690 1223v159h154v-159h-154z" />
<glyph horiz-adv-x="1224" d="M133 -250l88 141q133 -106 326 -106q71 0 130.5 17t107.5 52.5t75 96t27 141.5v158q-141 -199 -365 -199q-173 0 -272.5 107t-99.5 297v610h178v-569q0 -277 235 -277q140 0 232 92.5t92 239.5v514h178v-938q0 -228 -109 -348q-140 -156 -413 -156q-237 0 -410 127z M373 1462l170 27q63 -116 180 -246l-70 -59q-88 51 -169 130t-111 148z" />
<glyph horiz-adv-x="1105" d="M20 1120h213l324 -499q44 67 153 238t169 261h206l-444 -667v-453h-180v451q-212 328 -441 669zM330 1462l170 27q63 -116 180 -246l-70 -59q-88 51 -169 130t-111 148z" />
<glyph horiz-adv-x="1081" d="M88 0v143l649 818h-622v159h860v-143l-651 -819h665v-158h-901zM453 1239q94 119 151 250l170 -27q-33 -71 -101.5 -147t-150.5 -131z" />
<glyph horiz-adv-x="1081" d="M88 0v143l649 818h-622v159h860v-143l-651 -819h665v-158h-901zM205 1403l51 86q76 -26 151 -69.5t128 -90.5q53 48 128 91.5t152 68.5l49 -86q-139 -96 -260 -207h-139q-109 104 -260 207z" />
<glyph horiz-adv-x="1081" d="M88 0v143l649 818h-622v159h860v-143l-651 -819h665v-158h-901zM457 1225v157h159v-157h-159z" />
<glyph horiz-adv-x="1269" d="M51 918v147h182v125q0 146 84 220.5t234 74.5q100 0 164 -23l-25 -147q-74 18 -129 18q-76 0 -112.5 -32t-36.5 -107v-129h250v-147h-250v-918h-179v918h-182zM858 260v1202h178v-1204q0 -67 25.5 -95t75.5 -28q58 0 90 23l39 -144q-55 -34 -152 -34q-149 0 -213 90 q-43 61 -43 190z" />
<glyph d="M240 1188q293 56 413 176h146v-1364h-193v1137q-55 -30 -153 -60t-191 -41z" />
<glyph horiz-adv-x="1224" d="M111 682q0 88 11 170t33.5 163t62.5 147.5t93.5 118t130.5 80t170 28.5q111 0 199 -41.5t143.5 -109.5t92.5 -161.5t52 -190.5t15 -204t-15 -204t-52 -190.5t-92.5 -161.5t-143.5 -109.5t-199 -41.5q-93 0 -170 28.5t-130.5 80t-93.5 118t-62.5 147.5t-33.5 163t-11 170z M307 682q0 -112 15.5 -205.5t49 -172t95 -123t145.5 -44.5q83 0 144 44.5t94.5 123t49 172t15.5 205.5t-15.5 205t-49 171t-94.5 121.5t-144 43.5q-68 0 -121 -29.5t-87 -79t-56.5 -120t-31.5 -147t-9 -165.5z" />
<glyph horiz-adv-x="792" d="M45 1188q294 56 414 176h147v-1364h-194v1139q-52 -29 -149.5 -57t-192.5 -38z" />
<glyph horiz-adv-x="1148" d="M78 1122q82 124 203.5 195.5t275.5 71.5q196 0 323.5 -114t127.5 -304q0 -93 -34 -179.5t-113.5 -183t-191 -197t-284.5 -235.5h676v-176h-955v147q204 168 326 278t212.5 210.5t126.5 176t36 151.5q0 123 -73 187t-191 64q-103 0 -184 -51.5t-130 -134.5z" />
<glyph horiz-adv-x="1175" d="M74 252l166 90q50 -97 139.5 -146t202.5 -49q137 0 212.5 67.5t75.5 182.5q0 105 -76.5 166.5t-226.5 61.5h-106v166h110q124 0 193.5 60t69.5 161q0 95 -68 150t-188 55q-212 0 -326 -164l-143 100q181 236 475 236q196 0 320 -101t124 -258q0 -106 -54.5 -183 t-150.5 -124q122 -48 184 -137.5t62 -198.5q0 -178 -132.5 -295t-354.5 -117q-357 0 -508 277z" />
<glyph d="M68 319v158q135 233 206.5 469.5t71.5 417.5h186q0 -182 -76 -422t-208 -455h483v578h189v-578h200v-168h-200v-319h-189v319h-663z" />
<glyph horiz-adv-x="1159" d="M78 236l162 96q97 -182 319 -182q141 0 225 76.5t84 211.5q0 130 -80.5 205.5t-220.5 75.5q-186 0 -293 -131l-116 55l45 721h786v-176h-629l-32 -391q120 86 284 86q197 0 326 -122t129 -317q0 -95 -33.5 -179.5t-96 -149.5t-159 -102.5t-213.5 -37.5q-335 0 -487 261z " />
<glyph horiz-adv-x="1167" d="M98 481q0 123 37 243t107 231.5t151.5 207.5t190.5 201h270q-152 -121 -295 -279.5t-201 -296.5q51 55 136 81t168 26q188 0 313 -124t125 -325q0 -208 -138 -339.5t-364 -131.5q-228 0 -364 134t-136 372zM295 442q0 -133 80.5 -214t224.5 -81q142 0 220.5 80.5 t78.5 214.5t-78.5 213.5t-220.5 79.5q-144 0 -224.5 -80t-80.5 -213z" />
<glyph horiz-adv-x="1079" d="M41 1188v176h993v-156q-65 -83 -127 -169.5t-144 -221t-142.5 -261t-106 -276.5t-51.5 -280h-207q7 129 51.5 275.5t102.5 270t137 255.5t138 217t124 170h-768z" />
<glyph horiz-adv-x="1210" d="M104 385q0 115 62 209t184 145q-194 90 -194 291q0 159 128 259t322 100q195 0 323 -100t128 -259q0 -101 -52 -174.5t-145 -116.5q123 -51 184.5 -144.5t61.5 -209.5q0 -179 -135 -294.5t-365 -115.5t-366 115.5t-136 294.5zM305 397q0 -120 79 -188t222 -68 q142 0 221.5 68.5t79.5 187.5q0 118 -76.5 185t-224.5 67t-224.5 -67t-76.5 -185zM352 1016q0 -98 67.5 -152.5t186.5 -54.5t186.5 54.5t67.5 152.5t-68 153.5t-186 55.5t-186 -55.5t-68 -153.5z" />
<glyph horiz-adv-x="1167" d="M68 918q0 209 137.5 340t363.5 131q228 0 364 -134t136 -372q0 -123 -37 -243t-107 -231.5t-151.5 -207.5t-189.5 -201h-271q153 121 295.5 279t200.5 296q-51 -55 -135 -80.5t-168 -25.5q-188 0 -313 124t-125 325zM268 922q0 -134 78.5 -213.5t220.5 -79.5 q144 0 224.5 80t80.5 213t-80.5 214t-224.5 81q-142 0 -220.5 -80.5t-78.5 -214.5z" />
<glyph horiz-adv-x="800" d="M125 602v160h551v-160h-551z" />
<glyph d="M106 604v156h975v-156h-975z" />
<glyph horiz-adv-x="1914" d="M127 604v156h1661v-156h-1661z" />
<glyph horiz-adv-x="569" d="M96 682q0 211 76.5 408.5t235.5 363.5l106 -90q-258 -287 -258 -682t258 -682l-106 -90q-312 329 -312 772z" />
<glyph horiz-adv-x="569" d="M55 0q258 287 258 682q0 392 -258 682l107 90q311 -328 311 -772q0 -447 -311 -772z" />
<glyph horiz-adv-x="667" d="M168 -20v1404h426v-141h-264v-1122h264v-141h-426z" />
<glyph horiz-adv-x="671" d="M74 -20v141h268v1122h-268v141h430v-1404h-430z" />
<glyph horiz-adv-x="790" d="M51 612v140h60q184 0 184 202v101q0 165 95 257.5t251 92.5h84v-141h-76q-190 0 -190 -205v-92q0 -221 -172 -285q172 -67 172 -285v-92q0 -205 190 -205h76v-139h-84q-156 0 -251 91.5t-95 256.5v99q0 97 -42.5 150.5t-141.5 53.5h-60z" />
<glyph horiz-adv-x="790" d="M66 -39v139h75q193 0 193 205v92q0 218 172 285q-172 64 -172 283v94q0 205 -193 205h-75v141h86q157 0 250.5 -92t93.5 -258v-101q0 -202 186 -202h57v-140h-57q-100 0 -143 -53t-43 -151v-99q0 -166 -93.5 -257t-250.5 -91h-86z" />
<glyph horiz-adv-x="1574" d="M68 682q0 146 57 279.5t153.5 229.5t230 153t279.5 57q117 0 226.5 -36.5t198 -103t155 -154.5t103 -198t36.5 -227q0 -116 -36.5 -226t-103 -198.5t-155 -155t-198.5 -103t-226 -36.5q-146 0 -279.5 57t-230 153.5t-153.5 229.5t-57 279zM178 682q0 -166 81.5 -306.5 t222 -222t306.5 -81.5q165 0 306 81.5t223 222t82 306.5t-82 306.5t-223 222t-306 81.5t-305.5 -81.5t-222.5 -222t-82 -306.5zM496 293v782h340q127 0 202.5 -66t75.5 -175q0 -80 -44 -138t-112 -84l175 -319h-150l-158 293h-192v-293h-137zM633 698h201q67 0 103 36t36 95 q0 60 -37 97t-102 37h-201v-265z" />
<glyph horiz-adv-x="1349" d="M78 559q0 122 47 232.5t127 190.5t190 127.5t232 47.5t232.5 -47.5t190.5 -127.5t127.5 -190.5t47.5 -232.5t-47.5 -232t-127.5 -190t-190.5 -127t-232.5 -47t-232 47t-190 127t-127 190t-47 232zM168 559q0 -138 68 -254.5t184.5 -184t253.5 -67.5q211 0 360.5 148 t149.5 358q0 138 -68.5 255t-186 185t-255.5 68q-137 0 -253.5 -68t-184.5 -185t-68 -255zM334 559q0 143 99.5 243.5t240.5 100.5q91 0 169.5 -45.5t125.5 -126.5l-97 -65q-70 118 -198 118q-92 0 -157.5 -66.5t-65.5 -158.5t65.5 -158.5t157.5 -66.5q60 0 112.5 31.5 t87.5 85.5l97 -64q-45 -79 -124.5 -123.5t-172.5 -44.5q-141 0 -240.5 100t-99.5 240z" />
<glyph horiz-adv-x="1349" d="M78 559q0 122 47 232.5t127 190.5t190 127.5t232 47.5t232.5 -47.5t190.5 -127.5t127.5 -190.5t47.5 -232.5t-47.5 -232t-127.5 -190t-190.5 -127t-232.5 -47t-232 47t-190 127t-127 190t-47 232zM168 559q0 -138 68 -254.5t184.5 -184t253.5 -67.5q211 0 360.5 148 t149.5 358q0 138 -68.5 255t-186 185t-255.5 68q-137 0 -253.5 -68t-184.5 -185t-68 -255zM455 231v656h286q105 0 168.5 -58.5t63.5 -150.5q0 -88 -61.5 -147.5t-170.5 -59.5h-166v-240h-120zM575 569h146q63 0 96 28.5t33 78.5q0 108 -129 108h-146v-215z" />
<glyph horiz-adv-x="774" d="M86 852q0 126 88.5 214.5t214.5 88.5q123 0 211 -88.5t88 -214.5q0 -124 -88 -211.5t-211 -87.5q-126 0 -214.5 87.5t-88.5 211.5zM129 852q0 -107 75.5 -182.5t184.5 -75.5q106 0 182 75.5t76 182.5q0 108 -76 184t-182 76q-109 0 -184.5 -75.5t-75.5 -184.5zM264 688 v332h152q48 0 79 -28.5t31 -73.5q0 -35 -17.5 -60.5t-47.5 -34.5l76 -135h-70l-66 123h-77v-123h-60zM324 862h90q21 0 35 15t14 38t-14 37.5t-35 14.5h-90v-105z" />
<glyph horiz-adv-x="1574" d="M72 678q0 146 53.5 276.5t147.5 226.5t230 152t292 56q206 0 370.5 -95t254 -253.5t89.5 -346.5q0 -174 -83 -278.5t-220 -104.5q-152 0 -211 121q-89 -125 -252 -125q-144 0 -232.5 105t-88.5 264q0 160 90 263t242 103q126 0 211 -94v80h147v-496q0 -114 105 -114 q83 0 125 70.5t42 191.5q0 166 -72.5 300.5t-207.5 213t-307 78.5q-130 0 -241.5 -47.5t-188 -128t-119.5 -189t-43 -229.5q0 -162 73.5 -297t209.5 -215t307 -80q164 0 297 80l57 -103q-155 -94 -361 -94q-205 0 -369.5 94.5t-255.5 256.5t-91 358zM578 674 q0 -102 48.5 -168t141.5 -66q94 0 145.5 66t51.5 168q0 103 -52 169t-145 66t-141.5 -65.5t-48.5 -169.5z" />
<glyph horiz-adv-x="1945" d="M100 1253q198 38 277 111h106v-866h-143v698q-85 -36 -219 -53zM365 0l985 1364h135l-983 -1364h-137zM1143 707q127 174 319 174q137 0 224.5 -72.5t87.5 -198.5q0 -59 -17 -106t-65.5 -105t-114 -116t-184.5 -154h415v-129h-639v109q265 210 360 311t95 184 q0 67 -50 106.5t-120 39.5q-61 0 -113.5 -31t-85.5 -82z" />
<glyph horiz-adv-x="1945" d="M104 1253q198 38 277 111h106v-866h-143v698q-85 -36 -219 -53zM369 0l985 1364h135l-983 -1364h-137zM1139 174l131 51q60 -110 213 -110q80 0 126 39t46 100q0 57 -40 89t-112 32h-112v127h108q50 0 92.5 31t42.5 92t-49 93t-121 32q-132 0 -200 -99l-111 68 q113 162 320 162q132 0 217.5 -63t85.5 -175q0 -131 -105 -188q47 -17 78 -53.5t42 -74t11 -79.5q0 -118 -89.5 -191t-229.5 -73q-247 0 -344 190z" />
<glyph horiz-adv-x="1945" d="M100 1253q198 38 277 111h106v-866h-143v698q-85 -36 -219 -53zM365 0l985 1364h135l-983 -1364h-137zM1120 197v116q74 129 122.5 278t51.5 273h140q-3 -123 -48.5 -268t-115.5 -272h284v346h138v-346h131v-127h-131v-197h-138v197h-434z" />
<glyph horiz-adv-x="1945" d="M100 1253q198 38 277 111h106v-866h-143v698q-85 -36 -219 -53zM365 0l985 1364h135l-983 -1364h-137zM1147 154l121 65q61 -104 209 -104q77 0 129.5 42.5t52.5 121.5q0 77 -51.5 121t-141.5 44q-113 0 -184 -84l-82 39l27 465h528v-131h-407q-2 -40 -10 -113.5 t-11 -105.5q75 49 178 49q135 0 217 -76.5t82 -207.5q0 -55 -18.5 -105.5t-56 -94t-103.5 -69.5t-151 -26q-220 0 -328 170z" />
<glyph horiz-adv-x="1945" d="M115 1253q197 38 276 111h107v-866h-144v698q-85 -36 -219 -53zM379 0l985 1364h135l-983 -1364h-137zM1143 317q0 295 282 547h201q-103 -76 -184.5 -170.5t-120.5 -187.5q37 34 91.5 51.5t98.5 17.5q131 0 215 -79t84 -209q0 -134 -92 -218.5t-239 -84.5 q-155 0 -245.5 87t-90.5 246zM1288 283q0 -76 50.5 -123t138.5 -47q89 0 138.5 47t49.5 125q0 77 -49.5 123.5t-138.5 46.5q-88 0 -138.5 -47t-50.5 -125z" />
<glyph horiz-adv-x="1945" d="M100 1253q198 38 277 111h106v-866h-143v698q-85 -36 -219 -53zM365 0l985 1364h135l-983 -1364h-137zM1141 240q0 152 147 221q-114 56 -114 188q0 110 83.5 171t217.5 61q137 0 219 -61t82 -171q0 -121 -117 -186q71 -35 110 -94t39 -129q0 -122 -91.5 -189t-241.5 -67 t-242 67t-92 189zM1286 250q0 -71 53.5 -107.5t135.5 -36.5q81 0 134.5 35.5t53.5 106.5q0 75 -53.5 113t-134.5 38q-82 0 -135.5 -37.5t-53.5 -111.5zM1317 641q0 -61 45.5 -93t112.5 -32q68 0 113.5 32t45.5 93q0 58 -45 87.5t-112 29.5q-68 0 -114 -29.5t-46 -87.5z" />
<glyph horiz-adv-x="546" d="M20 1444q200 38 277 110h106v-866h-143v698q-85 -36 -219 -53z" />
<glyph horiz-adv-x="544" d="M18 563q198 38 277 111h106v-864h-143v696q-85 -36 -219 -53z" />
<glyph horiz-adv-x="522" d="M133 682q0 53 38.5 92t90.5 39t89.5 -39t37.5 -92t-37.5 -91t-89.5 -38t-90.5 38.5t-38.5 90.5z" />
<glyph horiz-adv-x="647" d="M31 0l442 1364h145l-444 -1364h-143z" />
<glyph horiz-adv-x="468" d="M166 -98v1560h137v-1560h-137z" />
<glyph horiz-adv-x="647" d="M29 1364h143l444 -1364h-145z" />
<glyph horiz-adv-x="544" d="M170 0v303l55 645h94l56 -645v-303h-205zM170 1137v227h205v-227h-205z" />
<glyph horiz-adv-x="976" d="M66 379q-6 174 113 285t313 143v141h172v-297q-36 8 -74 8q-145 0 -237.5 -71.5t-92.5 -192.5q0 -113 73.5 -180.5t205.5 -67.5q175 0 311 127l106 -129q-197 -170 -438 -170q-125 0 -227 47t-163.5 140.5t-61.5 216.5zM469 1155v209h219v-209h-219z" />
<glyph d="M106 604v156h408v409h158v-409h409v-156h-409v-409h-158v409h-408z" />
<glyph d="M106 604v156h975v-156h-975z" />
<glyph d="M106 604v156h975v-156h-975zM467 299q0 52 37 90.5t90 38.5q52 0 89.5 -38.5t37.5 -90.5q0 -51 -37.5 -89t-89.5 -38q-53 0 -90 37.5t-37 89.5zM467 1065q0 52 37 89.5t90 37.5q52 0 89.5 -38t37.5 -89q0 -54 -37 -91.5t-90 -37.5q-54 0 -90.5 37.5t-36.5 91.5z" />
<glyph d="M106 403v158h975v-158h-975zM106 805v156h975v-156h-975z" />
<glyph d="M123 324l360 358l-360 358l110 113l361 -360l358 360l111 -113l-358 -358l358 -358l-111 -113l-358 360l-361 -360z" />
<glyph d="M227 682l576 575l106 -108l-463 -467l463 -463l-106 -108z" />
<glyph d="M279 219l464 463l-464 467l106 108l576 -575l-576 -571z" />
<glyph horiz-adv-x="1310" d="M102 559q0 163 65.5 295.5t193 211.5t294.5 79t294.5 -79t194 -211.5t66.5 -295.5t-66.5 -295t-194 -210.5t-294.5 -78.5t-294.5 78.5t-193 210.5t-65.5 295zM283 559q0 -180 99 -298t273 -118t273.5 118t99.5 298q0 179 -99.5 298.5t-273.5 119.5t-273 -119.5 t-99 -298.5z" />
<glyph horiz-adv-x="759" d="M41 944q284 58 410 176h137v-1120h-178v905q-57 -32 -155.5 -61t-191.5 -41z" />
<glyph horiz-adv-x="1128" d="M80 899q176 246 467 246q194 0 312 -102t118 -267q0 -72 -26 -138.5t-68.5 -122.5t-114 -117t-144.5 -111t-178 -115h611v-172h-946v143q29 18 87 53q91 55 136 82.5t119.5 76.5t112 79.5t86.5 75.5t72.5 81t40.5 79.5t17 87.5q0 97 -68.5 156t-178.5 59 q-100 0 -182.5 -49.5t-131.5 -126.5z" />
<glyph horiz-adv-x="1126" d="M47 -4l152 90q102 -188 350 -188q140 0 218.5 70t78.5 186q0 108 -79.5 169.5t-234.5 61.5h-98v162h105q126 0 197 59.5t71 161.5q0 98 -70 152.5t-192 54.5q-210 0 -326 -152l-137 88q178 234 465 234q191 0 316.5 -100t125.5 -261q0 -204 -207 -305 q123 -48 186.5 -137.5t63.5 -198.5q0 -179 -131.5 -296t-349.5 -117q-346 0 -504 266z" />
<glyph horiz-adv-x="1165" d="M61 74v153q124 223 200 471t79 422h180q-5 -182 -80 -426.5t-200 -455.5h487v563h178v-563h203v-164h-203v-320h-180v320h-664z" />
<glyph horiz-adv-x="1089" d="M41 -10l152 90q96 -180 323 -180q144 0 229.5 78t85.5 215q0 134 -81.5 209t-227.5 75q-186 0 -293 -129l-110 51l45 721h778v-172h-633l-33 -405q134 92 293 92q196 0 322.5 -121t126.5 -317q0 -94 -33.5 -178t-95 -148.5t-157 -102.5t-210.5 -38q-328 0 -481 260z" />
<glyph horiz-adv-x="1122" d="M74 496q0 257 154.5 491.5t428.5 417.5l121 -129q-92 -56 -186.5 -137t-177 -187t-109.5 -200q50 68 136.5 101.5t181.5 33.5q189 0 316.5 -123.5t127.5 -321.5q0 -204 -138.5 -335.5t-359.5 -131.5q-225 0 -360 138.5t-135 382.5zM262 436q0 -133 82 -213t229 -80 q146 0 227 80.5t81 214.5q0 135 -80.5 215t-227.5 80q-148 0 -229.5 -81t-81.5 -216z" />
<glyph horiz-adv-x="1093" d="M55 948v172h985v-153q-66 -86 -129 -177t-143.5 -226.5t-141 -262t-106 -274t-53.5 -273.5h-197q9 127 54 273t104.5 271t138 257.5t139 220.5t123.5 172h-774z" />
<glyph horiz-adv-x="1179" d="M92 381q0 113 62.5 208.5t191.5 149.5q-96 43 -150.5 116.5t-54.5 174.5q0 160 126 259.5t323 99.5q196 0 322 -99.5t126 -259.5q0 -101 -53.5 -174.5t-148.5 -116.5q128 -54 189.5 -149.5t61.5 -208.5q0 -179 -135.5 -292.5t-361.5 -113.5q-225 0 -361.5 113.5 t-136.5 292.5zM281 395q0 -121 81.5 -191.5t227.5 -70.5q147 0 228 70t81 192q0 121 -78.5 189.5t-230.5 68.5t-230.5 -68.5t-78.5 -189.5zM328 1016q0 -101 69.5 -157t192.5 -56t192.5 56t69.5 157q0 100 -70 157.5t-192 57.5t-192 -57.5t-70 -157.5z" />
<glyph horiz-adv-x="1128" d="M59 678q0 204 138.5 335.5t359.5 131.5q225 0 360.5 -138t135.5 -382q0 -256 -154.5 -491.5t-427.5 -418.5l-123 129q67 41 139 99t140 127t121 147.5t73 149.5q-50 -67 -137 -100.5t-180 -33.5q-189 0 -317 123.5t-128 321.5zM248 680q0 -134 79.5 -212.5t227.5 -78.5 q146 0 227.5 80t81.5 213t-82 213t-227 80q-147 0 -227 -80.5t-80 -214.5z" />
<glyph d="M100 559q0 97 17.5 182t56 160t95.5 128.5t140.5 84.5t186.5 31q126 0 222.5 -46.5t154 -129t86 -185.5t28.5 -225q0 -121 -28.5 -224t-86 -185t-154 -128.5t-222.5 -46.5q-103 0 -186.5 31t-140.5 84.5t-95.5 128t-56 159.5t-17.5 181zM289 559q0 -424 307 -424 q303 0 303 424t-303 424q-307 0 -307 -424z" />
<glyph d="M186 944q284 58 410 176h137v-966h324v-154h-842v154h340v751q-58 -32 -156.5 -62t-189.5 -40z" />
<glyph d="M244 944q282 58 409 176h138v-1120h-179v905q-58 -32 -156.5 -62t-189.5 -40z" />
<glyph d="M109 899q176 246 469 246q193 0 311.5 -102t118.5 -267q0 -72 -26 -138.5t-68.5 -122.5t-114 -117t-145.5 -111.5t-179 -114.5h610v-172h-946v143q30 18 89 54q71 43 106 64.5t96.5 60.5t93 61.5t79.5 58.5t72.5 61.5t55 59.5t45 63.5t25 63.5t10.5 68q0 97 -69 156 t-179 59q-100 0 -181 -49t-132 -127z" />
<glyph d="M78 -4l151 90q102 -188 351 -188q140 0 218.5 70t78.5 186q0 108 -79.5 169.5t-234.5 61.5h-98v162h104q126 0 197.5 59.5t71.5 161.5q0 98 -70.5 152.5t-192.5 54.5q-209 0 -325 -152l-137 88q178 234 465 234q191 0 316.5 -100t125.5 -261q0 -204 -207 -305 q123 -48 186.5 -137.5t63.5 -198.5q0 -179 -131.5 -296t-349.5 -117q-346 0 -504 266z" />
<glyph d="M74 74v153q124 222 199.5 470.5t78.5 422.5h178q-3 -181 -79 -425.5t-201 -456.5h489v563h179v-563h200v-164h-200v-320h-181v320h-663z" />
<glyph d="M88 -10l152 90q96 -180 323 -180q144 0 231 78.5t87 214.5q0 133 -82.5 208.5t-227.5 75.5q-185 0 -292 -129l-113 51l47 721h776v-172h-631l-32 -405q131 92 290 92q196 0 322.5 -121t126.5 -317q0 -94 -33.5 -178t-95 -148.5t-157 -102.5t-210.5 -38q-324 0 -481 260z " />
<glyph d="M106 496q0 256 154.5 490.5t427.5 418.5l123 -129q-149 -89 -292 -237.5t-183 -286.5q51 68 137.5 101.5t181.5 33.5q189 0 317 -123.5t128 -321.5q0 -204 -138.5 -335.5t-359.5 -131.5q-225 0 -360.5 138.5t-135.5 382.5zM293 436q0 -133 82 -213t229 -80t227 80.5 t80 214.5q0 135 -79.5 215t-227.5 80q-147 0 -229 -81t-82 -216z" />
<glyph d="M102 948v172h985v-153q-66 -86 -129 -177t-143.5 -226.5t-141 -262t-106 -274t-53.5 -273.5h-197q9 127 54.5 273.5t104.5 271t138 257t139.5 220.5t123.5 172h-775z" />
<glyph d="M96 381q0 113 62.5 208.5t191.5 149.5q-96 43 -150.5 116.5t-54.5 174.5q0 160 126 259.5t323 99.5q196 0 322 -99.5t126 -259.5q0 -101 -53.5 -174.5t-148.5 -116.5q128 -54 190 -149.5t62 -208.5q0 -179 -136 -292.5t-362 -113.5q-225 0 -361.5 113.5t-136.5 292.5z M285 395q0 -121 81.5 -191.5t227.5 -70.5q147 0 228 70t81 192q0 121 -78.5 189.5t-230.5 68.5t-230.5 -68.5t-78.5 -189.5zM332 1016q0 -101 69.5 -157t192.5 -56t192.5 56t69.5 157q0 100 -70 157.5t-192 57.5t-192 -57.5t-70 -157.5z" />
<glyph d="M88 678q0 204 138.5 335.5t361.5 131.5q225 0 360 -138t135 -382q0 -257 -154.5 -492t-428.5 -418l-121 129q67 41 139 99t140 127t121 147.5t73 149.5q-51 -67 -137.5 -100.5t-179.5 -33.5q-189 0 -318 123.5t-129 321.5zM279 680q0 -133 79.5 -212t225.5 -79 q148 0 229.5 80t81.5 213t-82 213t-229 80q-146 0 -225.5 -80.5t-79.5 -214.5z" />
<glyph d="M129 217l137 82q45 -72 119.5 -114.5t163.5 -51.5v373q-80 13 -141 34.5t-115.5 57t-83.5 91.5t-29 130q0 137 103.5 220t265.5 91v132h100v-134q221 -23 365 -190l-127 -88q-83 109 -238 135v-336q92 -18 156.5 -41t119 -59t82 -91t27.5 -130q0 -140 -103.5 -233 t-281.5 -105v-150h-100v150q-144 7 -250.5 68t-169.5 159zM348 831q0 -69 49 -105t152 -58v323q-87 -3 -144 -43t-57 -117zM649 129q99 9 158 59t59 127q0 73 -53.5 109t-163.5 61v-356z" />
<glyph d="M133 467v121h133q-31 67 -45 113t-14 100q0 151 113 247.5t292 96.5q265 0 412 -219l-143 -84q-94 143 -265 143q-103 0 -168 -50.5t-65 -143.5q0 -78 61 -203h355v-121h-318q19 -52 19 -94q0 -114 -94 -211q68 26 129 26q59 0 153 -27.5t131 -27.5q47 0 78 25.5t53 79.5 l133 -74q-84 -187 -239 -187q-56 0 -173.5 36t-183.5 36q-131 0 -268 -74l-65 123q190 104 190 244q0 60 -29 125h-182z" />
<glyph d="M27 408v94h120q-2 20 -2 59q0 35 2 53h-120v95h131q42 199 187 317.5t353 118.5q292 0 453 -234l-145 -94q-108 168 -306 168q-133 0 -226 -75t-126 -201h440v-95h-456q-2 -18 -2 -53q0 -41 2 -59h456v-94h-438q36 -127 129.5 -201t222.5 -74q191 0 306 170l143 -92 q-72 -112 -188.5 -174t-266.5 -62q-208 0 -352 119t-184 314h-133z" />
<glyph d="M119 1120h200l281 -510l277 510h194l-307 -528h229v-103h-286l-25 -38v-89h311v-102h-311v-260h-172v260h-315v102h315v87l-27 40h-288v103h231q-44 76 -95.5 165t-115 197.5t-96.5 165.5z" />
<glyph d="M141 522q0 215 119.5 362t319.5 167v161h104v-159q225 -20 356 -209l-127 -103q-87 137 -229 154v-748q142 19 231 150l132 -94q-136 -192 -363 -211v-160h-104v162q-200 19 -319.5 165.5t-119.5 362.5zM322 522q0 -147 69.5 -248.5t188.5 -123.5v743 q-120 -23 -189 -124.5t-69 -246.5z" />
<glyph horiz-adv-x="1241" d="M86 299q0 214 264 319q-131 124 -131 256q0 128 93 199.5t239 71.5q145 0 236.5 -71t91.5 -191q0 -98 -69 -172t-206 -133l279 -265q72 96 108 213l148 -43q-55 -165 -152 -274l217 -209h-225l-107 100q-162 -125 -370 -125q-181 0 -298.5 86.5t-117.5 237.5zM260 315 q0 -89 72 -142.5t190 -53.5q144 0 248 86l-326 313q-184 -75 -184 -203zM381 874q0 -52 31 -96t94 -104q104 42 161.5 89.5t57.5 113.5q0 64 -50 100.5t-122 36.5q-73 0 -122.5 -37t-49.5 -103z" />
<glyph horiz-adv-x="1341" d="M61 858q0 118 78.5 198.5t198.5 80.5q123 0 200.5 -80t77.5 -199q0 -123 -77.5 -203t-200.5 -80q-121 0 -199 80.5t-78 202.5zM180 858q0 -72 43.5 -121t114.5 -49q72 0 116 49t44 121q0 70 -44.5 117t-115.5 47t-114.5 -47t-43.5 -117zM291 0l627 1120h133l-625 -1120 h-135zM727 266q0 119 78 199t199 80q122 0 200 -79.5t78 -199.5q0 -122 -78 -202t-200 -80q-121 0 -199 80t-78 202zM846 266q0 -72 44 -120t114 -48q73 0 116 47.5t43 120.5q0 70 -44 118t-115 48q-69 0 -113.5 -48.5t-44.5 -117.5z" />
<glyph horiz-adv-x="1945" d="M61 858q0 118 78.5 198.5t198.5 80.5q123 0 200.5 -80t77.5 -199q0 -123 -77.5 -203t-200.5 -80q-121 0 -199 80.5t-78 202.5zM180 858q0 -73 43 -121.5t115 -48.5t116 49t44 121q0 70 -44.5 117t-115.5 47q-72 0 -115 -46.5t-43 -117.5zM291 0l627 1120h133l-625 -1120 h-135zM727 266q0 119 78 199t199 80q122 0 200 -79.5t78 -199.5q0 -122 -78 -202t-200 -80q-121 0 -199 80t-78 202zM846 266q0 -72 44 -120t114 -48q73 0 116 47.5t43 120.5q0 70 -44 118t-115 48q-69 0 -113.5 -48.5t-44.5 -117.5zM1341 266q0 120 79 199.5t202 79.5 q121 0 197.5 -79.5t76.5 -199.5q0 -123 -76 -202.5t-198 -79.5q-124 0 -202.5 80t-78.5 202zM1460 266q0 -72 45 -120t117 -48q71 0 114.5 48t43.5 120q0 69 -44.5 117.5t-113.5 48.5q-72 0 -117 -48.5t-45 -117.5z" />
<glyph horiz-adv-x="544" d="M178 0v209h187v-209h-187zM178 874v246h187v-246l-50 -536h-90z" />
<glyph horiz-adv-x="559" d="M186 0v244l47 536h91l49 -536v-244h-187zM186 911v209h187v-209h-187z" />
<glyph horiz-adv-x="915" d="M61 997q179 148 381 148q170 0 281 -93.5t111 -248.5q0 -146 -102.5 -240t-260.5 -112v-115h-160v256q31 -8 72 -8q119 0 194.5 57.5t75.5 155.5q0 86 -61.5 140t-167.5 54q-133 0 -264 -106zM287 0v199h213v-199h-213z" />
<glyph horiz-adv-x="917" d="M84 315q0 147 102.5 241t262.5 114v114h157v-256q-44 9 -71 9q-118 0 -194.5 -58t-76.5 -155q0 -88 62 -142.5t168 -54.5q133 0 264 109l98 -113q-175 -148 -379 -148q-170 0 -281.5 92.5t-111.5 247.5zM420 920v200h213v-200h-213z" />
<glyph horiz-adv-x="497" d="M160 0v1065h178v-1065h-178zM168 1217v147h160v-147h-160z" />
<glyph horiz-adv-x="825" d="M86 432q0 79 9 143t31.5 122.5t59 98t94 62.5t132.5 23q77 0 135 -23t94.5 -62.5t59 -98t31.5 -122.5t9 -143t-9 -142.5t-31.5 -122t-59 -98t-94.5 -62.5t-135 -23q-75 0 -132.5 23t-94 62.5t-59 98t-31.5 122.5t-9 142zM229 432q0 -78 8 -133.5t28 -100t56.5 -67 t90.5 -22.5q45 0 78 15.5t53.5 42t33 68t17 88.5t4.5 109q0 78 -8 134t-28 101.5t-57 68t-93 22.5q-43 0 -75.5 -15.5t-52.5 -42.5t-32.5 -69t-17.5 -89.5t-5 -109.5z" />
<glyph horiz-adv-x="667" d="M66 754q199 41 276 110h107v-737h192v-127h-555v127h221v571q-85 -40 -221 -53z" />
<glyph horiz-adv-x="579" d="M23 1253q197 38 276 111h107v-866h-144v698q-85 -36 -219 -53z" />
<glyph horiz-adv-x="782" d="M53 707q127 174 320 174q137 0 224 -72.5t87 -198.5q0 -59 -17 -106t-65.5 -105t-114 -116t-184.5 -154h414v-129h-637v109q265 210 360 311t95 184q0 67 -51 106.5t-122 39.5q-61 0 -111.5 -30.5t-84.5 -82.5z" />
<glyph horiz-adv-x="798" d="M55 174l131 51q60 -110 213 -110q80 0 126 39t46 100q0 57 -39.5 89t-111.5 32h-113v127h107q51 0 94 31t43 92t-49 93t-121 32q-133 0 -201 -99l-110 68q113 162 321 162q131 0 216 -63t85 -175q0 -130 -104 -188q47 -17 78 -53.5t42 -74t11 -79.5q0 -118 -90 -191 t-230 -73q-247 0 -344 190z" />
<glyph horiz-adv-x="790" d="M47 197v116q74 129 122.5 278t51.5 273h139q-3 -123 -48.5 -268t-116.5 -272h286v346h137v-346h130v-127h-130v-197h-139v197h-432z" />
<glyph horiz-adv-x="780" d="M53 154l121 65q61 -104 209 -104q77 0 129.5 42.5t52.5 121.5q0 77 -50 121t-140 44q-116 0 -187 -84l-82 39l27 465h531v-131h-410q-2 -41 -21 -219q75 49 179 49q135 0 218 -76.5t83 -207.5q0 -55 -19 -105.5t-57 -94t-104.5 -69.5t-151.5 -26q-220 0 -328 170z" />
<glyph horiz-adv-x="792" d="M76 317q0 292 282 547h201q-103 -76 -184.5 -170.5t-120.5 -187.5q36 34 91.5 51.5t100.5 17.5q130 0 213.5 -79t83.5 -209q0 -134 -92 -218.5t-239 -84.5q-155 0 -245.5 87t-90.5 246zM221 283q0 -76 50.5 -123t138.5 -47q90 0 139 47t49 125q0 77 -49 123.5t-139 46.5 q-88 0 -138.5 -47t-50.5 -125z" />
<glyph horiz-adv-x="718" d="M35 733v131h663v-112q-59 -73 -112.5 -150t-114.5 -181t-100 -214.5t-43 -206.5h-154q5 80 33 170.5t61.5 161t87.5 157t86 132t82 112.5h-489z" />
<glyph horiz-adv-x="823" d="M78 240q0 152 147 221q-114 56 -114 188q0 110 83 171t218 61q137 0 219 -61t82 -171q0 -122 -119 -186q72 -35 111.5 -93.5t39.5 -129.5q0 -121 -92 -188.5t-241 -67.5q-150 0 -242 67t-92 189zM221 250q0 -71 54.5 -107.5t136.5 -36.5q81 0 134.5 35.5t53.5 106.5 q0 75 -53.5 113t-134.5 38q-83 0 -137 -37.5t-54 -111.5zM254 641q0 -61 45 -93t111 -32q68 0 114.5 32t46.5 93q0 58 -46 87.5t-113 29.5q-68 0 -113 -29.5t-45 -87.5z" />
<glyph horiz-adv-x="792" d="M49 575q0 135 92.5 220.5t239.5 85.5q155 0 245.5 -87.5t90.5 -246.5q0 -289 -281 -547h-200q103 75 185.5 169.5t117.5 184.5q-36 -32 -90.5 -47.5t-100.5 -15.5q-131 0 -215 77.5t-84 206.5zM195 578q0 -77 48.5 -122.5t137.5 -45.5t140.5 47t51.5 123q0 78 -51.5 125 t-140.5 47t-137.5 -47t-48.5 -127z" />
<glyph horiz-adv-x="827" d="M86 932q0 100 15 176.5t50.5 140t101 97.5t159.5 34q77 0 135 -23t94.5 -62t59 -97.5t31.5 -122.5t9 -143t-9 -143.5t-31.5 -123t-59 -98t-94.5 -63t-135 -23.5q-94 0 -159.5 34.5t-101 98.5t-50.5 141t-15 177zM229 932q0 -62 5 -109.5t17.5 -89.5t32.5 -69t52.5 -42.5 t75.5 -15.5q56 0 93 22.5t57 68t28 101.5t8 134q0 62 -4.5 109t-17 88.5t-33 68t-53.5 42t-78 15.5q-54 0 -90.5 -22.5t-56.5 -67t-28 -100t-8 -133.5z" />
<glyph horiz-adv-x="669" d="M66 1253q198 38 276 111h107v-737h192v-129h-555v129h221v569q-91 -37 -221 -53z" />
<glyph horiz-adv-x="581" d="M25 754q199 41 276 110h107v-864h-144v698q-80 -39 -219 -53z" />
<glyph horiz-adv-x="786" d="M55 1204q126 176 320 176q137 0 224 -72.5t87 -197.5q0 -48 -12.5 -88.5t-36 -79t-73 -88t-106.5 -99t-153 -126.5h414v-131h-637v110q264 208 359.5 309.5t95.5 184.5q0 67 -50.5 106t-121.5 39q-61 0 -112 -30t-85 -80z" />
<glyph horiz-adv-x="798" d="M55 674l131 49q61 -109 213 -109q80 0 126 39t46 99q0 57 -39.5 88.5t-111.5 31.5h-113v129h107q51 0 94 30.5t43 90.5q0 62 -49 93.5t-121 31.5q-134 0 -201 -98l-110 70q115 161 321 161q131 0 216 -63.5t85 -175.5q0 -129 -104 -189q69 -26 100 -83t31 -124 q0 -117 -90 -190.5t-230 -73.5q-247 0 -344 193z" />
<glyph horiz-adv-x="794" d="M49 696v117q74 127 122.5 276.5t51.5 274.5h139q-3 -124 -48.5 -269t-116.5 -272h286v344h138v-344h129v-127h-129v-198h-140v198h-432z" />
<glyph horiz-adv-x="782" d="M55 651l121 68q61 -107 209 -107q77 0 129.5 43.5t52.5 122.5q0 77 -50 120.5t-140 43.5q-117 0 -187 -82l-81 39l26 465h531v-131h-410q-3 -60 -20 -219q75 49 178 49q135 0 218 -77.5t83 -209.5q0 -55 -19 -105.5t-57 -94t-104.5 -69.5t-151.5 -26q-220 0 -328 170z " />
<glyph horiz-adv-x="792" d="M76 815q0 291 282 549h201q-104 -78 -185.5 -172t-119.5 -188q36 35 91 52t101 17q129 0 213 -79.5t84 -209.5q0 -133 -92 -218t-239 -85q-154 0 -245 88t-91 246zM221 780q0 -76 50.5 -122t138.5 -46q90 0 139 46t49 124t-49 125t-139 47q-88 0 -138.5 -48t-50.5 -126z " />
</font>
</defs>
</svg>
